#TITLE:R176;
#SUBTITLE:;
#ARTIST:cranky;
#TITLETRANSLIT:;
#SUBTITLETRANSLIT:;
#ARTISTTRANSLIT:;
#GENRE:;
#CREDIT:xRGTMx;
#MENUCOLOR:;
#METERTYPE:DDR;
#BANNER:R176.png;
#BACKGROUND:R176-bg.png;
#LYRICSPATH:;
#CDTITLE:;
#MUSIC:R176.mp3;
#OFFSET:0.000;
#SAMPLESTART:44.239;
#SAMPLELENGTH:12.000;
#SELECTABLE:YES;
#LISTSORT:;
#DISPLAYBPM:190.000;
#BPMS:0.000=190.000,136.000=380.000,140.000=190.000,168.000=380.000,172.000=190.000;
#STOPS:136.000=0.079
,136.500=0.079
,137.000=0.079
,137.500=0.079
,138.000=0.079
,138.500=0.079
,139.000=0.079
,139.500=0.079
,168.000=0.079
,168.500=0.079
,169.000=0.079
,169.500=0.079
,170.000=0.079
,170.500=0.079
,171.000=0.079
,171.500=0.079
;
#BGCHANGES:;
#ATTACKS:;

//---------------dance-single - xRGTMx----------------
#NOTES:
     dance-single:
     xRGTMx:
     Hard:
     14:
     0.783,0.882,0.647,0.351,0.065: // measure 1
0000
0000
0000
0000
,  // measure 2
0000
0000
0000
0000
,  // measure 3
0000
0000
0000
0000
,  // measure 4
1010
0000
1001
0000
1000
0100
0010
0100
,  // measure 5
1000
0101
1010
0101
,  // measure 6
1002
0010
0000
0023
,  // measure 7
0230
0000
0000
1000
1300
0100
0010
0001
,  // measure 8
1000
0000
1000
0001
0000
0001
0100
0010
,  // measure 9
2000
0000
0000
0000
3000
0000
0000
0000
1002
0000
0000
0000
0003
0000
1000
0001
,  // measure 10
2000
0100
0010
3001
,  // measure 11
1000
0000
0010
0000
0001
0000
0010
0000
1000
0000
0000
0001
1000
0000
1001
0000
,  // measure 12
0001
0100
0010
0100
1000
0100
0010
0100
,  // measure 13
0001
0010
0100
1000
0010
0100
0001
1000
,  // measure 14
0001
0010
0100
0010
1000
0010
0100
0010
,  // measure 15
0001
0010
0100
1000
0010
0100
0001
1001
,  // measure 16
1000
0100
0001
0100
1000
0100
0001
0100
,  // measure 17
1000
0010
0001
0010
1000
0010
0001
0010
,  // measure 18
1000
0100
0010
0001
0010
0100
1000
0001
,  // measure 19
1000
0000
0001
1000
0001
0000
1000
0000
0001
0000
1000
0000
0002
0000
0000
0000
,  // measure 20
1003
0010
0100
0001
0000
0102
0000
1003
,  // measure 21
1000
0100
0010
0001
0000
2001
0000
3001
,  // measure 22
0001
0010
0100
1000
0000
1002
0000
1003
,  // measure 23
1000
0000
0010
0000
0100
0000
0001
0000
1000
0000
0000
0101
0000
0000
1100
0000
,  // measure 24
1000
0001
0100
0010
0000
2001
0000
3001
,  // measure 25
0010
0100
1000
0001
0000
2001
0000
3010
,  // measure 26
0100
0001
1000
0100
0010
0100
1000
0100
,  // measure 27
0010
0100
1000
0100
0010
0100
1001
0000
,  // measure 28
2010
0000
0010
0000
3010
0020
0100
0230
,  // measure 29
0001
0302
1000
2003
3200
0320
0032
1003
,  // measure 30
2010
0000
0010
0000
3010
0020
0100
0130
,  // measure 31
0001
1000
0001
1000
0010
0000
0100
0000
,  // measure 32
1100
0000
0110
0000
0011
0001
1000
0001
,  // measure 33
0100
0010
1000
0001
0010
0100
1000
0001
,  // measure 34
1001
0000
1100
0000
0110
0010
0001
1000
,  // measure 35
0002
0000
2003
0000
,  // measure 36
3001
0000
1001
0000
1000
0010
0100
0001
,  // measure 37
1000
0000
1001
0000
0110
0010
0110
0000
,  // measure 38
1001
0000
1001
0000
1000
0100
0010
0001
,  // measure 39
1001
0000
0110
0000
1001
0001
1001
0000
,  // measure 40
1001
0000
1001
0000
1000
0010
0100
0001
,  // measure 41
1000
0000
1001
0000
0110
0010
0110
0000
,  // measure 42
1001
0000
1001
0000
1000
0100
0010
0001
,  // measure 43
2000
0000
3002
0000
,  // measure 44
1003
0000
0100
0010
0100
0000
0010
0000
0001
0000
0001
0000
1000
0000
1000
0000
,  // measure 45
0001
0000
0100
0010
0100
0000
0010
0000
1000
0000
1000
0000
0001
0000
0001
0000
,  // measure 46
1000
0000
0100
0010
0001
0000
1000
0000
0001
0000
0001
0000
1000
0000
1000
0000
,  // measure 47
0001
0000
0100
0010
1000
0000
0001
0000
1000
0000
1000
0000
0001
0000
0001
0000
,  // measure 48
0001
0100
0010
0100
1000
0100
0010
0100
,  // measure 49
0001
0010
0100
1000
0010
0100
0001
1000
,  // measure 50
0001
0010
0100
0010
1000
0010
0100
0010
,  // measure 51
0001
0010
0100
1000
0010
0100
0001
1001
,  // measure 52
1000
0100
0001
0100
1000
0100
0001
0100
,  // measure 53
1000
0010
0001
0010
1000
0010
0001
0010
,  // measure 54
1000
0100
0010
0001
0010
0100
1000
0001
,  // measure 55
1000
0000
0000
0000
0001
0000
0000
0000
1000
0000
0000
0001
1000
0001
1000
0001
,  // measure 56
1000
0100
0001
0100
0000
1100
0000
0101
,  // measure 57
0000
1000
0100
0000
0010
0001
0000
1000
,  // measure 58
0001
0100
1000
0100
0000
0101
0000
1000
,  // measure 59
1001
0001
1001
0000
0110
0000
1001
0000
,  // measure 60
1000
0100
0001
0100
1000
0010
0001
0010
,  // measure 61
1000
0100
0001
1000
0001
0100
1000
0001
,  // measure 62
1000
0010
0001
0010
1000
0100
0001
0100
,  // measure 63
1000
0100
0010
0001
2001
0000
0001
3001
,  // measure 64
1000
0000
0101
0000
1000
0100
0010
0001
,  // measure 65
2001
0010
0100
3001
,  // measure 66
1000
0120
0000
0032
,  // measure 67
2003
0000
0000
3001
0100
0010
1000
0001
,  // measure 68
1001
0000
1000
0100
0000
0010
0100
1000
,  // measure 69
0001
0000
1100
0000
0001
0100
0010
1000
,  // measure 70
0001
0000
0000
0000
0010
0000
0110
0000
0000
0000
1100
0000
0000
0000
1000
0001
,  // measure 71
1000
0000
1001
0000
1000
0010
0001
0010
,  // measure 72
1010
0000
1001
0000
1000
0100
0010
0100
,  // measure 73
1000
0101
1010
0101
,  // measure 74
1002
0010
0000
0023
,  // measure 75
0230
0000
0000
1000
1300
0100
0010
0001
,  // measure 76
1000
0000
1000
0001
0000
0001
0100
0010
,  // measure 77
2000
0000
0000
0000
3000
0000
0000
0000
1002
0000
0000
0000
0003
0000
1000
0001
,  // measure 78
1000
0000
2100
0100
0000
3100
0010
0001
,  // measure 79
1001
0000
0100
0000
1001
0000
0000
0000
1001
0000
0000
0010
0100
0000
0020
0000
,  // measure 80
0000
0000
0000
0000
,  // measure 81
0000
0000
0000
0000
,  // measure 82
0000
0000
0000
0000
,  // measure 83
0000
0000
0000
0000
,  // measure 84
0130
0000
0000
0000
;

//---------------dance-single - xRGTMx----------------
#NOTES:
     dance-single:
     xRGTMx:
     Medium:
     11:
     0.545,0.575,0.379,0.176,0.005: // measure 1
0000
0000
0000
0000
,  // measure 2
0000
0000
0000
0000
,  // measure 3
0000
0000
0000
0000
,  // measure 4
1000
0000
0001
0000
1000
0100
0010
0001
,  // measure 5
1000
0001
0100
0010
,  // measure 6
1001
0210
0000
0302
,  // measure 7
2003
0000
0000
0000
3001
0010
0100
1000
,  // measure 8
0001
1000
0010
0100
,  // measure 9
1001
0000
0110
0000
,  // measure 10
2002
0000
0000
0003
,  // measure 11
3010
0100
0010
1001
,  // measure 12
1000
0000
0100
0000
0010
0100
1000
0000
,  // measure 13
0001
0100
0010
1001
,  // measure 14
0001
0000
0100
0000
0010
0100
0001
0000
,  // measure 15
1000
0100
0011
1100
,  // measure 16
0001
0000
0010
0000
0100
1000
0010
0000
,  // measure 17
0100
0001
1001
0110
,  // measure 18
0001
0000
1000
0000
0100
0010
0001
0000
,  // measure 19
2000
0000
0000
0000
,  // measure 20
3001
0010
0100
1000
0000
1001
0000
0000
,  // measure 21
1000
0100
0010
0001
0000
1001
0000
0000
,  // measure 22
0001
0100
0010
1000
0000
1001
0000
0000
,  // measure 23
1000
0000
0100
0000
0010
0000
0001
0000
1000
0000
0000
0001
0000
0000
1000
0000
,  // measure 24
0001
0010
0100
1000
0000
1001
0000
0000
,  // measure 25
1000
0100
0010
0001
0000
1001
0000
0000
,  // measure 26
0001
0100
0010
1000
0000
1001
0000
1000
,  // measure 27
0000
0001
0000
1000
0000
0001
0010
0000
,  // measure 28
0100
0100
1000
0001
,  // measure 29
1000
0100
0010
0100
1000
0000
0001
1000
,  // measure 30
0001
0001
0100
0100
,  // measure 31
0001
0010
0100
1000
0010
0000
1001
0000
,  // measure 32
1000
0001
1000
0001
,  // measure 33
0100
0000
0010
1000
0100
0000
0010
0000
,  // measure 34
0001
1000
0010
0100
,  // measure 35
0020
0000
0000
0000
,  // measure 36
1030
0000
0100
0000
0010
0100
1000
0000
,  // measure 37
0021
0100
1000
0031
,  // measure 38
1000
0000
0010
0000
0100
0001
1000
0000
,  // measure 39
0210
0001
1000
0010
,  // measure 40
0301
0000
0100
0000
0010
0100
0001
0000
,  // measure 41
1020
0100
0001
1030
,  // measure 42
0001
0000
0100
0000
0010
1000
0100
0000
,  // measure 43
1001
0000
0000
0000
,  // measure 44
1000
0100
1000
0100
0010
0100
0010
0000
,  // measure 45
0001
0010
0001
0010
0100
0010
0100
0000
,  // measure 46
1000
0010
1000
0010
0100
0010
0100
0000
,  // measure 47
0001
0100
0001
0100
0010
0100
0010
0000
,  // measure 48
1000
0000
0001
0000
1000
0100
0010
0000
,  // measure 49
0001
0000
1000
0000
0001
0100
0010
0000
,  // measure 50
1000
0000
0001
0000
1000
0010
0100
0000
,  // measure 51
0001
0000
1000
0000
0001
0010
0100
0000
,  // measure 52
1000
0000
0001
0000
1000
0100
1000
0000
,  // measure 53
0001
0000
1000
0000
0001
0100
0001
0000
,  // measure 54
1000
0000
0001
0000
1000
0100
0010
0000
,  // measure 55
2002
0000
0000
3003
,  // measure 56
1000
0001
1000
0010
0000
0100
0000
0110
,  // measure 57
0000
0100
0001
0000
1000
0001
0000
0001
,  // measure 58
1000
0100
0010
0001
0000
1000
0000
1000
,  // measure 59
0010
0110
1001
0000
,  // measure 60
0001
0010
0100
1100
,  // measure 61
1000
0000
0001
0100
0010
1000
0001
0000
,  // measure 62
1000
0100
0010
0001
,  // measure 63
1001
0000
0110
0000
1001
0000
1000
0100
,  // measure 64
0010
0000
0100
0000
1000
0001
0100
0010
,  // measure 65
1000
0001
0010
0100
,  // measure 66
0110
2001
0000
3002
,  // measure 67
2003
0000
0000
0000
3001
0010
0100
1000
,  // measure 68
0001
0000
0100
0000
0010
0000
1000
0100
,  // measure 69
0010
0000
0100
0000
1000
0000
0001
0100
,  // measure 70
0010
0000
0100
0000
0001
0010
0100
0000
,  // measure 71
0110
0000
1001
0000
1000
0001
0100
0010
,  // measure 72
1000
0000
0001
0000
1000
0100
0010
0001
,  // measure 73
1000
0001
0100
0010
,  // measure 74
1001
0210
0000
0302
,  // measure 75
2003
0000
0000
0000
3001
0010
0100
1000
,  // measure 76
0001
1000
0010
0100
,  // measure 77
1001
0100
0011
0100
,  // measure 78
1001
0100
1010
0100
,  // measure 79
1000
0100
0010
0100
1000
0001
1000
2001
,  // measure 80
0000
0000
0000
0000
,  // measure 81
0000
0000
0000
0000
,  // measure 82
0000
0000
0000
0000
,  // measure 83
0000
0000
0000
0000
,  // measure 84
3001
0000
0000
0000
;

//---------------dance-single - xRGTMx----------------
#NOTES:
     dance-single:
     xRGTMx:
     Easy:
     7:
     0.358,0.460,0.360,0.092,0.000: // measure 1
0000
0000
0000
0000
,  // measure 2
0000
0000
0000
0000
,  // measure 3
0000
0000
0000
0000
,  // measure 4
1000
0100
0010
0100
,  // measure 5
1000
0001
0100
0010
,  // measure 6
1001
0110
0000
0110
,  // measure 7
1001
0000
1000
0001
,  // measure 8
1001
1000
0100
0010
,  // measure 9
1001
0000
0110
0000
,  // measure 10
2002
0000
0000
0000
,  // measure 11
3003
0000
0010
0010
,  // measure 12
0010
1000
0010
1000
,  // measure 13
0001
1000
0001
1000
,  // measure 14
0100
0100
0100
0100
,  // measure 15
0100
0000
1001
0000
,  // measure 16
1000
0100
0010
0001
,  // measure 17
1000
0100
0010
0001
,  // measure 18
1000
0100
0001
0100
,  // measure 19
2000
0000
0000
0000
,  // measure 20
3001
0000
0000
1001
0000
0000
0000
0000
,  // measure 21
1000
0000
0000
1001
0000
0000
0000
0000
,  // measure 22
0001
0000
0000
1001
0000
0000
0000
0000
,  // measure 23
1000
0000
0001
1000
,  // measure 24
0001
0000
0000
1001
0000
0000
0000
0000
,  // measure 25
1000
0000
0000
1001
0000
0000
0000
0000
,  // measure 26
0001
0000
0000
2002
0000
0000
3003
0000
,  // measure 27
0000
0000
0000
0010
,  // measure 28
1000
1000
1000
1000
,  // measure 29
0001
0001
0001
0001
,  // measure 30
0100
0100
0100
0100
,  // measure 31
0010
0000
1001
0000
,  // measure 32
1000
0001
1000
0000
,  // measure 33
0001
1000
0001
0000
,  // measure 34
0100
0010
0100
0000
,  // measure 35
1001
0000
0000
0000
,  // measure 36
1000
1000
1000
0000
,  // measure 37
0001
0001
0001
0000
,  // measure 38
1000
0001
1000
0001
,  // measure 39
1000
0001
1001
0000
,  // measure 40
0001
0001
1000
0000
,  // measure 41
1000
1000
0001
0000
,  // measure 42
1000
0100
0010
0001
,  // measure 43
1001
0000
0000
0000
,  // measure 44
1001
0000
0000
0000
,  // measure 45
0110
0000
0000
0000
,  // measure 46
1001
0000
0000
0000
,  // measure 47
0110
0000
1001
0000
,  // measure 48
1000
0100
0001
0100
,  // measure 49
1000
0100
0001
0100
,  // measure 50
1000
0100
0001
0100
,  // measure 51
1000
0000
0001
0000
,  // measure 52
1000
0010
0001
0010
,  // measure 53
1000
0010
0001
0010
,  // measure 54
1000
0010
0001
0010
,  // measure 55
1000
0000
0001
0000
,  // measure 56
2002
3003
0000
0000
,  // measure 57
2000
3000
0002
0003
,  // measure 58
1001
0000
0110
0000
,  // measure 59
1000
0001
1000
0000
,  // measure 60
0001
0100
1000
0100
,  // measure 61
0001
0010
1000
0010
,  // measure 62
0001
0100
1000
0010
,  // measure 63
0001
0000
1001
0000
,  // measure 64
0001
0100
0010
1000
,  // measure 65
0001
0001
1000
1000
,  // measure 66
0010
0000
1001
0000
,  // measure 67
1000
0100
0010
0100
,  // measure 68
1000
0001
1000
0000
,  // measure 69
0001
1000
0001
0000
,  // measure 70
0100
0010
1000
0001
,  // measure 71
1000
0000
1001
0000
,  // measure 72
1000
0100
0010
0100
,  // measure 73
1000
0001
0100
0010
,  // measure 74
1001
0110
0000
0110
,  // measure 75
1001
0000
1000
0001
,  // measure 76
1001
1000
0100
0010
,  // measure 77
1001
0000
0110
0000
,  // measure 78
1001
0000
0110
0000
,  // measure 79
1000
0000
0100
0000
0010
0000
0000
0200
,  // measure 80
0000
0000
0000
0000
,  // measure 81
0000
0000
0000
0000
,  // measure 82
0000
0000
0000
0000
,  // measure 83
0000
0000
0000
0000
,  // measure 84
0310
0000
0000
0000
;

//---------------dance-single - xRGTMx----------------
#NOTES:
     dance-single:
     xRGTMx:
     Beginner:
     4:
     0.265,0.345,0.213,0.037,0.000: // measure 1
0000
0000
0000
0000
,  // measure 2
0000
0000
0000
0000
,  // measure 3
0000
0000
0000
0000
,  // measure 4
1000
1000
1000
0000
,  // measure 5
0001
0001
0001
0000
,  // measure 6
0100
0100
0100
0000
,  // measure 7
0010
0010
0010
0000
,  // measure 8
1000
0000
1000
0000
,  // measure 9
0001
0000
0001
0000
,  // measure 10
1001
0000
0000
0000
,  // measure 11
0010
0000
0000
0000
,  // measure 12
1000
1000
1000
0000
,  // measure 13
0001
0001
0001
0000
,  // measure 14
1000
1000
1000
0000
,  // measure 15
0001
0001
0001
0000
,  // measure 16
0100
0100
0100
0000
,  // measure 17
0010
0010
0010
0000
,  // measure 18
0100
0100
0100
0000
,  // measure 19
0020
0030
0000
0000
,  // measure 20
1001
0000
0000
0000
,  // measure 21
0110
0000
0000
0000
,  // measure 22
1001
0000
0000
0000
,  // measure 23
0110
0000
0000
0000
,  // measure 24
1001
0000
0000
0000
,  // measure 25
0110
0000
0000
0000
,  // measure 26
2002
0000
0000
0000
,  // measure 27
3003
0000
0000
1000
,  // measure 28
1000
0000
0001
0000
,  // measure 29
1000
0000
0001
0000
,  // measure 30
1000
0000
0100
0000
,  // measure 31
0010
0010
0010
0000
,  // measure 32
0001
0001
0001
0000
,  // measure 33
1000
1000
1000
0000
,  // measure 34
0010
0000
0100
0000
,  // measure 35
1001
0000
0000
0000
,  // measure 36
1000
1000
1000
0000
,  // measure 37
1000
1000
1000
0000
,  // measure 38
0001
0001
0001
0000
,  // measure 39
0001
0001
0001
0000
,  // measure 40
0100
0100
0100
0000
,  // measure 41
0010
0010
0010
0000
,  // measure 42
1001
0000
0110
0000
,  // measure 43
1001
0000
0000
0000
,  // measure 44
1000
0000
0000
0000
,  // measure 45
0001
0000
0000
0000
,  // measure 46
0100
0000
0000
0000
,  // measure 47
0010
0000
0000
0000
,  // measure 48
1000
1000
1000
1000
,  // measure 49
1000
1000
1000
0000
,  // measure 50
0001
0001
0001
0001
,  // measure 51
0001
0001
0001
0000
,  // measure 52
0100
0100
0100
0100
,  // measure 53
0100
0100
0100
0000
,  // measure 54
0010
0010
0010
0010
,  // measure 55
0010
0000
0000
0000
,  // measure 56
1000
0000
0000
0000
,  // measure 57
1000
0000
0000
0000
,  // measure 58
0001
0000
1000
0000
,  // measure 59
1001
1001
1001
0000
,  // measure 60
1000
0000
0100
0000
,  // measure 61
0010
0000
0001
0000
,  // measure 62
1000
0000
0001
0000
,  // measure 63
0110
0000
1001
0000
,  // measure 64
1000
1000
1000
0000
,  // measure 65
0001
0001
0001
0000
,  // measure 66
0100
0100
0100
0000
,  // measure 67
0010
0010
0010
0000
,  // measure 68
1000
0000
1000
0000
,  // measure 69
0001
0000
0001
0000
,  // measure 70
0100
0000
0010
0000
,  // measure 71
1001
0000
0110
0000
,  // measure 72
1000
1000
1000
0000
,  // measure 73
0001
0001
0001
0000
,  // measure 74
0100
0100
0100
0000
,  // measure 75
0010
0010
0010
0000
,  // measure 76
1000
0000
1000
0000
,  // measure 77
0001
0000
0001
0000
,  // measure 78
1001
0000
0110
0000
,  // measure 79
1001
0000
0110
0000
,  // measure 80
2000
0000
0000
0000
,  // measure 81
0000
0000
0000
0000
,  // measure 82
0000
0000
0000
0000
,  // measure 83
0000
0000
0000
0000
,  // measure 84
3001
0000
0000
0000
;
