#TITLE:Quick Master -Naked Trance Mix-;
#SUBTITLE:;
#ARTIST:SADA;
#TITLETRANSLIT:;
#SUBTITLETRANSLIT:;
#ARTISTTRANSLIT:;
#GENRE:;
#CREDIT:Chewi☆;
#MENUCOLOR:;
#METERTYPE:DDR X;
#BANNER:Quick Master -Naked Trance Mix-.png;
#BACKGROUND:Quick Master -Naked Trance Mix--bg.png;
#LYRICSPATH:;
#CDTITLE:;
#MUSIC:Quick Master -Naked Trance Mix-.mp3;
#OFFSET:-0.418;
#SAMPLESTART:26.864;
#SAMPLELENGTH:15.000;
#SELECTABLE:YES;
#LISTSORT:;
#DISPLAYBPM:145.000;
#BPMS:0.000=145.200;
#STOPS:;
#BGCHANGES:;
#ATTACKS:;

//---------------dance-single - Chewi----------------
#NOTES:
     dance-single:
     Chewi:
     Beginner:
     2:
     0.146,0.172,0.017,0.099,0.000: // measure 1
0000
0000
0000
0000
,  // measure 2
0000
0000
0000
0000
,  // measure 3
0000
0000
0000
0000
,  // measure 4
0000
0000
0000
0000
,  // measure 5
0010
0000
0000
0000
,  // measure 6
1000
0000
0000
0000
,  // measure 7
1001
0000
0000
0000
,  // measure 8
0010
0000
0000
0000
,  // measure 9
0020
0000
0000
0000
,  // measure 10
0000
0000
0000
0030
,  // measure 11
0010
0000
0100
0000
,  // measure 12
1000
0000
0010
0000
,  // measure 13
1000
0000
0100
0000
,  // measure 14
0001
0000
0010
0000
,  // measure 15
0010
0000
0010
0000
,  // measure 16
0100
0000
0100
0000
,  // measure 17
2000
0000
0000
3000
,  // measure 18
1000
0000
0100
0000
,  // measure 19
0020
0000
0000
0030
,  // measure 20
0010
0000
1000
0000
,  // measure 21
2000
0000
0000
3000
,  // measure 22
1000
0000
0010
0000
,  // measure 23
0002
0000
0000
0003
,  // measure 24
0001
0000
0001
0000
,  // measure 25
0100
0000
0100
0000
,  // measure 26
0010
0000
0001
0000
,  // measure 27
0010
0000
0010
0000
,  // measure 28
0010
0000
1000
0000
,  // measure 29
1000
0000
1000
0000
,  // measure 30
0001
0000
0010
0000
,  // measure 31
0010
0000
0010
0000
,  // measure 32
1000
0000
1000
0000
,  // measure 33
0002
0000
0000
0003
,  // measure 34
2000
0000
0000
3000
,  // measure 35
0100
0000
0100
0000
,  // measure 36
0100
0000
0001
0000
,  // measure 37
0010
0000
0010
0000
,  // measure 38
0010
0000
0100
0000
,  // measure 39
0010
0000
0010
0000
,  // measure 40
1000
0000
0010
0000
,  // measure 41
0100
0000
0100
0000
,  // measure 42
0010
0000
1000
0000
,  // measure 43
0100
0000
0100
0000
,  // measure 44
1000
0000
0001
0000
,  // measure 45
1000
0000
1000
0000
,  // measure 46
0010
0000
0001
0000
,  // measure 47
0100
0000
0100
0000
,  // measure 48
0010
0000
1000
0000
,  // measure 49
1000
0000
1000
0000
,  // measure 50
0001
0000
0001
0000
,  // measure 51
1001
0000
0000
0000
,  // measure 52
0200
0000
0000
0300
,  // measure 53
0020
0000
0000
0030
,  // measure 54
2000
0000
0000
3000
,  // measure 55
0002
0000
0000
0003
,  // measure 56
1000
0000
0001
0000
,  // measure 57
0001
0000
0001
0000
,  // measure 58
0010
0000
0100
0000
,  // measure 59
0100
0000
0100
0000
,  // measure 60
0100
0000
0100
0000
,  // measure 61
0010
0000
0001
0000
,  // measure 62
0010
0000
0010
0000
,  // measure 63
0010
0000
1000
0000
,  // measure 64
1000
0000
1000
0000
,  // measure 65
0001
0000
0010
0000
,  // measure 66
0010
0000
0010
0000
,  // measure 67
1000
0000
0001
0000
,  // measure 68
2000
0000
0000
0000
,  // measure 69
0000
0000
0000
0000
,  // measure 70
3000
0000
0000
0000
;

//---------------dance-single - Chewi----------------
#NOTES:
     dance-single:
     Chewi:
     Easy:
     5:
     0.211,0.257,0.017,0.099,0.000: // measure 1
0000
0000
0000
0000
,  // measure 2
0000
0000
0000
0000
,  // measure 3
0000
0000
0000
0000
,  // measure 4
0000
0000
0000
0000
,  // measure 5
0010
0000
1000
0000
,  // measure 6
0001
0000
1000
0000
,  // measure 7
1001
0000
0000
0000
,  // measure 8
0010
0010
0100
0100
,  // measure 9
0020
0000
0000
0000
,  // measure 10
0000
0000
0000
0030
,  // measure 11
0001
0001
0100
0000
,  // measure 12
1000
1000
0010
0000
,  // measure 13
1000
1000
0100
0000
,  // measure 14
0001
0001
0010
0000
,  // measure 15
0010
0010
0010
0010
,  // measure 16
0100
0100
0100
0100
,  // measure 17
2000
0000
0000
3000
,  // measure 18
0001
0000
0100
0000
,  // measure 19
0020
0000
0000
0030
,  // measure 20
0010
0000
1000
0000
,  // measure 21
2000
0000
0000
3000
,  // measure 22
0100
0000
0010
0000
,  // measure 23
0002
0000
0000
0003
,  // measure 24
1000
0000
0001
0000
,  // measure 25
0100
0100
0100
0000
,  // measure 26
0010
1000
0001
0000
,  // measure 27
0010
0010
0010
0000
,  // measure 28
0010
0100
1000
0000
,  // measure 29
1000
1000
1000
0000
,  // measure 30
0001
0100
0010
0000
,  // measure 31
0010
0010
0010
0000
,  // measure 32
1000
0001
1000
0000
,  // measure 33
0002
0000
0000
0003
,  // measure 34
2000
0000
0000
3000
,  // measure 35
0100
0100
0100
0000
,  // measure 36
0100
0010
0001
0100
,  // measure 37
0010
0010
0010
0000
,  // measure 38
0010
1000
0100
1000
,  // measure 39
0010
0010
0010
0000
,  // measure 40
1000
0100
0010
0001
,  // measure 41
0100
0100
0100
0000
,  // measure 42
0010
0010
1000
1000
,  // measure 43
0100
0010
0100
0000
,  // measure 44
1000
0100
0001
0100
,  // measure 45
1000
1000
1000
0000
,  // measure 46
0010
0100
0001
1000
,  // measure 47
0100
0100
0100
0000
,  // measure 48
0010
0100
1000
0010
,  // measure 49
1000
1000
1000
0000
,  // measure 50
0001
0001
0001
0000
,  // measure 51
1001
0000
0000
0000
,  // measure 52
0200
0000
0000
0300
,  // measure 53
0020
0000
0000
0030
,  // measure 54
2000
0000
0000
3000
,  // measure 55
0002
0000
0000
0003
,  // measure 56
1000
0001
0000
0000
,  // measure 57
0001
1000
0001
0000
,  // measure 58
0010
0100
0000
0000
,  // measure 59
0100
0010
0100
0000
,  // measure 60
0100
0100
0100
0000
,  // measure 61
0010
1000
0001
0000
,  // measure 62
0010
0010
0010
0000
,  // measure 63
0010
0100
1000
0000
,  // measure 64
1000
1000
1000
0000
,  // measure 65
0001
0100
0010
0000
,  // measure 66
0010
0010
0010
0000
,  // measure 67
1000
0001
1000
0001
,  // measure 68
2000
0000
0000
0000
,  // measure 69
0000
0000
0000
0000
,  // measure 70
3000
0000
0000
0000
;

//---------------dance-single - Chewi----------------
#NOTES:
     dance-single:
     Chewi:
     Medium:
     8:
     0.363,0.429,0.075,0.050,0.066: // measure 1
0000
0000
0000
0000
,  // measure 2
0000
0000
0000
0000
,  // measure 3
0000
0000
0000
0000
,  // measure 4
0000
0000
0000
0000
,  // measure 5
1000
0100
0000
0100
0000
0100
0000
0100
,  // measure 6
0001
0100
0000
0100
0000
0100
0000
0100
,  // measure 7
0010
0100
0000
0010
0000
0100
0000
0010
,  // measure 8
0110
0110
1001
1001
,  // measure 9
2000
0000
0000
0000
,  // measure 10
0002
0000
0000
3003
,  // measure 11
1000
0000
0100
0000
1000
0100
1000
0000
,  // measure 12
0001
0000
0010
0000
0001
0010
0001
0000
,  // measure 13
1000
0000
0001
0000
0100
0010
1000
0000
,  // measure 14
0001
0000
1000
0000
0100
0010
0001
0000
,  // measure 15
1000
0100
1001
0000
,  // measure 16
0001
0100
1001
0000
,  // measure 17
1000
0010
1000
0000
0010
0000
0100
0000
,  // measure 18
0001
0010
0100
0000
1000
0000
0100
0000
,  // measure 19
1000
0010
1000
0000
0100
0000
0010
0000
,  // measure 20
0001
0100
0010
0000
1000
0000
0010
0000
,  // measure 21
0100
0001
0100
0000
0010
0000
1000
0000
,  // measure 22
0100
0010
0001
0000
0010
0000
0100
0000
,  // measure 23
1000
0001
0100
0000
0010
0000
1000
0000
,  // measure 24
0001
1000
0100
0000
0010
0000
0001
0000
,  // measure 25
1000
0000
0000
1000
0000
0000
1000
0000
0000
1000
0000
0000
1000
0000
0000
0000
,  // measure 26
0001
0000
0000
0001
0000
0000
0001
0000
0000
0001
0000
0000
0001
0000
0000
0000
,  // measure 27
0100
0000
0000
0100
0000
0000
0100
0000
0000
0100
0000
0000
0100
0000
0000
0000
,  // measure 28
0010
0000
0000
0010
0000
0000
0010
0000
0000
0010
0000
0000
0010
0000
0000
0000
,  // measure 29
1000
0000
0000
1000
0000
0000
1000
0000
0000
1000
0000
0000
1000
0000
0000
0000
,  // measure 30
0100
0000
0000
0100
0000
0000
0100
0000
0000
0100
0000
0000
0100
0000
0000
0000
,  // measure 31
0010
0000
0000
0010
0000
0000
0010
0000
0000
0010
0000
0000
0010
0000
0000
0000
,  // measure 32
0001
0000
0000
0001
0000
0000
0001
0000
0000
0001
0000
0000
0001
0000
0000
0000
,  // measure 33
2001
0000
0000
0000
,  // measure 34
0002
0000
0000
3003
,  // measure 35
1000
0100
1000
0000
0001
0000
0010
0000
,  // measure 36
0100
1000
0010
0000
1000
0000
0100
0000
,  // measure 37
0010
0001
0010
0000
0001
0000
0100
0000
,  // measure 38
0010
0100
0001
0000
1000
0000
0100
0000
,  // measure 39
0010
0100
1000
0000
0010
0000
1000
0000
,  // measure 40
0100
0010
0001
0000
1000
0000
0100
0000
,  // measure 41
0010
0100
1000
0000
0001
0000
0100
0000
,  // measure 42
0010
1000
0001
0000
1000
0000
0100
0000
,  // measure 43
0010
0001
0010
0000
0100
1000
0100
0000
,  // measure 44
1000
0001
1000
0000
0001
1000
0001
0000
,  // measure 45
1000
0010
1000
0000
0001
0100
0001
0000
,  // measure 46
1000
0100
1000
0000
0001
0010
0001
0000
,  // measure 47
1000
0000
1100
0000
0001
0010
0100
1000
,  // measure 48
0001
0000
0011
0000
1000
0010
0100
0001
,  // measure 49
0100
0010
1000
0001
,  // measure 50
1000
0100
1000
0000
0001
0010
0001
0000
,  // measure 51
2000
0000
0000
3000
,  // measure 52
1000
0100
0000
0100
0000
0100
0000
0100
,  // measure 53
0001
0100
0000
0100
0000
0100
0000
0100
,  // measure 54
0010
0100
0000
0010
0000
0100
0000
0010
,  // measure 55
0000
1000
0000
0100
0000
0010
0000
0001
,  // measure 56
1000
0000
0100
0000
1000
0001
0100
0000
,  // measure 57
0010
0000
0100
0000
0001
0010
0100
0000
,  // measure 58
1000
0010
0001
0000
,  // measure 59
0001
0010
1000
0000
,  // measure 60
1000
0100
1000
0000
0001
0100
0001
0000
,  // measure 61
1000
0010
0001
0010
,  // measure 62
1000
0100
1000
0000
0001
0100
0001
0000
,  // measure 63
1000
0100
0001
0010
,  // measure 64
0100
0000
0010
0000
0001
0010
0100
0000
,  // measure 65
1000
0000
0010
0000
0100
0010
1000
0000
,  // measure 66
0001
0000
1000
0000
0001
0010
0100
0000
,  // measure 67
1000
0000
0001
0000
1000
0010
0100
0000
,  // measure 68
0020
0000
0000
0000
,  // measure 69
0000
0000
0000
0000
,  // measure 70
0030
0000
0000
0000
;

//---------------dance-single - Chewi----------------
#NOTES:
     dance-single:
     Chewi:
     Hard:
     12:
     0.455,0.629,0.373,0.124,0.166: // measure 1
0000
0000
0000
0000
,  // measure 2
0000
0000
0000
0000
,  // measure 3
0000
0000
0000
0000
,  // measure 4
0000
0000
0000
0000
,  // measure 5
1000
0100
0000
0010
0001
0100
0000
0010
,  // measure 6
0100
0001
0000
0010
0100
1000
0000
0010
,  // measure 7
1000
0100
0000
1000
0001
0100
0000
0010
,  // measure 8
2000
3200
0320
0032
,  // measure 9
0203
0000
0000
0000
,  // measure 10
0020
0000
0000
0330
,  // measure 11
1000
0010
1000
0000
0100
0001
0100
0000
,  // measure 12
0001
0010
0001
0000
0010
1000
0010
0000
,  // measure 13
1000
0100
0010
0000
0001
0100
0010
0000
,  // measure 14
1000
0010
0001
0000
0001
0010
1000
0000
,  // measure 15
1000
0100
1000
0000
0001
0100
0001
0000
,  // measure 16
0101
0000
0000
0100
0000
0000
0010
0000
0000
0010
0000
0000
2000
0000
0000
0000
,  // measure 17
3001
0000
1000
0001
0000
1000
0001
0000
1000
0001
0000
1000
0001
0000
0010
0000
,  // measure 18
0100
0000
0010
0100
0000
0010
0100
0000
0010
0100
0000
0010
0100
0000
0010
0000
,  // measure 19
0011
0000
1000
0100
1100
0000
1000
0001
,  // measure 20
1001
0100
0010
0100
1001
0000
0001
0010
,  // measure 21
0100
0000
1000
0100
0000
1000
0100
0000
1000
0100
0000
1000
0100
0000
1000
0000
,  // measure 22
0001
0000
0000
0001
1000
0000
0000
1000
0010
0000
0000
0010
0100
0000
0000
0100
,  // measure 23
0001
1000
1001
0000
1000
0010
1010
0000
,  // measure 24
1001
1100
0110
0011
,  // measure 25
0001
0000
0000
0001
1000
0000
0010
0000
0200
0000
0000
0000
0301
0000
0000
0000
,  // measure 26
0010
0000
0000
0010
0100
0000
1000
0000
0020
0000
0000
0000
0130
0000
0000
0000
,  // measure 27
0010
0000
0000
0010
1000
0000
0001
0000
0011
0000
0100
0000
1000
0000
0000
0000
,  // measure 28
1010
0001
0100
0000
0110
0010
1000
0000
,  // measure 29
1000
0001
1000
0001
0010
0001
0010
0001
,  // measure 30
0010
0100
0010
0100
1000
0100
1000
0100
,  // measure 31
1000
0001
0100
0010
1000
0001
0010
0100
,  // measure 32
1000
0010
1000
0010
0001
0010
0001
0010
,  // measure 33
2000
0000
0000
3000
,  // measure 34
0002
0000
0000
0003
,  // measure 35
0010
0000
0000
0010
0000
0000
0010
0000
0000
0000
0000
0000
0000
0000
0000
0000
,  // measure 36
0100
0000
0000
1000
0000
0000
0010
0000
1000
0000
0000
0001
0000
0000
1000
0000
,  // measure 37
0001
0000
0000
0001
0000
0000
0001
0000
0000
0000
0000
0000
0000
0000
0000
0000
,  // measure 38
1000
0000
0000
0010
0000
0000
0100
0000
0001
0000
0000
0010
0000
0000
0001
0000
,  // measure 39
0100
0000
0000
0100
0000
0000
0100
0000
0000
0000
0000
0000
0000
0000
0000
0000
,  // measure 40
0001
0000
0000
0100
0000
0000
0010
0000
1000
0000
0000
0001
0000
0000
1000
0000
,  // measure 41
0100
0000
0000
0100
0000
0000
0100
0000
0000
0000
0000
0000
0000
0000
0000
0000
,  // measure 42
1001
0000
1100
0101
,  // measure 43
1000
0000
0000
1000
0000
0000
1000
0000
0000
0000
0000
0000
0000
0000
0000
0000
,  // measure 44
0010
0000
0000
0100
0000
0000
0001
0000
0010
0000
0000
0100
0000
0000
1000
0000
,  // measure 45
0100
0000
0000
0100
0000
0000
0100
0000
0000
0000
0000
0000
0000
0000
0000
0000
,  // measure 46
1000
0000
0000
0001
0000
0000
1000
0000
0010
0000
0000
0100
0000
0000
0001
0000
,  // measure 47
0100
0000
0000
0100
0000
0000
0100
0000
0000
0000
0000
0000
0000
0000
0000
0000
,  // measure 48
0010
0000
0000
1000
0000
0000
0100
0000
1000
0000
0000
0010
0000
0000
1000
0000
,  // measure 49
0100
0100
0100
0100
0010
0010
0010
0010
,  // measure 50
0001
0010
0001
0010
0100
1000
0100
1000
,  // measure 51
2002
0000
0000
3003
,  // measure 52
1100
0000
0000
0000
,  // measure 53
0011
0000
0000
1001
0000
0000
0101
0000
,  // measure 54
1010
0000
0000
0000
,  // measure 55
0110
0000
0000
1010
0000
1001
1000
0100
,  // measure 56
0010
0000
0011
0000
,  // measure 57
1100
0000
0100
0000
,  // measure 58
1001
0000
0000
0000
,  // measure 59
1001
1001
0110
0110
,  // measure 60
0010
1000
0010
0000
1000
0100
1000
0000
,  // measure 61
1100
0000
0010
0001
0001
0010
0100
0000
,  // measure 62
1000
0010
1000
0000
0100
1000
0100
0000
,  // measure 63
1010
0000
0100
0001
0001
0100
0010
1000
,  // measure 64
1001
0000
0010
0100
1100
0000
0010
0100
,  // measure 65
0101
0000
1000
0100
1100
0000
0001
0010
,  // measure 66
0011
0000
0010
0100
0010
0100
0010
0100
,  // measure 67
0110
0110
1001
1001
,  // measure 68
0202
0000
0000
0000
,  // measure 69
0000
0000
0000
0000
,  // measure 70
0303
0000
0000
0000
;
