#TITLE:淺淺的笑;
#SUBTITLE:;
#ARTIST:夏后;
#TITLETRANSLIT:Qian Qian De Xiao;
#SUBTITLETRANSLIT:;
#ARTISTTRANSLIT:Xia Hou;
#GENRE:C-Pop;
#CREDIT:chewi;
#BANNER:Qian Qian De Xiao.png;
#BACKGROUND:Qian Qian De Xiao-bg.png;
#LYRICSPATH:;
#CDTITLE:cdtitle.png;
#MUSIC:Qian Qian De Xiao.ogg;
#OFFSET:-0.397000;
#SAMPLESTART:67.167999;
#SAMPLELENGTH:15.000000;
#SELECTABLE:YES;
#BPMS:0.000000=57.500000
;
#STOPS:
;
#BGCHANGES:;
#KEYSOUNDS:;
#ATTACKS:;

//---------------dance-single - ----------------
#NOTES:
     dance-single:
     :
     Beginner:
     1:
     0.023586,0.033771,0.025015,0.010006,0.000000,26.000000,5.000000,2.000000,0.000000,0.000000,0.000000,0.023586,0.033771,0.025015,0.010006,0.000000,26.000000,5.000000,2.000000,0.000000,0.000000,0.000000:
0000
0000
0000
0000
,
0000
0000
0000
0000
,
1000
0000
0000
0000
,
0001
0000
0000
0000
,
0110
0000
0000
0000
,
0100
0000
0000
0000
,
0010
0000
0000
0000
,
1000
0000
0000
0000
,
1001
0000
0000
0000
,
0001
0000
0000
0000
,
0010
0000
0000
0000
,
0100
0000
0000
0000
,
0110
0000
0000
0000
,
0010
0000
0000
0000
,
1000
0000
0000
0000
,
0001
0000
0000
0000
,
1001
0000
0000
0000
,
1000
0000
0000
0000
,
0001
0000
0000
0000
,
0100
0000
0000
0000
,
0110
0000
0000
0000
,
0010
0000
0000
0000
,
1000
0000
0000
0000
,
0001
0000
0000
0000
,
2000
0000
0000
3000
,
1000
0000
0000
0000
,
0002
0000
0000
0003
,
0001
0000
0000
0000
;

//---------------dance-single - ----------------
#NOTES:
     dance-single:
     :
     Easy:
     2:
     0.049316,0.067541,0.015009,0.060037,0.000000,54.000000,3.000000,12.000000,0.000000,0.000000,0.000000,0.049316,0.067541,0.015009,0.060037,0.000000,54.000000,3.000000,12.000000,0.000000,0.000000,0.000000:
// measure 0
0000
0000
0000
0000
,  // measure 1
0000
0000
0000
0000
,  // measure 2
1000
0000
0000
0000
,  // measure 3
0001
0000
0100
0000
,  // measure 4
0200
0300
0100
0000
,  // measure 5
0020
0030
0010
0000
,  // measure 6
2000
3000
1000
0000
,  // measure 7
0002
0003
0001
0000
,  // measure 8
1001
0000
0010
0010
,  // measure 9
0010
0000
0100
0100
,  // measure 10
0100
0000
1000
1000
,  // measure 11
1000
0000
0001
0001
,  // measure 12
0001
0000
0100
0000
,  // measure 13
0100
0000
0100
0000
,  // measure 14
1000
0000
0010
0000
,  // measure 15
0010
0000
0010
0000
,  // measure 16
0110
0000
0100
0000
,  // measure 17
0010
0000
1000
0000
,  // measure 18
0002
0003
2000
3000
,  // measure 19
0002
0003
2000
3000
,  // measure 20
0110
0000
0100
0000
,  // measure 21
0010
0000
0100
0000
,  // measure 22
0020
0030
0020
0030
,  // measure 23
0200
0300
0200
0300
,  // measure 24
0100
0000
0100
0000
,  // measure 25
0010
0000
0010
0000
,  // measure 26
0001
0000
0001
0000
,  // measure 27
0001
0000
0000
0000
;

//---------------dance-single - ----------------
#NOTES:
     dance-single:
     :
     Medium:
     5:
     0.104350,0.121574,0.030018,0.185113,0.000000,103.000000,6.000000,37.000000,0.000000,0.000000,0.000000,0.104350,0.121574,0.030018,0.185113,0.000000,103.000000,6.000000,37.000000,0.000000,0.000000,0.000000:
// measure 0
0000
0000
0000
0000
,  // measure 1
0000
0000
0000
0000
,  // measure 2
2000
3010
0001
0000
,  // measure 3
0002
0013
1000
0000
,  // measure 4
0020
0000
1030
0000
0100
0100
1000
0000
,  // measure 5
0002
0000
0103
0000
0001
0001
0100
0000
,  // measure 6
0020
0000
0130
0000
0100
0100
0001
0000
,  // measure 7
0010
0100
0010
0100
,  // measure 8
0200
0000
0301
0000
0010
0010
0001
0000
,  // measure 9
2000
0000
3010
0000
1000
1000
0010
0000
,  // measure 10
0200
0000
0310
0000
0010
0010
1000
0000
,  // measure 11
0100
0010
0100
0010
,  // measure 12
0022
0033
2200
3300
,  // measure 13
1002
2003
3001
0000
,  // measure 14
0202
0303
2020
3030
,  // measure 15
0120
0230
0320
0030
,  // measure 16
1000
0100
0010
0001
,  // measure 17
1000
0010
0100
0001
,  // measure 18
0001
0001
0001
0000
1000
1000
1000
0000
,  // measure 19
0002
0023
2030
3200
,  // measure 20
0301
0010
0100
1000
,  // measure 21
0001
0100
0010
1000
,  // measure 22
1000
1000
1000
0000
0001
0001
0001
0000
,  // measure 23
2000
3200
0302
0023
,  // measure 24
0032
1003
2000
3100
,  // measure 25
0200
0310
0020
0031
,  // measure 26
0002
0203
0320
2030
,  // measure 27
3001
0000
0000
0000
;

//---------------dance-single - ----------------
#NOTES:
     dance-single:
     :
     Hard:
     8:
     0.099347,0.101312,0.020012,0.070043,0.000000,121.000000,4.000000,14.000000,0.000000,0.000000,0.000000,0.099347,0.101312,0.020012,0.070043,0.000000,121.000000,4.000000,14.000000,0.000000,0.000000,0.000000:
// measure 0
0000
0000
0000
0000
,  // measure 1
0000
0000
0000
0000
,  // measure 2
2000
0010
0001
3010
,  // measure 3
0002
0010
1000
0013
,  // measure 4
0010
0000
0100
0000
1000
1000
1000
0000
,  // measure 5
0010
0000
0100
0000
0001
0001
0001
0000
,  // measure 6
1000
0000
0001
0000
0010
0010
0010
0000
,  // measure 7
0001
0000
1000
0000
0100
0100
0100
0000
,  // measure 8
0010
0001
0010
0000
0200
0000
0300
0000
,  // measure 9
0100
1000
0100
0000
2000
0000
3000
0000
,  // measure 10
0010
1000
0010
0000
0200
0000
0300
0000
,  // measure 11
0001
0100
0001
0000
0002
0000
0003
0000
,  // measure 12
1001
0001
0100
1000
,  // measure 13
1001
1000
0100
0001
,  // measure 14
0110
1000
0001
1000
,  // measure 15
0110
1000
0001
1000
,  // measure 16
1000
0100
0010
0001
2000
0000
3001
0000
,  // measure 17
0001
0010
0100
1000
0002
0000
1003
0000
,  // measure 18
1000
0001
1000
0000
0001
1000
0001
0000
,  // measure 19
0100
1000
0010
0001
,  // measure 20
0001
0010
0100
1000
0002
0000
1003
0000
,  // measure 21
1000
0100
0010
0001
2000
0000
3001
0000
,  // measure 22
0001
1000
0001
0000
1000
0001
1000
0000
,  // measure 23
0010
0001
0100
1000
,  // measure 24
0020
0000
1030
0000
0010
0010
0100
0000
,  // measure 25
0200
0000
0301
0000
0100
0100
0010
0000
,  // measure 26
2000
0000
3002
0000
0013
0100
0010
0001
,  // measure 27
1000
0000
0000
0000
;
