#VERSION:0.83;
#TITLE:Push (feat. Moksi);
#SUBTITLE:;
#ARTIST:Lil Debbie;
#TITLETRANSLIT:;
#SUBTITLETRANSLIT:;
#ARTISTTRANSLIT:;
#GENRE:Electronic;
#ORIGIN:;
#CREDIT:chewi;
#BANNER:Push (feat. Moksi).png;
#BACKGROUND:Push (feat. Moksi)-bg.png;
#PREVIEWVID:;
#JACKET:Push (feat. Moksi)-jacket.png;
#CDIMAGE:;
#DISCIMAGE:;
#LYRICSPATH:;
#CDTITLE:cdtitle.png;
#MUSIC:Push (feat. Moksi).ogg;
#OFFSET:-0.264000;
#SAMPLESTART:22.764000;
#SAMPLELENGTH:15.000000;
#SELECTABLE:YES;
#BPMS:0.000=128.000;
#STOPS:44.000=1.406,
75.000=0.469,
136.000=1.406,
167.000=0.469;
#DELAYS:;
#WARPS:;
#TIMESIGNATURES:0.000=4=4;
#TICKCOUNTS:0.000=4;
#COMBOS:0.000=1;
#SPEEDS:0.000=1.000=0.000=0;
#SCROLLS:0.000=1.000;
#FAKES:;
#LABELS:0.000=Song Start;
#BGCHANGES:;
#KEYSOUNDS:;
#ATTACKS:
;

//---------------dance-single - ----------------
#NOTEDATA:;
#CHARTNAME:;
#STEPSTYPE:dance-single;
#DESCRIPTION:;
#CHARTSTYLE:;
#DIFFICULTY:Medium;
#METER:7;
#RADARVALUES:0.313500,0.332501,0.028500,0.133000,0.000000,231.000000,228.000000,3.000000,14.000000,0.000000,0.000000,0.000000,0.000000,0.000000,0.313500,0.332501,0.028500,0.133000,0.000000,231.000000,228.000000,3.000000,14.000000,0.000000,0.000000,0.000000,0.000000,0.000000;
#CREDIT:;
#NOTES:
0000
0000
0000
0000
,
0000
0000
0000
0000
,
0000
0000
0000
0000
,
0000
0000
0000
0000
,
2000
3100
0200
0310
,
0020
0031
0002
1003
,
0002
0103
0200
0310
,
0020
1030
2000
3001
,
0100
0100
0010
0010
,
1000
1000
0001
0001
,
0010
0010
0010
0010
,
0000
0000
0010
0000
0001
1000
0001
1000
,
0001
0000
0010
0000
0100
0010
0100
0010
,
0100
0000
0100
0000
0100
1000
0100
1000
,
0100
0000
0100
0000
0010
0001
0010
0001
,
0010
0000
0100
0000
1000
0001
1000
0001
,
1000
0000
0100
0000
0010
0001
0010
0001
,
0010
0000
0010
0000
0001
1000
0001
1000
,
0001
0220
0000
0330
,
1000
0000
0001
0100
0001
0100
0001
0000
,
0100
0000
0010
1000
0010
1000
0010
0000
,
1000
0000
0100
0010
0100
0010
0100
0000
,
0010
0000
0001
0010
0001
0010
0001
0000
,
0001
0000
1000
0010
1000
0010
1000
0000
,
0010
0000
0100
0001
0100
0001
0100
0000
,
0001
0000
0010
0100
0010
0100
0010
0000
,
0200
0000
0010
0010
,
0310
0000
0001
0000
0010
0000
0100
1000
,
0100
0000
1000
0000
0010
0000
0100
0001
,
0100
0010
0010
1000
,
1000
0001
0001
0100
,
0100
0100
0010
0010
,
1000
1000
0001
0001
,
0020
0000
0000
0000
,
0030
0000
0100
0000
1000
0001
1000
0001
,
1000
0000
0100
0000
0010
0100
0010
0100
,
0010
0000
0010
0000
0010
0001
0010
0001
,
0010
0000
0010
0000
0100
1000
0100
1000
,
0100
0000
0010
0000
0001
1000
0001
1000
,
0001
0000
0010
0000
0100
1000
0100
1000
,
0100
0000
0100
0000
1000
0001
1000
0001
,
1000
2002
0000
3003
,
0000
0001
0100
0001
,
0100
0000
0001
0100
0010
1000
0001
0100
,
0010
1000
0100
1000
,
0100
0000
1000
0100
0010
0001
1000
0100
,
0010
0100
0010
0100
,
0010
0000
0010
0100
1000
0001
0010
0100
,
1000
0001
1000
0001
,
1000
0000
0001
0000
1000
0001
1000
0000
,
1001
0000
0000
0000
;

//---------------dance-single - ----------------
#NOTEDATA:;
#CHARTNAME:;
#STEPSTYPE:dance-single;
#DESCRIPTION:;
#CHARTSTYLE:;
#DIFFICULTY:Hard;
#METER:11;
#RADARVALUES:0.445144,0.546251,0.294500,0.009500,0.066500,328.000000,297.000000,31.000000,1.000000,0.000000,0.000000,14.000000,0.000000,0.000000,0.445144,0.546251,0.294500,0.009500,0.066500,328.000000,297.000000,31.000000,1.000000,0.000000,0.000000,14.000000,0.000000,0.000000;
#CREDIT:;
#NOTES:
// measure 0
0000
0000
0000
0000
,  // measure 1
0000
0000
0000
0000
,  // measure 2
0000
0000
0000
0000
,  // measure 3
0000
0000
0000
0000
,  // measure 4
1000
0100
1000
0000
0100
0010
0100
0000
,  // measure 5
0010
0001
0010
0000
0001
0100
0001
0000
,  // measure 6
0001
0010
0001
0000
0010
0100
0010
0000
,  // measure 7
0100
1000
0100
0000
1000
0100
1000
0000
,  // measure 8
0100
0010
0100
0010
0001
1000
0001
1000
,  // measure 9
0010
0100
0010
0100
0001
1000
0001
4000
,  // measure 10
0004
0000
0000
0000
,  // measure 11
3003
0000
1001
0000
0001
0100
0010
0100
,  // measure 12
0001
0010
1100
0000
1000
0010
0100
0010
,  // measure 13
1000
0100
0011
0000
0001
1000
0010
1000
,  // measure 14
0001
0100
0101
0000
0004
0000
4003
0000
,  // measure 15
3400
0000
0310
0000
0100
1000
0100
0010
,  // measure 16
0100
1000
1001
0000
1000
0001
0100
0010
,  // measure 17
0100
0001
0011
0000
0100
1000
0100
0010
,  // measure 18
0100
0000
1000
0000
0001
0000
0000
0001
0000
0000
0001
0000
1000
0000
0000
0000
,  // measure 19
1001
0000
1000
0010
0100
0010
1000
0100
,  // measure 20
0011
0000
0001
0100
0010
0100
0001
0010
,  // measure 21
1100
0000
1000
0001
0100
0001
1000
0010
,  // measure 22
1001
4000
3004
0043
,  // measure 23
0130
0000
0010
0001
0010
0100
0010
0001
,  // measure 24
1001
0000
0001
1000
0010
0100
0010
1000
,  // measure 25
1100
0000
0010
0001
0010
0100
0010
0001
,  // measure 26
2000
0000
0001
0001
,  // measure 27
3001
0000
1000
0001
0010
0100
1000
0001
,  // measure 28
1000
0000
0001
0100
0010
1000
0010
0100
,  // measure 29
0001
0000
1000
0100
0001
1000
0010
0001
,  // measure 30
1000
0100
1000
0001
0100
0001
0100
0100
,  // measure 31
0100
0010
0100
0010
1000
0001
1000
0001
,  // measure 32
0010
0100
0010
0100
1000
0001
1000
0004
,  // measure 33
0040
0000
0000
0000
,  // measure 34
0033
0000
1001
0000
0001
0100
1000
0100
,  // measure 35
0001
0100
1001
0000
1000
0010
0001
0010
,  // measure 36
1000
0010
1001
0000
0001
1000
0010
1000
,  // measure 37
0001
0100
0101
0000
0004
0000
4003
0000
,  // measure 38
3400
0000
1300
0000
0100
0001
0100
1000
,  // measure 39
0100
0001
1100
0000
1000
0100
0010
0001
,  // measure 40
0001
0010
0110
0000
0010
0001
0010
1000
,  // measure 41
0010
0000
0001
0000
0010
0000
0000
0010
0000
0000
0010
0000
0100
0000
0000
0000
,  // measure 42
0110
0000
0100
0010
0100
0010
0100
0010
,  // measure 43
0001
0000
1001
0100
1001
0010
1001
0100
,  // measure 44
1001
0000
0000
0010
0100
0010
0100
0010
0100
0010
0100
0010
,  // measure 45
0110
0000
0010
0001
0100
0010
1000
0100
,  // measure 46
0011
0000
1000
0001
1000
0001
1000
0001
,  // measure 47
1001
0000
1001
0010
1001
0100
1001
0010
,  // measure 48
1001
0000
0000
0100
0010
0100
0010
0100
0010
0100
0010
0100
,  // measure 49
0010
0000
0100
0000
0010
0010
0040
0030
,  // measure 50
0110
0000
0000
0000
;

//---------------dance-single - ----------------
#NOTEDATA:;
#CHARTNAME:;
#STEPSTYPE:dance-single;
#DESCRIPTION:;
#CHARTSTYLE:;
#DIFFICULTY:Easy;
#METER:5;
#RADARVALUES:0.210357,0.237500,0.057000,0.114000,0.000000,155.000000,149.000000,6.000000,12.000000,0.000000,0.000000,0.000000,0.000000,0.000000,0.210357,0.237500,0.057000,0.114000,0.000000,155.000000,149.000000,6.000000,12.000000,0.000000,0.000000,0.000000,0.000000,0.000000;
#CREDIT:;
#NOTES:
0000
0000
0000
0000
,
0000
0000
0000
0000
,
0000
0000
0000
0000
,
0000
0000
0000
0000
,
1000
1000
0100
0000
,
0001
0001
0100
0000
,
1000
1000
0010
0000
,
0001
0001
0010
0000
,
0010
0010
0010
0010
,
0100
0100
0100
0100
,
1000
0000
0001
0000
,
1000
1001
0000
1000
,
0000
0001
0000
0100
,
0000
0010
0010
0010
,
0000
0100
0100
0100
,
0000
1001
0000
1000
,
0000
0001
0000
0010
,
0000
0100
0100
0100
,
0000
0100
0100
0100
,
0100
0010
0100
0010
,
0001
1000
0001
1000
,
0010
0100
0010
0100
,
0001
0100
0001
0000
,
0100
0001
0100
0001
,
0010
0001
0010
0001
,
0010
0100
0010
0100
,
1000
0000
1000
1000
,
1000
2000
3200
2300
,
3100
0002
0023
0032
,
0013
0002
0203
0302
,
0103
2000
3020
2030
,
3010
0010
0010
0000
,
0100
0100
0100
0000
,
0010
0010
0010
0010
,
0010
1001
0000
1000
,
0000
0001
0000
0100
,
0000
0010
0010
0010
,
0000
0100
0100
0100
,
0000
1001
0000
1000
,
0000
0001
0000
0010
,
0000
0100
0100
0100
,
0000
0100
0100
0100
,
1001
0000
0000
0000
,
0000
1000
0010
0001
,
0100
1000
1000
1000
,
0100
0001
0001
0001
,
1001
0001
1000
0001
,
1000
0010
1000
0100
,
0001
0010
1000
1000
,
1000
0010
0001
0010
,
0001
0000
0000
0000
;

//---------------dance-single - ----------------
#NOTEDATA:;
#CHARTNAME:;
#STEPSTYPE:dance-single;
#DESCRIPTION:;
#CHARTSTYLE:;
#DIFFICULTY:Beginner;
#METER:2;
#RADARVALUES:0.073286,0.118750,0.000000,0.038000,0.000000,54.000000,54.000000,0.000000,4.000000,0.000000,0.000000,0.000000,0.000000,0.000000,0.073286,0.118750,0.000000,0.038000,0.000000,54.000000,54.000000,0.000000,4.000000,0.000000,0.000000,0.000000,0.000000,0.000000;
#CREDIT:;
#NOTES:
0000
0000
0000
0000
,
0000
0000
0000
0000
,
0000
0000
0000
0000
,
0000
0000
0000
0000
,
1000
0000
0000
0000
,
1000
0000
0000
0000
,
0001
0000
0000
0000
,
0001
0000
0000
0000
,
1000
0000
1000
0000
,
1000
0000
1000
0000
,
0001
0000
0001
0000
,
0001
0001
0000
0000
,
0000
0010
0000
0000
,
0000
0100
0000
0000
,
0000
1000
0000
0000
,
0000
1000
0000
0000
,
0000
0010
0000
0000
,
0000
0100
0000
0000
,
0000
0001
0000
0000
,
0010
0000
0000
0000
,
0010
0000
0000
0000
,
0100
0000
0000
0000
,
0100
0000
0000
0000
,
1000
0000
0000
0000
,
1000
0000
0000
0000
,
0001
0000
0000
0000
,
0001
0000
0000
0000
,
0002
0000
0000
0003
,
0001
0000
0000
0000
,
2000
0000
0000
3000
,
1000
0000
0000
0000
,
0100
0000
0100
0000
,
0100
0000
0000
0000
,
0100
0000
0100
0000
,
0100
0100
0000
0000
,
0000
0010
0000
0000
,
0000
1000
0000
0000
,
0000
0001
0000
0000
,
0000
0010
0000
0000
,
0000
0100
0000
0000
,
0000
1000
0000
0000
,
0000
0001
0000
0000
,
1000
0000
0000
0000
,
0000
2000
0000
0000
,
3000
1000
0000
0000
,
0001
0000
0000
0000
,
0001
0000
0000
0000
,
0002
0000
0000
0003
,
0001
0000
0000
0000
,
1000
0000
0000
0000
,
0010
0000
0000
0000
;
