#VERSION:0.82;
#TITLE:Ψηλά τακούνια;
#SUBTITLE:;
#ARTIST:Κατερίνα Στικούδη;
#TITLETRANSLIT:Psila Takounia;
#SUBTITLETRANSLIT:;
#ARTISTTRANSLIT:Katerina Stikoudi;
#GENRE:Greek Pop;
#ORIGIN:;
#CREDIT:chewi;
#BANNER:Psila Takounia.png;
#BACKGROUND:Psila Takounia-bg.png;
#PREVIEWVID:;
#JACKET:Psila Takounia-jacket.png;
#CDIMAGE:;
#DISCIMAGE:;
#LYRICSPATH:;
#CDTITLE:cdtitle.png;
#MUSIC:Psila Takounia.ogg;
#OFFSET:-0.231000;
#SAMPLESTART:47.834999;
#SAMPLELENGTH:13.000000;
#SELECTABLE:YES;
#BPMS:0.000=121.000;
#STOPS:;
#DELAYS:;
#WARPS:;
#TIMESIGNATURES:0.000=4=4;
#TICKCOUNTS:0.000=4;
#COMBOS:0.000=1;
#SPEEDS:0.000=1.000=0.000=0;
#SCROLLS:0.000=1.000;
#FAKES:;
#LABELS:0.000=Song Start;
#BGCHANGES:-0.462=Psila Takounia.avi=1.000=1=0=0=StretchNoLoop==CrossFade==,
99999=-nosongbg-=1.000=0=0=0 // don't automatically add -songbackground-
;
#KEYSOUNDS:;
#ATTACKS:
;

//---------------dance-single - ----------------
#NOTEDATA:;
#CHARTNAME:;
#STEPSTYPE:dance-single;
#DESCRIPTION:;
#CHARTSTYLE:;
#DIFFICULTY:Beginner;
#METER:2;
#RADARVALUES:0.118345,0.118345,0.106510,0.118345,0.000000,51.000000,9.000000,10.000000,0.000000,0.000000,0.000000,0.000000,0.000000,0.118345,0.118345,0.106510,0.118345,0.000000,51.000000,9.000000,10.000000,0.000000,0.000000,0.000000,0.000000,0.000000;
#CREDIT:;
#NOTES:
0000
0000
0000
0000
,
0000
0000
0000
0000
,
0000
0000
0000
0000
,
0000
0000
0000
0000
,
0020
0000
0000
0030
,
0020
0000
0000
0030
,
0200
0000
0000
0300
,
0200
0000
0000
0300
,
0110
0000
0000
0000
,
1000
0000
0000
0000
,
0110
0000
0000
0000
,
0001
0000
0000
0000
,
1001
0000
0000
0000
,
1000
0000
0000
0000
,
1001
0000
0000
0000
,
0001
0000
0000
0000
,
0002
0000
0000
0000
,
0000
0000
0000
0003
,
2000
0000
0000
0000
,
0000
0000
0000
3000
,
1000
0000
1000
0000
,
1000
0000
1000
0000
,
0001
0000
0001
0000
,
0001
0000
0001
0000
,
1001
0000
0000
0000
,
1000
1000
1000
0000
,
1001
0000
0000
0000
,
0001
0001
0001
0000
,
0110
0000
0000
0000
,
0100
0100
0100
0000
,
0110
0000
0000
0000
,
0010
0010
0010
0000
,
0020
0000
0000
0030
,
0010
0010
0000
0000
,
0200
0000
0000
0300
,
0100
0100
0000
0000
,
2000
0000
0000
3000
,
1000
1000
0000
0000
,
0002
0000
0000
0003
,
0001
0001
0000
0000
,
1001
0000
0000
0000
;

//---------------dance-single - ----------------
#NOTEDATA:;
#CHARTNAME:;
#STEPSTYPE:dance-single;
#DESCRIPTION:;
#CHARTSTYLE:;
#DIFFICULTY:Easy;
#METER:4;
#RADARVALUES:0.163992,0.189351,0.071007,0.094676,0.000000,83.000000,6.000000,8.000000,0.000000,0.000000,0.000000,0.000000,0.000000,0.163992,0.189351,0.071007,0.094676,0.000000,83.000000,6.000000,8.000000,0.000000,0.000000,0.000000,0.000000,0.000000;
#CREDIT:;
#NOTES:
0000
0000
0000
0000
,
0000
0000
0000
0000
,
0000
0000
0000
0000
,
0000
0000
0000
0000
,
1000
0000
1000
0000
,
0001
0000
0001
0000
,
0100
0100
0100
0100
,
0010
0010
0010
0000
,
0010
0000
0010
0000
,
0010
1000
0100
0000
,
0010
0000
0010
0000
,
0110
0000
0000
0000
,
1000
0000
1000
0000
,
1000
0001
0100
0000
,
0001
0000
0001
0000
,
0001
0000
0000
0000
,
2000
0000
0000
0000
,
3002
0000
0000
0000
,
0023
0000
0000
0000
,
0230
0000
0000
0000
,
0310
0010
0010
0010
,
0100
0100
0100
0100
,
2000
0000
0000
0000
,
0002
0000
0000
3003
,
1001
0000
1000
0000
,
1000
0001
0100
0000
,
1001
0000
1000
0000
,
0001
1000
0100
0000
,
0110
0000
0010
0000
,
0100
0010
0001
0000
,
1001
0000
0001
0000
,
1000
0010
1000
0100
,
2000
0000
0100
0000
,
3010
0010
0010
0000
,
0100
0000
0001
0000
,
0100
0001
0100
0000
,
0002
0000
0100
0000
,
0013
0010
0010
0000
,
0100
0000
1000
0000
,
0100
1000
0100
0000
,
1001
0000
0000
0000
;

//---------------dance-single - ----------------
#NOTEDATA:;
#CHARTNAME:;
#STEPSTYPE:dance-single;
#DESCRIPTION:;
#CHARTSTYLE:;
#DIFFICULTY:Medium;
#METER:7;
#RADARVALUES:0.284027,0.260358,0.118345,0.177517,0.000000,143.000000,10.000000,15.000000,0.000000,0.000000,0.000000,0.000000,0.000000,0.284027,0.260358,0.118345,0.177517,0.000000,143.000000,10.000000,15.000000,0.000000,0.000000,0.000000,0.000000,0.000000;
#CREDIT:;
#OFFSET:-0.231000;
#BPMS:0.000000=121.000000
;
#STOPS:;
#DELAYS:;
#WARPS:;
#TIMESIGNATURES:0.000000=4=4
;
#TICKCOUNTS:0.000000=4
;
#COMBOS:0.000000=1
;
#SPEEDS:0.000000=1.000000=0.000000=0
;
#SCROLLS:0.000000=1.000000
;
#FAKES:;
#LABELS:0.000000=Song Start
;
#NOTES:
0000
0000
0000
0000
,
0000
0000
0000
0000
,
0000
0000
0000
0000
,
0000
0000
0000
0000
,
1000
1000
0001
0001
,
0100
0100
0010
0010
,
0100
0010
0100
0010
,
0100
0010
0100
0010
0100
0010
0100
0000
,
0020
0000
1030
0000
0010
1000
0001
0000
,
0010
0100
1000
0001
,
2000
3001
0002
1003
,
2002
0000
0000
3003
,
0200
0000
0310
0000
0100
0001
0100
0000
,
0001
0010
0100
1000
,
0002
0000
1003
0000
0001
1000
0010
0000
,
0220
0000
0000
0330
,
2002
0000
0000
0003
,
0002
0000
0000
3000
,
0200
0000
0000
0003
,
0020
0000
0000
0330
,
0100
0010
0100
0010
,
1000
0001
1000
0001
,
1000
1000
0001
0001
,
1000
0001
1000
0001
1000
0001
1000
0000
,
1001
0000
1000
0000
0100
0010
0001
0000
,
1000
0000
0001
0000
1000
0001
0100
0000
,
1001
0000
0001
0000
1000
0010
0100
0000
,
0001
0010
1000
0100
,
0001
0000
0010
0000
0100
0010
0100
0000
,
0010
0000
0100
0000
1000
0001
1000
0000
,
1001
0000
0100
0000
0010
0100
0001
0000
,
0200
0000
0000
0300
,
0100
0010
1000
1001
,
0100
0000
0010
0000
0001
1000
0100
0000
,
1000
0001
1000
1100
,
1000
0001
0100
0010
,
0100
0001
0010
0011
,
0010
0000
0100
0000
1000
0001
0100
0000
,
0010
0100
0001
0100
,
0010
0100
0010
0000
0100
0010
0100
0000
,
0110
0000
0000
0000
;

//---------------dance-single - ----------------
#NOTEDATA:;
#CHARTNAME:;
#STEPSTYPE:dance-single;
#DESCRIPTION:;
#CHARTSTYLE:;
#DIFFICULTY:Hard;
#METER:12;
#RADARVALUES:0.451400,0.478408,0.189351,0.071007,0.272193,245.000000,16.000000,6.000000,0.000000,0.000000,0.000000,0.000000,0.000000,0.451400,0.478408,0.189351,0.071007,0.272193,245.000000,16.000000,6.000000,0.000000,0.000000,0.000000,0.000000,0.000000;
#CREDIT:;
#OFFSET:-0.231000;
#BPMS:0.000000=121.000000
;
#STOPS:44.000000=1.487604
,57.000000=1.487602
;
#DELAYS:;
#WARPS:;
#TIMESIGNATURES:0.000000=4=4
;
#TICKCOUNTS:0.000000=4
;
#COMBOS:0.000000=1
;
#SPEEDS:0.000000=1.000000=0.000000=0
;
#SCROLLS:0.000000=1.000000
;
#FAKES:;
#LABELS:0.000000=Song Start
;
#NOTES:
// measure 0
0000
0000
0000
0000
,  // measure 1
0000
0000
0000
0000
,  // measure 2
0000
0000
0000
0000
,  // measure 3
0000
0000
0000
0000
,  // measure 4
1000
1000
0001
0001
,  // measure 5
0100
0100
0010
0010
,  // measure 6
0100
0010
0100
0010
1000
0001
1000
0001
,  // measure 7
1000
0001
1000
0001
1000
0001
1000
0001
1000
0001
1000
0001
1000
0000
0000
0000
,  // measure 8
1001
0000
0000
0000
1000
0000
0000
0001
0000
0000
0100
0000
0010
0000
0100
0001
,  // measure 9
0100
0000
0000
0100
0000
0000
0010
0000
1000
0000
1000
0000
0010
0000
0100
0000
,  // measure 10
0110
0000
0000
0000
0001
0000
0000
0010
0000
0000
0100
0000
1000
0100
1000
0000
,  // measure 11
1000
0000
0000
0000
0011
0000
0000
0000
0010
0000
0000
0001
0000
0000
0010
0000
,  // measure 12
0100
0000
1000
0001
1000
0000
0000
0001
0000
0000
1000
0000
0010
0000
0100
0000
,  // measure 13
0010
0000
1000
0000
0001
0000
0000
0000
1000
0000
0000
0001
0000
0000
0010
0000
,  // measure 14
0100
0000
1000
0100
1000
0000
0000
0000
2001
0000
0000
0000
0100
0000
0000
0000
,  // measure 15
0001
3010
0102
1000
,  // measure 16
0010
1003
2001
0010
,  // measure 17
0100
3010
1002
0100
,  // measure 18
0010
0103
0010
0010
,  // measure 19
0100
0100
1000
1000
,  // measure 20
0001
0000
0001
0000
0100
0010
0100
0010
,  // measure 21
0100
0000
0010
0000
0100
0000
0010
0000
0100
0010
0100
0010
0100
0010
0100
0010
,  // measure 22
0100
0010
0100
0010
0100
0000
0000
0000
0110
0000
0000
0100
0010
0000
0100
0000
,  // measure 23
0001
0000
0010
0000
0100
0000
0000
0000
1100
0000
0000
1000
0001
0000
0010
0000
,  // measure 24
0100
0000
1000
0000
0001
0000
1000
0000
1001
0000
0000
1000
0001
0000
1000
0000
,  // measure 25
0010
0000
0100
0000
0001
0000
0100
0000
0001
0100
0001
0000
0010
0001
0010
0000
,  // measure 26
1000
0100
1000
0000
0010
1000
0010
0000
1001
0000
0000
1000
0001
0000
0100
0000
,  // measure 27
0010
0000
1000
0000
0001
0000
0000
0000
1001
0000
0000
1000
0001
0000
0010
0000
,  // measure 28
0100
0000
1000
0000
0010
0000
1000
0000
1100
0000
0000
1000
0100
0000
0010
0000
,  // measure 29
0100
1000
0001
1000
2002
0000
0000
0000
,  // measure 30
0000
0000
3003
0000
1000
0001
0010
0100
,  // measure 31
0010
0000
0100
0010
0000
0010
0100
0000
1000
0000
0001
0000
1000
0000
0010
0000
,  // measure 32
1000
0000
0001
1000
0000
1000
0001
0000
0100
0000
0010
0000
0100
0000
0001
0000
,  // measure 33
0010
0000
0001
0010
0000
0010
0001
0000
0010
0000
0100
0000
1000
0000
0000
0000
,  // measure 34
0000
0000
1001
0000
1000
0010
0100
0010
,  // measure 35
1000
0000
0001
1000
0000
1000
0001
0000
0010
0000
0100
0000
0010
0000
0001
0000
,  // measure 36
1000
0000
0001
1000
0000
1000
0001
0000
0100
0000
0010
0000
0100
0000
0001
0000
,  // measure 37
0010
0000
0001
0010
0000
0010
0001
0000
0010
0000
0100
0000
1000
0000
0001
0000
,  // measure 38
0100
0000
0001
0100
0000
0100
0001
0000
1001
0000
0000
0000
0000
0000
0000
0000
;
