#TITLE:Private Eye;
#SUBTITLE:;
#ARTIST:atomsoak ft. cerol;
#TITLETRANSLIT:;
#SUBTITLETRANSLIT:;
#ARTISTTRANSLIT:;
#GENRE:;
#CREDIT:;
#MENUCOLOR:#00FFFF;
#METERTYPE:DDR X;
#BANNER:Private Eye.png;
#BACKGROUND:Private Eye-bg.png;
#LYRICSPATH:;
#CDTITLE:./CDTITLES/DanceDanceRevolution 2010.png;
#MUSIC:Private Eye.mp3;
#OFFSET:1.259;
#SAMPLESTART:47.840;
#SAMPLELENGTH:15.000;
#SELECTABLE:YES;
#LISTSORT:;
#BPMS:0.000=160.000;
#STOPS:;
#BGCHANGES:;
#ATTACKS:;

//---------------dance-single - Chewi----------------
#NOTES:
     dance-single:
     Chewi:
     Medium:
     8:
     0.391,0.405,0.163,0.163,0.000:
0000
0000
0000
0000
,
0000
0000
0000
0000
,
0000
0000
0000
0000
,
0000
0000
0000
0000
,
0000
0000
0000
0000
,
0020
0000
0000
0030
,
0002
0000
0000
0003
,
0200
0000
0000
0300
,
1000
1100
0001
0101
,
0010
0000
0010
0000
0100
0010
0100
0000
,
0100
0000
0100
0000
0001
0100
1000
0000
,
0100
0000
0100
0000
0100
0010
0100
0000
,
0010
0000
0010
0000
0001
0010
1000
0000
,
0010
0001
0100
1000
,
0010
1000
0100
0001
,
0010
0010
0100
0100
,
0010
0011
0010
1010
,
1000
0001
1000
0000
0100
0000
0100
0000
,
1000
0001
1000
0000
0010
0000
0010
0000
,
0100
0001
0010
1000
,
0010
0001
0100
1000
,
0010
0000
1000
0000
0100
1000
0010
0000
,
0100
0000
0010
0000
0100
0001
0010
0000
,
0001
0000
0010
0000
0100
1000
0010
0000
,
1000
1001
0001
1001
,
2100
0001
0010
3001
,
0001
1000
0001
1000
,
1002
0100
1000
0103
,
0100
0010
0100
0010
,
0210
0001
0010
0301
,
0001
0010
0100
1000
,
2010
0100
0001
3100
,
0010
0010
0100
0100
,
2000
0001
0100
0010
,
0001
0001
0100
3100
,
0002
0010
0100
1000
,
0010
0010
1000
1003
,
1000
0000
0100
0000
0001
0010
1000
0000
,
1000
0000
0010
0000
0001
0100
1000
0000
,
0100
0100
0010
0010
,
0001
0101
1000
1100
,
0002
0100
0010
1000
,
0100
1000
0010
0013
,
2000
0100
0001
0010
,
0100
0100
0010
3001
,
0001
0000
0100
0000
1000
0010
0001
0000
,
1000
0000
0100
0000
0001
0010
1000
0000
,
0100
0100
0010
0010
,
0100
0110
0001
1001
,
2000
0010
0100
0010
,
0001
0001
0100
3100
,
0002
0010
0100
0010
,
1000
1000
0100
0103
,
0010
0000
0001
0000
0100
1000
0010
0000
,
0001
0000
0010
0000
1000
0100
0001
0000
,
0001
0010
0001
1000
,
0010
0110
0100
0110
,
2000
0100
0010
0000
0100
0000
0100
0000
,
0001
0010
0001
3001
,
0002
0100
0010
0000
0100
0000
0100
0000
,
1000
1000
0010
0013
,
2000
0010
0100
0000
0010
0000
0010
0000
,
0001
0100
0001
3010
,
0002
0100
0010
0000
1000
0000
0100
0000
,
1000
1000
0010
0013
,
1001
0000
0000
0000
;

//---------------dance-single - Chewi----------------
#NOTES:
     dance-single:
     Chewi:
     Hard:
     11:
     0.562,0.561,0.412,0.067,0.000:
0000
0000
0000
0000
,
0000
0000
0000
0000
,
0000
0000
0000
0000
,
0000
0000
0000
0000
,
0000
0000
0000
0000
,
2000
0000
0000
3000
,
0002
0000
0000
0003
,
0200
0000
0000
0300
,
1001
0110
1001
0110
,
0001
0010
0100
1000
0010
0000
0101
0000
,
1000
0010
0100
0001
0010
0000
0011
0000
,
0001
1000
0100
1000
0001
0000
1001
0000
,
1000
0001
0100
0001
1000
0000
1001
0000
,
1000
0010
0001
0010
1000
0100
0001
0000
,
0001
1000
0100
0001
0100
1000
0010
0000
,
0001
0010
1000
0010
0001
0010
1000
0010
,
0110
1001
0101
1100
,
0001
0010
0100
1000
0001
0100
0010
0000
,
1000
0101
0010
1100
,
0001
0010
0100
1000
0001
0010
0100
0000
,
1000
1010
0001
0011
,
1000
0010
0100
0001
1000
0010
0100
0000
,
0001
0101
1000
1100
,
0001
1000
0001
1000
0010
0100
0010
0100
,
0110
1001
1100
0011
,
0001
0010
0100
1000
0001
1000
0100
0000
,
1000
0100
0010
0001
1000
0010
1000
0000
,
0001
0100
0010
1000
0001
1000
0001
0000
,
1000
0100
0010
0100
1000
0010
0100
0010
,
0100
0001
0010
0100
1000
0010
1000
0000
,
0001
0100
0010
1000
0001
0010
0001
0000
,
0010
0100
1000
0001
0100
0010
0100
0001
,
0101
0011
1010
1100
,
1002
0010
0100
1003
,
1000
0010
0001
0010
1000
0100
0001
0100
,
0100
0110
0001
1001
,
0001
0100
0010
0100
0001
0010
0100
1000
,
2010
0001
0100
3010
,
0001
0100
1000
0010
,
0100
1001
0010
0110
,
1000
0100
1000
0000
0001
0100
0001
0000
,
0001
0010
0100
1000
0001
0010
0100
1000
,
0002
0100
0010
1003
,
1000
0010
0100
0001
1000
0010
0100
0001
,
0002
1000
0010
1003
,
0100
0010
0001
0100
0010
0000
0101
0000
,
0100
0010
1000
0100
0010
0000
0110
0000
,
0100
0010
0001
0000
0100
0010
1000
0000
,
0001
1000
0100
0000
1000
0001
0100
0010
,
0100
0001
0010
0000
0100
1000
0010
0000
,
1000
0001
0010
0100
1000
0001
0100
0010
,
1000
0010
0100
0000
0001
0010
0100
0000
,
1000
0001
0100
0010
1000
0001
0010
0100
,
1000
0100
0010
0000
0001
0100
0010
0000
,
1000
0001
0100
0001
0010
0100
1000
0000
,
0010
0100
0001
0000
0010
0100
1000
0000
,
1001
0101
1001
1100
,
1000
0100
1000
0100
0010
0100
0010
0100
,
0010
0001
0100
0010
0100
0100
0010
0010
,
0100
0010
0100
0010
1000
0010
1000
0010
,
1000
0100
0010
0001
0010
0010
0100
0100
,
0001
0010
0100
1000
0001
0010
0100
1000
,
0010
0100
0001
0100
0010
0010
1000
1000
,
0001
0010
0100
1000
0001
0010
0100
1000
,
1010
0011
0101
1100
,
1001
0000
0000
0000
;

//---------------dance-single - Chewi----------------
#NOTES:
     dance-single:
     Chewi:
     Beginner:
     3:
     0.110,0.187,0.019,0.000,0.000:
0000
0000
0000
0000
,
0000
0000
0000
0000
,
0000
0000
0000
0000
,
0000
0000
0000
0000
,
0000
0000
0000
0000
,
0100
0000
0000
0000
,
0000
0000
0000
0000
,
1000
0000
0000
0000
,
0000
0000
0000
0000
,
1000
0000
0000
0000
,
0000
0000
0000
0000
,
0001
0000
0000
0000
,
0000
0000
0000
0000
,
1000
0000
0000
0000
,
0000
0000
0000
0000
,
0001
0000
1000
0000
,
0000
0000
0000
0000
,
0001
0000
0001
0000
,
1000
0000
0000
0000
,
0001
0000
1000
0000
,
0001
0000
0000
0000
,
1000
0000
1000
0000
,
0001
0000
0000
0000
,
0010
0000
0000
0000
,
0000
0000
0000
0000
,
1001
0000
0000
0000
,
1000
0000
1000
0000
,
0001
0000
0001
0000
,
0010
0000
0000
0000
,
1001
0000
0000
0000
,
0001
0000
0001
0000
,
1000
0000
1000
0000
,
0010
0000
0000
0000
,
0001
0000
1000
0000
,
0001
0001
0001
0000
,
0001
0000
1000
0000
,
0001
0001
0001
0000
,
1000
0000
0000
0000
,
0100
0000
0000
0000
,
0010
0000
0000
0000
,
0001
0000
0000
0000
,
1000
0000
0001
0000
,
1000
1000
1000
0000
,
1000
0000
0001
0000
,
1000
1000
1000
0000
,
0001
0000
0000
0000
,
0100
0000
0000
0000
,
0010
0000
0000
0000
,
1000
0000
0000
0000
,
0010
0000
0000
0000
,
0000
0000
0000
0000
,
0100
0000
0000
0000
,
0000
0000
0000
0000
,
0010
0000
0000
0000
,
0000
0000
0000
0000
,
0100
0000
0000
0000
,
0000
0000
0000
0000
,
0001
0000
1000
0000
,
0010
0000
0000
0000
,
1000
0000
0001
0000
,
0010
0000
0000
0000
,
0001
0000
1000
0000
,
0010
0000
1000
0000
,
0001
0000
1000
0000
,
0010
0010
0010
0010
,
0010
0000
0000
0000
;

//---------------dance-single - Chewi----------------
#NOTES:
     dance-single:
     Chewi:
     Easy:
     5:
     0.225,0.281,0.048,0.201,0.000:
0000
0000
0000
0000
,
0000
0000
0000
0000
,
0000
0000
0000
0000
,
0000
0000
0000
0000
,
0000
0000
0000
0000
,
2000
0000
0000
3000
,
0002
0000
0000
0003
,
0200
0000
0000
0300
,
0020
0000
0000
0030
,
0010
0100
0010
0000
,
0100
0000
0010
0000
,
1000
0001
1000
0000
,
0001
0000
1000
0000
,
0001
0010
0100
0000
,
1000
0000
0100
0000
,
1000
0100
0010
0000
,
0001
0000
0010
0000
,
0002
0000
0000
0003
,
0001
1000
0010
0100
,
0200
0000
0000
0300
,
0100
0010
1000
0001
,
0020
0000
0000
0030
,
0100
0010
0001
0100
,
2000
0000
0000
3000
,
0002
0000
0000
0003
,
0200
0000
0000
0300
,
0010
0010
1000
0001
,
0200
0000
0000
0300
,
0100
0100
0001
1000
,
0002
0000
0000
0003
,
0010
1000
0100
0001
,
0200
0000
0000
0300
,
1000
0010
0001
0010
,
2000
0000
0100
0000
,
3010
0000
0100
0000
,
0002
0000
0100
0000
,
0013
0000
0100
0000
,
0001
0010
1000
0000
,
1000
0100
0001
0000
,
1000
0001
0110
0000
,
0010
0100
1001
0000
,
0002
0000
0100
0000
,
0013
0000
1000
0000
,
2000
0000
0100
0000
,
3010
0000
0001
0000
,
1000
0100
0010
0000
,
0010
0100
1000
0000
,
1000
0100
1001
0000
,
0001
0010
1001
0000
,
0020
0000
0000
0000
,
0000
0000
0000
0030
,
0002
0000
0000
0000
,
0000
0000
0000
0003
,
0200
0000
0000
0000
,
0000
0000
0000
0300
,
2000
0000
0000
0000
,
0000
0000
0000
3000
,
0010
0001
0010
0001
,
0010
0001
0010
0100
,
1000
0100
1000
0100
,
1000
0100
0010
0100
,
0001
1000
0001
1000
,
0001
0010
0001
0010
,
0001
0100
1000
0100
,
0001
0010
0100
0001
,
1001
0000
0000
0000
;

//---------------dance-double - Chewi----------------
#NOTES:
     dance-double:
     Chewi:
     Hard:
     10:
     0.499,0.499,0.307,0.038,0.000:
00000000
00000000
00000000
00000000
,
00000000
00000000
00000000
00000000
,
00000000
00000000
00000000
00000000
,
00000000
00000000
00000000
00000000
,
00000000
00000000
00000000
00000000
,
20000000
00000000
00000000
30000000
,
00200000
00000000
00000000
00300000
,
02000000
00000000
00000000
03000000
,
00010000
00110000
00100000
00101000
,
00010000
00000000
01000000
00000000
10000000
00100000
00010000
00000000
,
01000000
00000000
10000000
00000000
01000000
00010000
00100000
00000000
,
00001000
00000000
00010000
00000000
00001000
00000010
00001000
00000000
,
00000100
00000000
00001000
00000000
00000010
00000001
00000100
00000000
,
00001000
00000000
00000001
00000000
00000100
00000010
00000100
00000000
,
00000001
00000000
00001000
00000000
00000100
00000010
00000100
00000000
,
00000010
00000000
00000100
00000000
00001000
00000010
00001000
00000000
,
00001100
00010100
00011000
00110000
,
00001000
00010000
01000000
00000000
00100000
10000000
01000000
00000000
,
00100000
01000000
00100000
00010000
,
10000000
00100000
01000000
00000000
00010000
00100000
01000000
00000000
,
10000000
01000000
00010000
00100000
,
00010000
01000000
00100000
00000000
01000000
00010000
00100000
00000000
,
00001000
00010000
01000000
00000000
00100000
00010000
01000000
00000000
,
00010000
00100000
00001000
00000000
00010000
00000100
00001000
00000001
,
00000101
00001010
00001001
00000101
,
00000100
00000010
00001000
00000010
00000100
00000000
00000010
00000000
,
00001000
00000100
00000010
00000100
00001000
00000010
00000100
00000000
,
00000001
00000110
00001000
00001100
,
00000001
00000011
00001000
00001010
,
00000001
00000100
00000010
00001000
00000001
00000010
00000100
00000000
,
00001000
00000100
00000010
00000100
00001000
00000010
00001000
00000000
,
00000010
00001000
00010000
00001000
00000010
00001000
00000100
00000010
,
00000002
00001000
00000010
00000103
,
00000100
00000010
00001000
00000000
00000010
00000000
00001010
00000000
,
00000010
00001000
00000100
00000000
00010000
00001000
00010000
00000000
,
00000100
00000000
00001100
00000000
00001000
00000010
00000100
00000000
,
00000010
00001000
00010000
00000000
00001000
00010000
01000000
00000000
,
10000000
01000000
00010000
00100000
01000000
00000000
00100000
00000000
,
00010000
01000000
10000000
00100000
01000000
00000000
00100000
00000000
,
10000000
01000000
00100000
00000000
00010000
00100000
01000000
00000000
,
11000000
10100000
01010000
00110000
,
00100000
00010000
00001000
00000000
00001000
00000010
00000001
00000000
,
00000001
00000010
00001000
00000100
00000010
00000001
00000100
00000000
,
00000100
00000001
00000010
00000000
00000100
00001000
00000010
00000000
,
00000001
00000100
00000010
00001000
00000100
00010000
00001000
00000010
,
00001000
00000100
00001000
00000000
00000010
00001000
00000010
00000000
,
00000010
00001000
00010000
00000000
00001000
00010000
01000000
00000000
,
00010000
00100000
10000000
00000000
10000000
00100000
00010000
01000000
,
01100000
10010000
11000000
10010000
,
10000000
01000000
10000000
00000000
00010000
01000000
00010000
00000000
,
00100000
01000000
00100000
00010000
01000000
00100000
01000000
00000000
,
00010000
00100000
00010000
00000000
00100000
00001000
00100000
00000000
,
00100000
00001000
00010000
00001000
00000010
00001000
00000010
00000001
,
00000010
00001000
00000010
00000000
00001000
00000001
00001000
00000000
,
00000001
00000100
00000001
00000000
00000100
00000010
00000100
00000000
,
00000010
00001000
00000100
00000000
00001000
00000010
00000100
00000001
,
00000101
00000011
00001010
00001100
,
00000100
00001000
00000010
00000000
00000010
00001000
00000010
00000000
,
00001000
00010000
00000100
00000000
00000100
00001000
00000100
00000000
,
00000100
00010000
00001000
00000000
00001000
00100000
00010000
00000000
,
00010000
01000000
10000000
00000000
10000000
00100000
00010000
00000000
,
00100000
01000000
00100000
00000000
00010000
10000000
00100000
00000000
,
10000000
01000000
10000000
00000000
10000000
00010000
01000000
00000000
,
00100000
10000000
00010000
00000000
00100000
01000000
00100000
00010000
,
01010000
11000000
01010000
00110000
,
00100000
00000000
00000000
00000000
;

//---------------dance-double - Chewi----------------
#NOTES:
     dance-double:
     Chewi:
     Medium:
     7:
     0.330,0.374,0.144,0.106,0.000: // measure 1
00000000
00000000
00000000
00000000
,  // measure 2
00000000
00000000
00000000
00000000
,  // measure 3
00000000
00000000
00000000
00000000
,  // measure 4
00000000
00000000
00000000
00000000
,  // measure 5
00000000
00000000
00000000
00000000
,  // measure 6
10000000
00000000
00000000
00000000
00100000
00000000
00000000
01000000
,  // measure 7
00000000
00000000
00000000
00000000
,  // measure 8
00010000
00000000
00000000
00000000
00100000
00000000
00000000
01000000
,  // measure 9
00100000
00100000
01000000
01000000
,  // measure 10
00100000
00000000
01000000
00000000
00010000
10000000
01000000
00000000
,  // measure 11
00100000
00010000
01000000
10000000
,  // measure 12
00100000
00000000
01000000
00000000
00100000
10000000
00010000
00000000
,  // measure 13
00100000
00001000
00010000
01000000
,  // measure 14
00100000
00010000
00001000
00000100
,  // measure 15
00000010
00000001
00000100
00001000
,  // measure 16
00000010
00000100
00000001
00001000
,  // measure 17
00001100
00000101
00001000
00000010
,  // measure 18
00000010
00000100
00000010
00000000
00001000
00000000
00000010
00000000
,  // measure 19
00001000
00000100
00010000
00001000
,  // measure 20
00100000
00010000
00001000
00010000
,  // measure 21
01000000
10000000
00100000
00010000
,  // measure 22
00100000
01000000
00010000
00100000
,  // measure 23
01000000
10000000
00100000
01000000
,  // measure 24
00010000
00000000
10000000
00000000
01000000
00000000
00100000
00010000
,  // measure 25
01000000
01010000
00100000
00110000
,  // measure 26
00200000
00000000
00010000
00000000
,  // measure 27
00320000
00000000
01000000
00000000
,  // measure 28
20030000
00000000
01000000
00000000
,  // measure 29
30020000
00000000
00100000
00000000
,  // measure 30
00230000
00000000
00001000
00000000
,  // measure 31
00302000
00000000
00010000
00000000
,  // measure 32
00023000
00000000
00001000
00000000
,  // measure 33
00031000
00000010
00001010
00000011
,  // measure 34
00000100
00000000
00000001
00000000
00000100
00000010
00000100
00000000
,  // measure 35
00000010
00001000
00000100
00000001
,  // measure 36
00000010
00000000
00000100
00000000
00000010
00000100
00000010
00000000
,  // measure 37
00000010
00000100
00001000
00010000
,  // measure 38
00001000
00000010
00001000
00001010
,  // measure 39
00000010
00001000
00010000
01010000
,  // measure 40
00010000
00011000
00001000
00101000
,  // measure 41
00100000
00010000
01000000
10000000
,  // measure 42
00100000
01000000
10000000
01000000
,  // measure 43
00100000
00010000
01000000
00010000
,  // measure 44
00100000
00001000
00010000
00100000
,  // measure 45
01000000
00100000
00010000
00100000
,  // measure 46
00010000
00011000
00100000
00101000
,  // measure 47
00010000
00001000
00000010
00001000
,  // measure 48
00000010
00000110
00001000
00001100
,  // measure 49
00000001
00000000
00000001
00000000
00001000
00000001
00001000
00000000
,  // measure 50
00000020
00000000
00001000
00000000
,  // measure 51
00000100
00000000
00001030
00000000
,  // measure 52
00002000
00000000
00000100
00000000
,  // measure 53
00000010
00000000
00003100
00000000
,  // measure 54
00000000
00000000
00002000
00000000
,  // measure 55
00010000
00000000
00010000
00000000
,  // measure 56
00013000
00000000
00000020
00000000
,  // measure 57
00001000
00000000
00010000
00000000
,  // measure 58
00001030
00010000
00001000
00011000
,  // measure 59
00010000
00000000
01000000
00000000
10000000
00100000
10000000
00000000
,  // measure 60
10000000
01000000
00010000
00100000
,  // measure 61
01000000
00000000
00100000
00000000
01000000
00100000
01000000
00000000
,  // measure 62
00100000
00010000
00001000
00010000
,  // measure 63
00001000
00010000
00001000
00000000
00000010
00000000
00000100
00000000
,  // measure 64
00000001
00000010
00000100
00000000
,  // measure 65
00000010
00001000
00000010
00000000
00000010
00000001
00000010
00000000
,  // measure 66
00000010
00000000
00000000
00000000
;

//---------------dance-double - Chewi----------------
#NOTES:
     dance-double:
     Chewi:
     Easy:
     4:
     0.278,0.343,0.038,0.077,0.000:
00000000
00000000
00000000
00000000
,
00000000
00000000
00000000
00000000
,
00000000
00000000
00000000
00000000
,
00000000
00000000
00000000
00000000
,
00000000
00000000
00000000
00000000
,
10000000
00100000
01000000
00000000
,
01000000
00010000
00100000
00000000
,
01000000
00100000
00010000
00000000
,
00001000
00010000
01000000
00010000
,
00010000
00001000
00000010
00001000
,
00000010
00000001
00000010
00001000
,
00000100
00000010
00000001
00001000
,
00000100
00001000
00000010
00000100
,
00000010
00001000
00010000
00000100
,
00000010
00001000
00000100
00000010
,
00001000
00000100
00000010
00000001
,
00001000
00001001
00000001
00001001
,
00002000
00000100
00003010
00000000
,
00000010
00001000
00010000
00001000
,
00020000
00001000
00030100
00000000
,
00001000
00010000
01000000
10000000
,
20000000
01000000
30100000
00000000
,
00010000
00100000
01000000
10000000
,
00200000
01000000
01300000
00000000
,
01000000
01100000
10000000
10010000
,
00010000
00100000
00001000
00000000
,
00010000
00001000
00010000
00000000
,
00001000
00000010
00000001
00000000
,
00000001
00000100
00001000
00000000
,
00000010
00001000
00000100
00000000
,
00000010
00000100
00001000
00000000
,
00000010
00001000
00010000
00000000
,
00010000
00001000
00000010
00001000
,
00010000
01000000
10000000
01000000
,
00010000
00100000
10000000
00100000
,
10000000
00010000
10000000
00010000
,
00100000
01000000
00100000
01000000
,
00100000
00000000
00010000
00000000
,
00001000
00000000
00010000
00000000
,
00001000
00000000
00000100
00000000
,
00000001
00000000
00000010
00000000
,
00000001
00000100
00000010
00000000
,
00001000
00000001
00001000
00000000
,
00000100
00010000
00001000
00000000
,
00001000
00000010
00001000
00000000
,
00000010
00001000
00010000
00000000
,
00001000
00010000
01000000
00000000
,
00100000
00010000
01000000
00000000
,
10000000
01000000
00100000
00000000
,
00020000
00000000
10000000
00000000
,
10000000
00000000
10030000
00000000
,
20000000
00000000
00010000
00000000
,
00010000
00000000
30010000
00000000
,
00020000
00000000
00001000
00000000
,
00001000
00000000
00031000
00000000
,
00002000
00000000
00010000
00000000
,
00010000
00000000
00013000
00000000
,
00010000
00001000
00000010
00000000
,
00000001
00000010
00001000
00000100
,
00000001
00000100
00001000
00000000
,
00001000
00000010
00001000
00000100
,
00010000
00001000
00010000
00000000
,
00001000
00010000
01000000
10000000
,
01000000
10000000
00100000
00000000
,
01000000
01000000
00100000
00100000
,
10000000
00000000
00000000
00000000
;
