#TITLE:Princess Party ~青春禁止令~;
#SUBTITLE:;
#ARTIST:MK feat. MAKI;
#TITLETRANSLIT:Princess Party ~SEISHUN KINSHI-REI~;
#SUBTITLETRANSLIT:;
#ARTISTTRANSLIT:;
#GENRE:;
#CREDIT:Chewi☆;
#MENUCOLOR:#FFFF00;
#METERTYPE:DDR X;
#BANNER:Princess Party ~SEISHUN KINSHI-REI~.png;
#BACKGROUND:Princess Party ~SEISHUN KINSHI-REI~-bg.png;
#LYRICSPATH:;
#CDTITLE:;
#MUSIC:Princess Party ~SEISHUN KINSHI-REI~.mp3;
#OFFSET:-0.525;
#SAMPLESTART:53.851;
#SAMPLELENGTH:15.000;
#SELECTABLE:YES;
#LISTSORT:;
#DISPLAYBPM:180.000;
#BPMS:0.000=180.000;
#STOPS:;
#BGCHANGES:;
#ATTACKS:;

//---------------dance-single - Chewi----------------
#NOTES:
     dance-single:
     Chewi:
     Beginner:
     2:
     0.117,0.185,0.096,0.000,0.000:
0000
0000
0000
0000
,
0000
0000
0000
0000
,
0000
0000
0000
0000
,
0000
0000
0000
0000
,
1000
0000
0000
0000
,
0001
0000
0000
0000
,
0010
0000
0000
0000
,
1000
0000
0000
0000
,
1000
0000
0000
0000
,
0001
0000
0000
0000
,
0010
0000
0000
0000
,
0100
0000
0000
0000
,
0010
0000
0000
0000
,
0001
0000
0000
0000
,
1000
0000
0000
0000
,
0010
0000
0000
0000
,
0100
0000
0000
0000
,
0001
0000
0000
0000
,
0001
0000
0000
0000
,
0010
0000
0000
0000
,
0001
0000
0000
0000
,
0010
0000
0000
0000
,
0010
0000
0000
0000
,
1000
0000
0000
0000
,
1001
0000
0000
0000
,
0001
0000
0000
0000
,
0001
0000
0000
0000
,
1000
0000
0000
0000
,
0001
0000
0000
0000
,
1000
0000
0000
0000
,
0110
0000
0000
0000
,
1001
0000
0000
0000
,
1000
0000
0000
0000
,
0001
0000
0000
0000
,
0100
0000
0000
0000
,
0010
0000
0000
0000
,
0010
0000
0000
0000
,
0010
0000
0000
0000
,
0010
0000
0000
0000
,
0100
0000
0000
0000
,
1001
0000
0000
0000
,
0001
0000
0000
0000
,
0110
0000
0000
0000
,
1000
0000
0000
0000
,
1001
0000
0000
0000
,
0010
0000
0000
0000
,
1001
0000
0000
0000
,
0010
0000
0000
0000
,
1000
0000
0000
0000
,
0001
0000
0000
0000
,
1000
0000
0000
0000
,
0010
0000
0000
0000
,
0110
0000
0000
0000
,
0100
0000
0000
0000
,
0010
0000
0000
0000
,
0001
0000
0000
0000
,
1000
0000
0000
0000
,
0001
0000
0000
0000
,
0100
0000
0000
0000
,
0001
0000
0000
0000
,
1000
0000
0000
0000
,
0100
0100
0100
0000
;

//---------------dance-single - Chewi----------------
#NOTES:
     dance-single:
     Chewi:
     Easy:
     4:
     0.266,0.336,0.156,0.180,0.000:
0000
0000
0000
0000
,
0000
0000
0000
0000
,
0000
0000
0000
0000
,
0000
0000
0000
0000
,
0000
1000
0000
0100
,
0000
0001
0000
0010
,
0000
0001
0000
0100
,
1000
1000
0010
0010
,
2000
0000
0000
0000
,
3002
0000
0000
0000
,
0023
0000
0000
0000
,
0230
0000
0000
0000
,
0320
0000
0000
0000
,
0032
0000
0000
0000
,
2003
0000
0000
0000
,
3020
0000
0000
0000
,
0130
1000
0100
0000
,
0001
0000
0010
0000
,
0001
0010
0001
0000
,
0010
0000
1000
0000
,
0001
1000
0100
0000
,
0010
0000
0100
0000
,
0010
0001
0100
0000
,
1000
0000
0010
0000
,
1001
0000
0000
1000
,
0001
1000
0001
0000
,
0001
0000
0010
0000
,
1000
0000
0100
0000
,
0001
0100
1000
0000
,
1000
0100
0001
0000
,
0110
0000
0000
0000
,
1001
0000
0000
0000
,
1000
1000
1000
0000
,
0000
0001
0001
0000
,
0100
0100
0100
0000
,
0000
0010
0010
0000
,
0010
1000
0100
0000
,
0010
0100
0010
0000
,
0010
0001
0100
0000
,
0100
0010
0100
0000
,
1001
0000
0110
0000
,
0001
0010
1000
0000
,
0110
0000
1001
0000
,
1000
0100
0001
0000
,
1001
0000
0110
0000
,
0010
0001
0100
0000
,
1001
0000
0110
0000
,
0010
1000
0100
0001
,
2000
0000
0000
0000
,
3002
0000
0000
0000
,
2003
0000
0000
0000
,
3010
0100
0010
0000
,
0220
0000
0000
0330
,
0000
0100
0000
0100
,
0010
1000
0000
0010
,
0000
0001
0000
0010
,
1000
0100
0000
0001
,
0000
0100
0000
0001
,
0100
1000
0000
0001
,
0000
0100
0000
0010
,
1000
0001
0000
0010
,
0000
0100
2002
0000
,
3003
0000
0000
0000
;

//---------------dance-single - Chewi----------------
#NOTES:
     dance-single:
     Chewi:
     Medium:
     8:
     0.442,0.522,0.301,0.361,0.000:
0000
0000
0000
0000
,
0000
0000
0000
0000
,
0000
0000
0000
0000
,
0000
0000
0000
0000
,
1000
1100
0001
0101
,
1000
1010
0001
0011
,
0010
0110
0100
0110
,
0001
1000
2002
3003
,
2000
0000
0000
0000
0000
3002
0000
0000
,
0023
0000
0000
0000
0000
0230
0000
0000
,
0320
0000
0000
0000
0000
0032
0000
0000
,
0203
0000
0000
0000
0000
0320
0000
0000
,
2030
0000
0000
0000
0000
3002
0000
0000
,
0023
0000
0000
0000
0000
0230
0000
0000
,
0320
0000
0000
0000
0000
0032
0000
0000
,
2003
0000
0000
0000
0000
3020
0000
0000
,
0130
0001
0010
1000
,
0100
1000
0010
0001
,
0100
0010
0100
0001
,
0010
0100
0010
1000
,
0100
0001
0010
0100
,
0010
0001
0100
1000
,
0010
1000
0100
0010
,
0001
1100
1000
0101
,
1001
0000
0000
0000
0000
1000
0100
0000
,
0010
0001
0010
0100
,
1000
0101
0001
1100
,
0001
0010
1000
0100
,
0001
0010
0100
0010
,
0001
0100
0010
1000
,
0001
1000
0000
0001
0000
1000
0000
0001
,
0000
0010
0010
0000
0000
0000
0001
0000
,
0010
0000
0100
0000
1000
0100
0000
0000
,
1000
0000
0001
0000
0100
0010
0000
0000
,
0100
0001
0010
0100
,
1000
0001
0100
0010
,
1000
0000
0001
0000
0010
0100
0000
0000
,
0010
0000
0001
0000
0100
1000
0000
0000
,
0010
0000
0100
0000
0010
1000
0100
0010
,
0000
0001
0010
0100
,
1000
0000
0001
0000
0100
0100
0000
0000
,
0001
0000
1000
0000
0010
0010
0000
0000
,
1000
0000
0100
0000
0010
0000
0001
0010
,
0000
0100
0000
1000
0000
0010
0100
0000
,
0001
0000
0100
0000
0010
0100
0000
0000
,
0001
0000
1000
0000
0100
0010
0000
0000
,
0001
0000
0010
0000
0100
0000
1000
0100
,
0000
0010
0001
0000
0010
0000
0100
0000
,
2002
0000
0000
3003
,
2020
0000
0000
3030
,
0202
0000
0000
0303
,
1000
0100
0001
0010
,
0220
0000
0000
0000
,
0330
0002
0003
2000
,
3010
0100
0001
0010
,
0100
0010
0001
0100
,
1000
0010
0100
0010
,
1000
0100
0001
0010
,
0100
0110
0001
1001
,
1000
1100
0001
0101
,
1000
1010
0001
0011
,
0110
1001
0202
0000
,
0303
0000
0000
0000
;

//---------------dance-single - Chewi----------------
#NOTES:
     dance-single:
     Chewi:
     Hard:
     10:
     0.584,0.634,0.180,0.096,0.000:
0000
0000
0000
0000
,
0000
0000
0000
0000
,
0000
0000
0000
0000
,
0000
0000
0000
0000
,
1000
0100
1000
0000
0100
0001
0100
0000
,
0001
0010
0001
0000
0010
1000
0010
0000
,
1000
0010
1000
0000
0010
0001
0010
0000
,
0110
1001
0110
0000
,
1000
0100
0010
0001
0000
1000
0100
0000
,
0001
0010
0100
1000
0000
0001
0010
0000
,
0100
0010
0001
1000
0000
0010
0100
0000
,
0010
0100
0001
1000
0000
0100
0010
0000
,
0001
0010
0100
1000
0000
0100
1000
0000
,
1000
0100
0010
0001
0000
0010
0001
0000
,
0010
0100
1000
0001
0000
0100
0001
0000
,
1000
0001
0010
0000
0100
1000
0010
0000
,
0100
0001
0100
0001
0010
0001
0010
0000
,
0100
1000
0100
1000
0010
1000
0010
0000
,
0010
0100
0010
0100
0001
1000
0001
0000
,
1000
0100
1000
0100
0010
0001
0010
0000
,
0001
0010
0100
1000
0001
0010
0100
0000
,
1000
0100
0010
0001
1000
0100
0010
0000
,
0001
1000
0001
1000
0010
0100
0010
0100
,
0010
1000
0010
1000
0010
0100
0010
0100
,
0001
0000
0010
0000
0100
1000
0010
0000
,
1000
1100
0001
0101
,
0010
0010
0010
0000
0100
0100
0100
0000
,
0010
0001
0100
1000
,
0010
1000
1000
0000
0010
0001
0001
0000
,
0010
0100
0010
0000
0001
1000
0010
0100
,
0001
0100
0000
0010
0000
1000
0000
0001
,
0000
1000
0001
0000
0000
0000
0001
0010
,
0100
1000
0010
0100
0001
0100
0000
0010
,
0000
1000
0001
0000
1000
0100
0000
0010
,
0000
0001
0010
0000
0100
1000
0010
1000
,
0000
0001
0010
0000
0100
0000
0011
0000
,
0001
0010
0100
1000
0010
0100
0000
0001
,
0000
0100
0010
0000
1000
0001
0000
0010
,
0000
0100
0010
0000
0001
1000
0010
0100
,
0000
0001
0100
0000
1010
0000
0011
0000
,
1000
0100
0010
0001
1000
0100
0000
0010
,
0000
0001
0010
0000
0100
1000
0000
0001
,
0000
0100
0010
1000
0001
0010
0100
0010
,
0000
0001
0000
0010
0000
0100
1000
0010
,
0100
0001
0100
0010
1000
0001
0000
0010
,
0000
0100
0010
0001
0100
0010
0000
1000
,
0000
0001
1000
0010
0100
0001
0010
0100
,
0000
0010
0010
0000
0011
0000
0101
0000
,
2020
0000
0000
3000
,
0230
0000
0000
0000
,
0302
0000
0000
0000
,
1000
0010
1000
0013
,
0220
0000
0000
0000
,
0330
0101
0000
1100
,
0001
1000
0100
0000
1000
0100
1000
0000
,
1000
0001
0100
0000
0010
0100
0010
0000
,
1000
0100
0010
0000
0001
0010
0001
0000
,
1000
0100
0010
0000
0001
0100
0001
0000
,
0001
0100
1000
0000
0010
1000
0010
0000
,
1000
0010
0001
0000
0010
0100
0010
0000
,
0001
0010
0100
0000
1000
0100
0010
0000
,
0001
1000
0010
0100
0202
0000
0000
0000
,
0303
0000
0000
0000
;

//---------------dance-double - Chewi----------------
#NOTES:
     dance-double:
     Chewi:
     Easy:
     4:
     0.308,0.373,0.132,0.108,0.000: // measure 1
00000000
00000000
00000000
00000000
,  // measure 2
00000000
00000000
00000000
00000000
,  // measure 3
00000000
00000000
00000000
00000000
,  // measure 4
00000000
00000000
00000000
00000000
,  // measure 5
10000000
00100000
00010000
00000000
,  // measure 6
01000000
01000000
01000000
00000000
,  // measure 7
10000000
01000000
00010000
00000000
,  // measure 8
00010000
00001000
00010000
00000000
,  // measure 9
00002000
00000000
00000000
00000000
,  // measure 10
00003002
00000000
00000000
00000000
,  // measure 11
00000203
00000000
00000000
00000000
,  // measure 12
00000320
00000000
00000000
00000000
,  // measure 13
00001030
00001000
00001000
00000000
,  // measure 14
00010000
00001000
00010000
00000000
,  // measure 15
00010000
00010000
00010000
00000000
,  // measure 16
01000000
00010000
01000000
00000000
,  // measure 17
00200000
00000000
00000000
00000000
,  // measure 18
20300000
00000000
00000000
00000000
,  // measure 19
30020000
00000000
00000000
00000000
,  // measure 20
00230000
00000000
00000000
00000000
,  // measure 21
00310000
00100000
00010000
00000000
,  // measure 22
00010000
00010000
00010000
00000000
,  // measure 23
00001000
00010000
00001000
00000000
,  // measure 24
00001000
00000010
00001000
00000000
,  // measure 25
00001001
00000000
00000110
00000000
,  // measure 26
00001000
00000100
00000001
00000000
,  // measure 27
00001001
00000000
00000110
00000000
,  // measure 28
00001000
00000100
00010000
00000000
,  // measure 29
00011000
00000000
00011000
00000000
,  // measure 30
00010000
01000000
10000000
00000000
,  // measure 31
10010000
00000000
01100000
00000000
,  // measure 32
01000000
00100000
01000000
00000000
,  // measure 33
10000000
10000000
10000000
00000000
,  // measure 34
01000000
00100000
00010000
00000000
,  // measure 35
00010000
00001000
00010000
00000000
,  // measure 36
00001000
00000010
00001000
00000000
,  // measure 37
00000001
00000100
00000010
00000000
,  // measure 38
00000010
00000010
00000010
00000000
,  // measure 39
00001000
00010000
00001000
00000000
,  // measure 40
00010000
01000000
00010000
00000000
,  // measure 41
10000000
01000000
00100000
00000000
,  // measure 42
00010000
10000000
00100000
00000000
,  // measure 43
10000000
00100000
01000000
00000000
,  // measure 44
00010000
00010000
01000000
01000000
,  // measure 45
01000000
00010000
00001000
00000000
,  // measure 46
00001000
00000010
00000001
00000000
,  // measure 47
00000001
00000010
00001000
00000000
,  // measure 48
00000100
00000100
00001000
00001000
,  // measure 49
00001001
00000000
00000000
00010000
,  // measure 50
00001000
00010000
00000000
00000000
,  // measure 51
10010000
00000000
01000000
00100000
,  // measure 52
01000000
01000000
01000000
01000000
,  // measure 53
01100000
00000000
00000000
00000000
,  // measure 54
00000000
00010000
00000000
00001000
,  // measure 55
00010000
00001000
00010000
00001000
,  // measure 56
00000010
00001000
00000010
00001000
,  // measure 57
00000100
00000010
00000100
00000010
,  // measure 58
00001000
00000001
00001000
00000001
,  // measure 59
00001000
00010000
00001000
00010000
,  // measure 60
01000000
00010000
01000000
00010000
,  // measure 61
01000000
10000000
00100000
00010000
,  // measure 62
00100000
01000000
00200000
00000000
,  // measure 63
00300000
00000000
00000000
00000000
;

//---------------dance-double - Chewi----------------
#NOTES:
     dance-double:
     Chewi:
     Medium:
     7:
     0.426,0.522,0.120,0.156,0.000: // measure 1
00000000
00000000
00000000
00000000
,  // measure 2
00000000
00000000
00000000
00000000
,  // measure 3
00000000
00000000
00000000
00000000
,  // measure 4
00000000
00000000
00000000
00000000
,  // measure 5
20000000
30010000
00200000
01300000
,  // measure 6
00020000
01030000
02000000
03010000
,  // measure 7
00200000
00301000
00020000
00031000
,  // measure 8
00000020
00001030
00000110
00000000
,  // measure 9
00001000
00000100
00000001
00000100
,  // measure 10
00001000
00000010
00000001
00000010
,  // measure 11
00001000
00000100
00010000
00001000
,  // measure 12
00100000
10000000
00100000
00010000
,  // measure 13
10000000
01000000
00010000
01000000
,  // measure 14
10000000
00100000
00010000
00100000
,  // measure 15
01000000
00100000
00010000
00001000
,  // measure 16
00000100
00000001
00000100
00001000
,  // measure 17
00000010
00000000
00000010
00000000
00000010
00000010
00000010
00000000
,  // measure 18
00000100
00000100
00000100
00000100
,  // measure 19
00001000
00000000
00001000
00000000
00001000
00001000
00001000
00000000
,  // measure 20
00010000
00010000
00010000
00010000
,  // measure 21
01000000
00000000
01000000
00000000
01000000
01000000
01000000
00000000
,  // measure 22
00100000
00100000
00100000
00100000
,  // measure 23
10000000
00010000
00100000
01000000
,  // measure 24
00100000
00010000
00001000
00000100
,  // measure 25
00001001
00000100
00001001
00000010
,  // measure 26
00001000
00000010
00001000
00000000
00000001
00000100
00000001
00000000
,  // measure 27
00001000
00000010
00001000
00000010
,  // measure 28
00001000
00010000
00001000
00010000
,  // measure 29
01000000
00100000
10000000
00010000
,  // measure 30
00100000
01000000
10000000
00010000
,  // measure 31
10000000
00010000
00000000
10000000
00000000
00010000
00000000
00100000
,  // measure 32
00000000
01000000
00100000
00000000
00000000
00000000
01000000
00000000
,  // measure 33
00100000
00010000
01000000
00000000
,  // measure 34
00100000
00010000
00001000
00000000
,  // measure 35
00001000
00000010
00000100
00000001
,  // measure 36
00001000
00001000
00000001
00000001
,  // measure 37
00000010
00000100
00001000
00000000
,  // measure 38
00000010
00001000
00010000
00000000
,  // measure 39
00001000
00010000
01000000
10000000
,  // measure 40
01000000
00100000
00010000
10000000
,  // measure 41
01000000
00000000
01000000
00000000
00100000
01000000
00000000
00000000
,  // measure 42
00100000
00000000
00100000
00000000
01000000
00100000
00000000
00000000
,  // measure 43
00010000
00100000
00001000
00010000
,  // measure 44
00000100
00001000
00000001
00000100
,  // measure 45
00000010
00000000
00000010
00000000
00000100
00000010
00000000
00000000
,  // measure 46
00001000
00000000
00001000
00000000
00000001
00001000
00000000
00000000
,  // measure 47
00000001
00001000
00000100
00010000
,  // measure 48
00001000
00100000
00010000
01000000
,  // measure 49
01100000
00000000
00000000
00000000
,  // measure 50
10100000
00000000
00000000
00000000
,  // measure 51
01010000
00000000
00000000
00000000
,  // measure 52
10000000
01000000
00010000
00000000
00100000
00000000
01000000
00000000
,  // measure 53
00110000
00010000
00100000
00001000
,  // measure 54
00010000
00022000
00033000
00022000
,  // measure 55
00033000
00001000
00000010
00001000
,  // measure 56
00000010
00000100
00000001
00001000
,  // measure 57
00000100
00001000
00000001
00000010
,  // measure 58
00000100
00000010
00000001
00000100
,  // measure 59
00000010
00000100
00000010
00000000
00001000
00000000
00000001
00000000
,  // measure 60
00001000
00000001
00001000
00000000
00000001
00000000
00001000
00000000
,  // measure 61
00000100
00010000
00001000
00000000
00010000
00000000
00001000
00000000
,  // measure 62
00001000
00010000
01000000
00000000
02200000
00000000
00000000
00000000
,  // measure 63
03300000
00000000
00000000
00000000
;

//---------------dance-double - Chewi----------------
#NOTES:
     dance-double:
     Chewi:
     Hard:
     10:
     0.533,0.634,0.289,0.349,0.000: // measure 1
00000000
00000000
00000000
00000000
,  // measure 2
00000000
00000000
00000000
00000000
,  // measure 3
00000000
00000000
00000000
00000000
,  // measure 4
00000000
00000000
00000000
00000000
,  // measure 5
21000000
30100000
01020000
00130000
,  // measure 6
01200000
00310000
01200000
10300000
,  // measure 7
01000000
00010000
00100000
00000000
00100000
00001000
00010000
00000000
,  // measure 8
00010000
00001000
00000010
00001000
00000010
00000000
00000000
00000000
,  // measure 9
00001002
00000000
00000000
00000000
00000000
00000203
00000000
00000000
,  // measure 10
00000320
00000000
00000000
00000000
00000000
00002030
00000000
00000000
,  // measure 11
00003200
00000000
00000000
00000000
00000000
00020300
00000000
00000000
,  // measure 12
00032000
00000000
00000000
00000000
00000000
00203000
00000000
00000000
,  // measure 13
00320000
00000000
00000000
00000000
00000000
02030000
00000000
00000000
,  // measure 14
03200000
00000000
00000000
00000000
00000000
20300000
00000000
00000000
,  // measure 15
30020000
00000000
00000000
00000000
00000000
00230000
00000000
00000000
,  // measure 16
02300000
00000000
00000000
00000000
00000000
03200000
00000000
00000000
,  // measure 17
00310000
00000000
10000000
00000000
01000000
10000000
01000000
00000000
,  // measure 18
10000000
00000000
00010000
00000000
00100000
00001000
00010000
00000000
,  // measure 19
00000100
00000000
00010000
00000000
00001000
00000010
00001000
00000000
,  // measure 20
00000001
00000000
00000100
00000000
00000010
00000100
00000010
00000000
,  // measure 21
00001000
00001100
00000001
00000101
,  // measure 22
00000010
00000010
00000010
00000000
00000100
00000100
00000100
00000000
,  // measure 23
00001000
00001100
00010000
00011000
,  // measure 24
00001000
00001000
00001000
00000000
00010000
00010000
00010000
00000000
,  // measure 25
01000000
00010000
00100000
00000000
01000000
10000000
00100000
00000000
,  // measure 26
10000000
10000000
00010000
00000000
00010000
00010000
10000000
00000000
,  // measure 27
00100000
01100000
01000000
01100000
,  // measure 28
10000000
10010000
00010000
10010000
,  // measure 29
10000000
01000000
00010000
00000000
00100000
00001000
00010000
00000000
,  // measure 30
00010000
00001000
00000010
00000000
00000100
00000001
00000010
00000000
,  // measure 31
00000100
00000100
00000000
00000010
00000000
00000001
00000000
00001000
,  // measure 32
00000000
00000010
00001000
00000000
00000000
00000000
00000010
00000000
,  // measure 33
00000100
00000001
00000010
00000000
00000100
00000100
00000000
00000000
,  // measure 34
00000100
00001000
00000010
00000000
00001000
00001000
00000000
00000000
,  // measure 35
00000010
00001000
00010000
00000000
00010000
00010000
00000000
00000000
,  // measure 36
00001000
00010000
01000000
00000000
01000000
01000000
00000000
00000000
,  // measure 37
10000000
00100000
00010000
00000000
00100000
00100000
00000000
00000000
,  // measure 38
10000000
01000000
00010000
00000000
01000000
01000000
00000000
00000000
,  // measure 39
01000000
00010000
00001000
00000000
00000010
00000010
00000010
00000010
,  // measure 40
00000000
00000100
00000001
00000000
00000010
00001000
00000100
00000000
,  // measure 41
00001000
00000001
00000100
00000000
00000100
00000010
00000100
00000000
,  // measure 42
00001000
00000001
00000010
00000000
00000100
00001000
00000010
00000000
,  // measure 43
00001000
00001100
00000100
00010100
,  // measure 44
00010000
00001000
00100000
00010000
,  // measure 45
01000000
00100000
10000000
00000000
00010000
00000000
00110000
00000000
,  // measure 46
01000000
00100000
00010000
00000000
01000000
00000000
01010000
00000000
,  // measure 47
00100000
00110000
00100000
00101000
,  // measure 48
00010000
00011000
00001000
00001010
,  // measure 49
00000220
00000000
00000000
00000030
,  // measure 50
00000002
00000000
00000000
00000300
,  // measure 51
00002000
00000000
00000000
00000003
,  // measure 52
00000010
00000010
00000010
00003010
,  // measure 53
00001000
00000010
00001000
00000001
00001000
00000000
00000100
00000000
,  // measure 54
00002200
00003300
00022000
00033000
,  // measure 55
00001000
00010000
01000000
00000000
00100000
00100000
00100000
00000000
,  // measure 56
10000000
00010000
00100000
00000000
01000000
01000000
01000000
00000000
,  // measure 57
10000000
01000000
00100000
00000000
00010000
00100000
00010000
00000000
,  // measure 58
00100000
00001000
00010000
00000000
00000100
00000100
00000100
00000000
,  // measure 59
00001000
00000001
00000100
00000000
00000010
00000010
00000010
00000000
,  // measure 60
00000100
00000001
00001000
00000000
00000010
00000010
00000010
00000000
,  // measure 61
00000010
00001000
00000100
00000000
00010000
00001000
00100000
00000000
,  // measure 62
00010000
01000000
00100000
10000000
00020000
00000000
00000000
00000000
,  // measure 63
00030000
00000000
00000000
00000000
;
