#TITLE:Pretty Girl Rock;
#SUBTITLE:;
#ARTIST:Keri Hilson;
#TITLETRANSLIT:;
#SUBTITLETRANSLIT:;
#ARTISTTRANSLIT:;
#GENRE:;
#CREDIT:Chewi☆;
#MENUCOLOR:;
#METERTYPE:DDR X;
#BANNER:Pretty Girl Rock.png;
#BACKGROUND:Pretty Girl Rock-bg.png;
#LYRICSPATH:;
#CDTITLE:;
#MUSIC:Pretty Girl Rock.mp3;
#OFFSET:-0.525;
#SAMPLESTART:60.145;
#SAMPLELENGTH:15.000;
#SELECTABLE:YES;
#LISTSORT:;
#DISPLAYBPM:80.000;
#BPMS:0.000=80.000;
#STOPS:;
#BGCHANGES:;
#ATTACKS:;

//---------------dance-single - Chewi----------------
#NOTES:
     dance-single:
     Chewi:
     Beginner:
     1:
     0.061,0.094,0.035,0.105,0.000:
0000
0000
0000
0000
,
0000
0000
0000
0000
,
0000
0000
0000
0000
,
0000
0000
0000
0000
,
1000
0000
0000
0000
,
0010
0000
0000
0000
,
0100
0000
0000
0000
,
0010
0000
0000
0000
,
0100
0000
0000
0000
,
0001
0000
0000
0000
,
0100
0000
0000
0000
,
0100
0000
0000
0000
,
2000
0000
0000
3000
,
1000
0000
0000
0000
,
0002
0000
0000
0003
,
0001
0000
0000
0000
,
0020
0000
0000
0030
,
0010
0000
0000
0000
,
0200
0000
0000
0300
,
0100
0000
0000
0000
,
2002
0000
0000
3003
,
1000
0000
0000
0000
,
0100
0000
0000
0000
,
0010
0000
0000
0000
,
2002
0000
0000
3003
,
0001
0000
0000
0000
,
0100
0000
0000
0000
,
1000
0000
0000
0000
,
2002
0000
0000
3003
,
1000
0000
0000
0000
,
0100
0000
0000
0000
,
0010
0000
0000
0000
,
0220
0000
0000
0330
,
0100
0000
0000
0000
,
0010
0000
0000
0000
,
0100
0000
0000
0000
,
0001
0000
0000
0000
;

//---------------dance-single - Chewi----------------
#NOTES:
     dance-single:
     Chewi:
     Easy:
     3:
     0.114,0.142,0.035,0.105,0.000:
0000
0000
0000
0000
,
0000
0000
0000
0000
,
0000
0000
0000
0000
,
0000
0000
0000
0000
,
1000
0010
0000
0010
,
0000
0100
0000
0100
,
0100
0001
0000
0010
,
0000
1000
0000
0010
,
0100
0100
0000
1000
,
0000
0001
0000
1000
,
0100
0010
0000
0010
,
0000
0100
0000
0100
,
2000
0000
0000
3000
,
1000
1000
0001
1000
,
0002
0000
0000
0003
,
0001
1000
0001
1000
,
0020
0000
0000
0030
,
0010
0100
0010
0100
,
0020
0000
0000
0030
,
0001
0100
0010
0001
,
2002
0000
0000
3003
,
1000
1000
1000
1000
,
0100
0000
0010
0000
,
0100
0000
0010
0000
,
2002
0000
0000
3003
,
0001
0001
0001
0001
,
0100
0000
0010
0000
,
0001
0000
0100
0000
,
2002
0000
0000
3003
,
1000
0010
0010
0000
,
0100
0000
0001
0000
,
0010
0000
0100
0000
,
0220
0000
0000
0330
,
0100
0100
0100
0000
,
0010
0000
0001
0000
,
0100
0000
0010
0000
,
0001
0000
0000
0000
;

//---------------dance-single - Chewi----------------
#NOTES:
     dance-single:
     Chewi:
     Medium:
     6:
     0.186,0.220,0.070,0.140,0.000:
0000
0000
0000
0000
,
0000
0000
0000
0000
,
0000
0000
0000
0000
,
0000
0000
0000
0000
,
2000
3100
0200
0301
,
0002
0013
0020
0031
,
0002
0103
0200
1300
,
2000
3010
0020
0130
,
1000
0100
0010
0001
,
0001
0100
0010
0001
,
0001
0010
0100
1000
,
1000
0010
0100
1000
,
0001
0000
0010
0000
0000
0010
0100
0000
,
0100
0000
1000
0000
0000
1000
0100
0000
,
1000
0000
0001
0000
0000
0100
0010
0000
,
0010
0000
0100
0000
0000
1000
0001
0000
,
1000
0100
0001
0010
,
1000
0100
0010
0001
,
0001
0100
1000
0010
,
0001
0010
0100
1000
,
2000
0000
0010
0000
0100
0100
3100
0000
,
0002
0000
0100
0000
0010
0010
0013
0000
,
0110
1000
0001
0000
,
1001
0100
0010
0000
,
0002
0000
0010
0000
1000
1000
1003
0000
,
2000
0000
0010
0000
0001
0001
3001
0000
,
1000
0001
0110
0000
,
0010
0100
1001
0000
,
2000
0100
0010
0000
0000
0000
3100
0000
,
0002
0010
1000
0000
0000
0000
0103
0000
,
0100
0110
1000
0000
,
1000
1001
0010
0000
,
0200
0010
0010
0000
0000
0000
0310
0000
,
0002
1000
1000
0000
0000
0000
1003
0000
,
1001
0010
0001
0000
,
0110
1000
0010
0000
,
0100
0000
0000
0000
;

//---------------dance-single - Chewi----------------
#NOTES:
     dance-single:
     Chewi:
     Hard:
     10:
     0.385,0.394,0.149,0.026,0.184: // measure 1
0000
0000
0000
0000
,  // measure 2
0000
0000
0000
0000
,  // measure 3
0000
0000
0000
0000
,  // measure 4
0000
0000
0000
0000
0000
0000
0000
1000
,  // measure 5
0010
0000
0100
0000
0001
0100
0000
0000
0001
0000
1000
0000
0001
0010
0000
0000
,  // measure 6
1000
0000
0001
0000
0010
0000
0100
0000
0100
0000
0010
0000
0100
0001
0000
0000
,  // measure 7
0001
0000
0010
0000
1000
0001
0000
0000
0100
0000
0001
0000
0010
0001
0000
0000
,  // measure 8
0001
0000
0100
0000
1000
0000
0010
0000
0100
0000
1000
0000
0010
0100
0000
0000
,  // measure 9
0010
1000
0002
0003
0001
1000
0200
0300
,  // measure 10
0010
0100
0001
0010
0001
0010
0200
0300
,  // measure 11
1000
0100
0001
0010
0001
1000
0010
0000
,  // measure 12
0100
0010
1000
1000
0001
0010
0100
1000
,  // measure 13
1000
0000
0100
0000
1000
0100
0010
0000
0001
0000
0100
0000
0001
0100
0010
0000
,  // measure 14
1000
0001
0010
0100
1000
0001
0100
0100
,  // measure 15
0010
0000
1000
0000
0001
0010
0001
0000
0100
0000
1000
0000
0010
1000
0010
0000
,  // measure 16
0100
0010
1000
0001
0010
0100
1000
0001
,  // measure 17
1000
0000
0010
0000
0001
0010
1000
0000
0001
0000
0100
0000
1000
0100
0001
0000
,  // measure 18
0100
1000
0010
0100
0001
0010
0100
1000
,  // measure 19
0001
0000
0100
0000
0010
1000
0100
0000
1000
0000
0100
0000
0010
0001
0100
0000
,  // measure 20
0010
0100
0001
1000
0100
0100
0010
0010
,  // measure 21
0011
0100
1010
0001
1000
0100
0010
0000
,  // measure 22
1100
0010
0101
0010
1000
0001
0100
0010
,  // measure 23
0010
0000
1000
0000
1000
0000
0001
0000
1000
0001
0010
0100
1000
0000
0010
0000
,  // measure 24
0100
0000
0100
0000
0010
0000
0010
0000
1000
0010
0100
0001
0010
0000
0100
0000
,  // measure 25
0110
0000
0010
0000
1001
0000
0001
0000
0100
0010
1000
0001
0010
0000
0100
0000
,  // measure 26
1100
0000
0010
0000
0101
0000
0001
0000
1000
0100
0010
0001
1000
0000
0100
0000
,  // measure 27
1000
0000
0010
0000
0001
0000
0010
0000
1000
0010
0100
0010
1000
0000
0001
0000
,  // measure 28
0010
0000
0100
0000
0010
0000
0001
0000
0001
0100
0010
0100
0001
0000
0100
0000
,  // measure 29
1010
0000
1000
0000
1001
0000
0010
0000
0100
1000
0010
1000
0100
0000
0010
0000
,  // measure 30
0101
0000
0100
0000
1100
0000
0010
0000
1000
0010
0100
0010
1000
0000
0100
0000
,  // measure 31
0010
0000
0001
0000
0100
0000
1000
0000
0010
1000
0100
1000
0010
0000
0100
0000
,  // measure 32
0001
0000
0010
0000
0100
0000
0010
0000
0001
0100
1000
0100
0001
0000
0010
0000
,  // measure 33
1100
0000
1000
0000
0110
0000
0100
0000
0001
0100
0010
0100
0001
0000
0010
0000
,  // measure 34
1100
0000
1000
0000
1010
0000
0100
0000
0010
1000
0100
1000
0010
0000
0100
0000
,  // measure 35
0001
0000
1000
0000
0100
0000
0010
0000
0001
0010
0100
1000
0001
0000
0100
0000
,  // measure 36
0010
0000
1000
0000
0001
0000
0100
0000
1000
0010
0100
0001
0010
0000
0000
0000
,  // measure 37
1001
0000
0000
0000
;
