#VERSION:0.82;
#TITLE:Pound the Alarm;
#SUBTITLE:;
#ARTIST:Nicki Minaj;
#TITLETRANSLIT:;
#SUBTITLETRANSLIT:;
#ARTISTTRANSLIT:;
#GENRE:Electro Pop;
#ORIGIN:;
#CREDIT:chewi;
#BANNER:Pound the Alarm.png;
#BACKGROUND:Pound the Alarm-bg.png;
#PREVIEWVID:;
#JACKET:Pound the Alarm-jacket.png;
#CDIMAGE:;
#DISCIMAGE:;
#LYRICSPATH:;
#CDTITLE:cdtitle.png;
#MUSIC:Pound the Alarm.ogg;
#OFFSET:-1.812000;
#SAMPLESTART:67.053001;
#SAMPLELENGTH:15.000000;
#SELECTABLE:YES;
#BPMS:0.000=125.000,
133.000=250.000,
141.000=125.000,
173.000=250.000;
#STOPS:132.000=1.440;
#DELAYS:;
#WARPS:;
#TIMESIGNATURES:0.000=4=4;
#TICKCOUNTS:0.000=4;
#COMBOS:0.000=1;
#SPEEDS:0.000=1.000=0.000=0;
#SCROLLS:0.000=1.000;
#FAKES:;
#LABELS:0.000=Song Start;
#BGCHANGES:0.000=Pound the Alarm.avi=1.000=1=0=0=StretchNoLoop==CrossFade==,
99999=-nosongbg-=1.000=0=0=0 // don't automatically add -songbackground-
;
#KEYSOUNDS:;
#ATTACKS:
;

//---------------dance-single - ----------------
#NOTEDATA:;
#CHARTNAME:;
#STEPSTYPE:dance-single;
#DESCRIPTION:;
#CHARTSTYLE:;
#DIFFICULTY:Beginner;
#METER:2;
#RADARVALUES:0.097773,0.121314,0.011220,0.089759,0.000000,52.000000,1.000000,8.000000,0.000000,0.000000,0.000000,0.000000,0.000000,0.097773,0.121314,0.011220,0.089759,0.000000,52.000000,1.000000,8.000000,0.000000,0.000000,0.000000,0.000000,0.000000;
#CREDIT:;
#NOTES:
// measure 0
0000
0000
0000
0000
,  // measure 1
0000
0000
0000
0000
,  // measure 2
0000
0000
0000
0000
,  // measure 3
0000
0000
0000
0000
,  // measure 4
2000
0000
0000
3000
,  // measure 5
2000
0000
0000
3000
,  // measure 6
0002
0000
0000
0003
,  // measure 7
0002
0000
0000
0003
,  // measure 8
0100
0000
0000
0000
,  // measure 9
0010
0000
0000
0000
,  // measure 10
0010
0000
0000
0000
,  // measure 11
0100
0000
0000
0000
,  // measure 12
0100
0000
0000
0000
,  // measure 13
0001
0000
0000
0000
,  // measure 14
0001
0000
0000
0000
,  // measure 15
1000
0000
0000
0000
,  // measure 16
1000
0000
0000
0000
,  // measure 17
0100
0000
0100
0000
,  // measure 18
0100
0000
1000
0000
,  // measure 19
0010
0000
0010
0000
,  // measure 20
0010
0000
0001
0000
,  // measure 21
1001
0000
0000
0000
,  // measure 22
0100
0000
0000
0000
,  // measure 23
0010
0000
0000
0000
,  // measure 24
0000
0000
0000
0000
,  // measure 25
0200
0000
0000
0300
,  // measure 26
0100
0100
0100
0000
,  // measure 27
0020
0000
0000
0030
,  // measure 28
0010
0010
0010
0000
,  // measure 29
2000
0000
0000
3000
,  // measure 30
1000
1000
1000
0000
,  // measure 31
0002
0000
0000
0003
,  // measure 32
0001
0001
0001
0000
,  // measure 33
0000
0001
0000
0000
,  // measure 34
0000
0000
0000
0000
,  // measure 35
0000
0001
0000
0000
,  // measure 36
0000
1000
0000
0000
,  // measure 37
0000
0001
0000
0000
,  // measure 38
0000
1000
0000
0001
,  // measure 39
0000
0100
0000
0000
,  // measure 40
0000
0010
0000
0000
,  // measure 41
0000
0100
0000
0000
,  // measure 42
0000
0010
0000
0010
,  // measure 43
0000
0010
0000
0000
;

//---------------dance-single - ----------------
#NOTEDATA:;
#CHARTNAME:;
#STEPSTYPE:dance-single;
#DESCRIPTION:;
#CHARTSTYLE:;
#DIFFICULTY:Easy;
#METER:4;
#RADARVALUES:0.171503,0.194103,0.000000,0.145858,0.000000,94.000000,0.000000,13.000000,0.000000,0.000000,0.000000,0.000000,0.000000,0.171503,0.194103,0.000000,0.145858,0.000000,94.000000,0.000000,13.000000,0.000000,0.000000,0.000000,0.000000,0.000000;
#CREDIT:;
#NOTES:
0000
0000
0000
0000
,
0000
0000
0000
0000
,
0000
0000
0000
0000
,
0000
0000
0000
0000
,
0002
0000
0000
0003
,
0200
0000
0000
0300
,
0020
0000
0000
0030
,
0020
0000
0000
0030
,
0100
0000
0000
0000
,
0100
0000
0010
0000
,
0100
0010
1000
0000
,
0001
0000
1000
0000
,
0001
0010
0100
0000
,
0010
0000
0100
0000
,
1000
0001
0010
0000
,
0001
0000
1000
0000
,
0010
0100
0001
0000
,
0100
0000
0100
0000
,
0100
0010
1000
0001
,
1000
0000
1000
0000
,
0001
1000
0100
0010
,
0020
0000
0000
0000
,
0230
0000
0000
0000
,
2300
0000
0000
0000
,
0002
0000
0000
3003
,
0001
0001
0001
0001
,
0002
0000
0000
0003
,
1000
1000
1000
1000
,
2000
0000
0000
3000
,
0010
0100
0010
0100
,
0200
0000
0000
0300
,
0010
0001
0100
0000
,
0010
1000
0100
0000
,
0100
0100
0000
0000
,
0000
0000
0000
0000
,
0000
0010
0001
0010
,
0010
0001
0010
0001
,
0001
0010
0001
0010
,
0010
0002
0000
1003
,
0000
1000
0100
1000
,
1000
0100
1000
0100
,
0100
1000
0100
1000
,
0100
2000
0000
3001
,
0100
0100
0000
0000
;

//---------------dance-single - ----------------
#NOTEDATA:;
#CHARTNAME:;
#STEPSTYPE:dance-single;
#DESCRIPTION:;
#CHARTSTYLE:;
#DIFFICULTY:Medium;
#METER:7;
#RADARVALUES:0.274084,0.276148,0.123418,0.190737,0.016830,143.000000,11.000000,17.000000,0.000000,0.000000,0.000000,0.000000,0.000000,0.274084,0.276148,0.123418,0.190737,0.016830,143.000000,11.000000,17.000000,0.000000,0.000000,0.000000,0.000000,0.000000;
#CREDIT:;
#NOTES:
0000
0000
0000
0000
,
0000
0000
0000
0000
,
0000
0000
0000
0000
,
0000
0000
0000
0000
,
0000
1000
0000
0010
0000
0100
0000
0101
,
0000
0001
0000
1000
0000
0100
0000
0100
,
0000
0010
0000
0100
0000
1000
0000
1100
,
0000
0001
0000
0010
0000
0100
0000
1000
,
0100
0000
0000
0000
,
0010
0000
0100
0000
1000
0000
0001
0010
,
0100
0000
1000
0000
0001
0000
0100
0010
,
1000
0001
0100
0010
,
0100
0001
1000
0100
,
0010
0000
0100
0000
1000
0001
0010
0000
,
0100
0000
0010
0000
0001
1000
0010
0000
,
0100
0010
1000
0001
,
1000
0100
0001
0010
,
2000
3100
0002
0103
,
0100
0000
0010
0100
0010
0000
0100
0000
,
0020
1030
2000
3010
,
0010
0100
0010
0000
0100
0000
0001
0000
,
2002
0000
0000
3003
,
0220
0000
0000
0330
,
2002
0000
0000
0000
,
0000
0000
0000
3003
,
1000
0000
0000
1000
0000
0000
2000
0000
0000
0000
0000
0000
0000
0000
0000
0000
,
3001
0010
0100
1000
,
0001
0000
0000
0001
0000
0000
0002
0000
0000
0000
0000
0000
0000
0000
0000
0000
,
1003
0010
0100
0001
,
0100
0000
0000
0100
0000
0000
0200
0000
0000
0000
0000
0000
0000
0000
0000
0000
,
0310
1000
0001
0010
,
0010
0010
0010
0010
0010
0000
0000
0000
,
0100
0100
0100
0100
0100
0000
0010
0000
,
0100
0220
0000
0000
,
0000
0000
0000
0000
,
0330
0000
0001
0000
0010
0000
0100
1000
,
0001
1000
0010
1000
,
1001
0000
1000
0000
0010
0000
0100
0001
,
0010
0001
1000
1001
,
0000
0000
0010
0000
0100
0000
1000
0100
,
0010
0001
0100
0010
,
0101
0000
1000
0000
0001
0000
1000
0001
,
0010
0100
0010
0110
,
0000
2002
0000
0000
,
0000
0000
0000
3003
;

//---------------dance-single - ----------------
#NOTEDATA:;
#CHARTNAME:;
#STEPSTYPE:dance-single;
#DESCRIPTION:;
#CHARTSTYLE:;
#DIFFICULTY:Hard;
#METER:12;
#RADARVALUES:0.426353,0.524246,0.168297,0.056099,0.145858,246.000000,15.000000,5.000000,0.000000,0.000000,0.000000,0.000000,0.000000,0.426353,0.524246,0.168297,0.056099,0.145858,246.000000,15.000000,5.000000,0.000000,0.000000,0.000000,0.000000,0.000000;
#CREDIT:;
#NOTES:
0000
0000
0000
0000
,
0000
0000
0000
0000
,
0000
0000
0000
0000
,
0000
0000
0000
0000
,
1000
0100
0010
0001
,
1000
0010
0100
0001
,
0100
0010
1000
0001
,
0010
0000
0100
0000
1000
0000
0100
0100
,
0200
0000
0300
0000
,
0011
0000
0010
0000
0001
0010
0100
1000
,
0001
0000
1000
0000
0001
0100
0010
1000
,
0101
0000
0100
0000
0010
0100
0001
0010
,
0100
1000
0010
0000
1000
0100
0010
0001
,
1100
0000
0100
0000
1000
0010
0100
0001
,
0100
0000
0010
0000
1000
0010
0100
0001
,
1001
0000
1000
0000
0001
0100
0010
0100
,
0001
1000
0100
1000
0001
0100
0001
0100
,
0010
1000
0100
0000
0010
0001
0100
0000
,
0010
0100
0001
1000
0100
0000
1001
0000
,
1000
0001
0010
0000
0100
0010
0001
0000
,
0100
0010
0100
0001
1000
0000
1001
0000
,
0101
0101
0000
0000
,
1100
1100
0000
0000
,
1000
0100
0010
0100
0010
0001
0010
0100
,
1000
0001
1000
0001
1000
0001
1000
0001
1000
0001
1000
0001
1000
0000
0000
0000
,
1000
0100
0010
0001
1000
0100
0010
0001
,
1000
0000
0000
1000
0000
0000
1000
0000
0100
0000
0000
0000
1100
0000
0000
0000
,
0001
0010
0100
1000
0001
0010
0100
1000
,
0001
0000
0000
0001
0000
0000
0001
0000
0010
0000
0000
0000
0011
0000
0000
0000
,
0010
0100
1000
0001
0100
0010
1000
0001
,
0100
0000
0000
0100
0000
0000
0100
0000
0010
0000
0000
0000
0110
0000
0000
0000
,
0100
0010
1000
0010
0100
0001
0100
0010
,
0100
0000
0000
0001
0000
0000
1000
0000
0100
0000
0000
0000
0010
0000
0000
0000
,
0100
0220
0000
0000
,
0000
0000
0000
0000
,
0330
0000
0000
0000
0010
0000
0001
0010
0000
0001
0010
0000
0001
0000
0010
0000
,
0100
0000
1000
0000
0010
0000
1000
0100
0000
1000
0100
0000
1000
0000
0010
0000
,
0100
0000
0001
0000
1000
0000
0001
1000
0000
0001
1000
0000
0100
0000
0010
0000
,
0100
0000
1000
0000
0001
0000
0010
0000
0100
0000
1000
0000
0001
1000
0001
1000
,
0001
0000
0000
0000
1000
0000
0010
1000
0000
0010
1000
0000
0010
0000
0100
0000
,
0001
0000
0100
0000
0010
0000
0100
0010
0000
0100
0010
0000
1000
0000
0001
0000
,
0010
0000
0100
0000
1000
0000
0100
1000
0000
0100
1000
0000
0001
0000
0010
0000
,
0100
0000
1000
0000
0001
0000
1000
0000
0010
0000
0100
0000
0001
0100
0001
0100
,
0001
1000
2002
0000
0000
0000
0000
0000
,
0000
0000
3003
0000
;
