#TITLE:Poppin' Shower;
#SUBTITLE:;
#ARTIST:P*Light;
#TITLETRANSLIT:;
#SUBTITLETRANSLIT:;
#ARTISTTRANSLIT:;
#GENRE:;
#CREDIT:yamamoto_;
#MENUCOLOR:;
#METERTYPE:DDR X;
#BANNER:Poppin' Shower.png;
#BACKGROUND:Poppin' Shower-bg.png;
#LYRICSPATH:;
#CDTITLE:;
#MUSIC:Poppin' Shower.mp3;
#OFFSET:-0.695;
#SAMPLESTART:33.609;
#SAMPLELENGTH:15.000;
#SELECTABLE:YES;
#LISTSORT:;
#DISPLAYBPM:87.000:350.000;
#BPMS:0.000=175.000,190.000=87.500,198.000=175.000,223.000=350.000,231.000=175.000;
#STOPS:156.000=0.171
,156.500=0.171
,157.000=0.171
,157.500=0.171
,210.000=1.029
,211.000=1.029
,212.000=1.029
,213.000=1.029
,214.000=1.029
,231.000=1.031
;
#BGCHANGES:;
#ATTACKS:;

//---------------dance-single - yamamoto_----------------
#NOTES:
     dance-single:
     yamamoto_:
     Beginner:
     3:
     0.173,0.227,0.026,0.096,0.000: // measure 1
0000
0000
0000
0000
,  // measure 2
0000
0000
0000
0000
,  // measure 3
0000
0000
0000
0000
,  // measure 4
0000
0000
0000
0000
,  // measure 5
1001
0000
0000
0000
,  // measure 6
1001
0000
0000
0000
,  // measure 7
1000
0000
0001
0000
,  // measure 8
1000
0000
0000
0000
,  // measure 9
0020
0000
0000
0030
,  // measure 10
0200
0000
0000
0300
,  // measure 11
0020
0000
0000
0030
,  // measure 12
0200
0000
0000
0300
,  // measure 13
0002
0000
0000
0003
,  // measure 14
2000
0000
0000
3000
,  // measure 15
0002
0000
0000
0003
,  // measure 16
2000
0000
0000
3000
,  // measure 17
1000
0000
0100
0000
,  // measure 18
1000
0000
1000
0000
,  // measure 19
0100
0000
0100
0000
,  // measure 20
1000
0000
1000
0000
,  // measure 21
0001
0000
0001
0000
,  // measure 22
1000
0000
1000
0000
,  // measure 23
0001
0000
0001
0000
,  // measure 24
1000
0000
1000
0000
,  // measure 25
0001
0000
0001
0000
,  // measure 26
0001
0000
0100
0000
,  // measure 27
0010
0000
0010
0000
,  // measure 28
0010
0000
0100
0000
,  // measure 29
0010
0000
0010
0000
,  // measure 30
0010
0000
1000
0000
,  // measure 31
1000
0000
1000
0000
,  // measure 32
1000
0000
0001
0000
,  // measure 33
1000
0000
0100
0000
,  // measure 34
0001
0000
0010
0000
,  // measure 35
1000
0000
1000
0000
,  // measure 36
0010
0000
0001
0000
,  // measure 37
0100
0000
0001
0000
,  // measure 38
0010
0000
1000
0000
,  // measure 39
0100
0000
0100
0000
,  // measure 40
0200
0000
0300
0000
,  // measure 41
0100
0000
0100
0000
,  // measure 42
0001
0000
0010
0000
,  // measure 43
0010
0000
0110
0000
,  // measure 44
0000
0000
0010
0000
,  // measure 45
1000
0000
0010
0000
,  // measure 46
1000
0000
0001
0000
,  // measure 47
0100
0000
0100
0000
,  // measure 48
0000
0000
0010
0000
,  // measure 49
0000
0000
0001
0000
,  // measure 50
1000
0000
0010
0000
,  // measure 51
0010
0000
0010
0000
,  // measure 52
0010
0000
0100
0000
,  // measure 53
0100
0000
0100
0010
,  // measure 54
0010
0100
0100
0001
,  // measure 55
0000
1000
0000
0001
,  // measure 56
0000
1000
0000
0002
,  // measure 57
0000
0000
0000
0000
,  // measure 58
0000
0000
0000
0003
,  // measure 59
0001
0000
0001
0000
,  // measure 60
0001
0000
0100
0000
,  // measure 61
0010
0000
0010
0000
,  // measure 62
0010
0000
0100
0000
,  // measure 63
0010
0000
0010
0000
,  // measure 64
0010
0000
1000
0000
,  // measure 65
1000
0000
1000
0000
,  // measure 66
1000
0000
0001
0000
,  // measure 67
1000
0000
0100
0000
,  // measure 68
0001
0000
0010
0000
,  // measure 69
1000
0000
1000
0000
,  // measure 70
0010
0000
0001
0000
,  // measure 71
0100
0000
0001
0000
,  // measure 72
0010
0000
1000
0000
,  // measure 73
0100
0000
0100
0000
,  // measure 74
0200
0000
0000
0300
,  // measure 75
0100
0000
0000
0000
;

//---------------dance-single - yamamoto_----------------
#NOTES:
     dance-single:
     yamamoto_:
     Easy:
     5:
     0.244,0.422,0.070,0.096,0.000: // measure 1
0000
0000
0000
0000
,  // measure 2
0000
0000
0000
0000
,  // measure 3
0000
0000
0000
0000
,  // measure 4
0000
0000
0000
0000
,  // measure 5
1001
0000
0000
0000
,  // measure 6
1001
0000
0000
0000
,  // measure 7
1000
1000
0001
0001
,  // measure 8
1000
0000
0000
0000
,  // measure 9
0020
0000
0000
0000
,  // measure 10
0230
0000
0000
0000
,  // measure 11
0320
0000
0000
0000
,  // measure 12
0230
0000
0000
0000
,  // measure 13
0302
0000
0000
0000
,  // measure 14
2003
0000
0000
0000
,  // measure 15
3002
0000
0000
0000
,  // measure 16
2003
0000
0000
0000
,  // measure 17
3100
1000
0100
0000
,  // measure 18
1000
0100
1000
0000
,  // measure 19
0100
1000
0100
0000
,  // measure 20
1000
0100
1000
0000
,  // measure 21
0001
1000
0001
0000
,  // measure 22
1000
0001
1000
0000
,  // measure 23
0001
1000
0001
0000
,  // measure 24
1000
0001
1000
0000
,  // measure 25
0001
0100
0001
0100
,  // measure 26
0001
0000
0100
0000
,  // measure 27
0010
0100
0010
0100
,  // measure 28
0010
0000
0100
0000
,  // measure 29
0010
1000
0010
1000
,  // measure 30
0010
0000
1000
0000
,  // measure 31
1000
0001
1000
0001
,  // measure 32
1000
0000
0001
0000
,  // measure 33
1000
0000
0100
0000
,  // measure 34
0001
0000
0010
0000
,  // measure 35
1000
0100
1000
0000
,  // measure 36
0010
0100
0001
0000
,  // measure 37
0100
0000
0001
0000
,  // measure 38
0010
0000
1000
0000
,  // measure 39
0100
0001
0100
1000
,  // measure 40
0200
0300
0100
0000
,  // measure 41
0100
0000
0100
0010
,  // measure 42
0001
0100
0010
0100
,  // measure 43
0010
0100
0110
0000
,  // measure 44
0000
0000
0010
0000
,  // measure 45
1000
0000
0010
0010
,  // measure 46
1000
1000
0001
0010
,  // measure 47
0100
1000
0100
0000
,  // measure 48
0000
0000
0010
0000
,  // measure 49
0010
0000
0001
1000
,  // measure 50
0001
1000
0010
0010
,  // measure 51
0010
0010
0010
0010
,  // measure 52
0010
0010
0100
0100
,  // measure 53
0100
0100
0100
0110
,  // measure 54
0110
1001
1001
1001
,  // measure 55
0000
1000
0000
0001
,  // measure 56
0000
1000
0000
0002
,  // measure 57
0000
0000
0000
0000
,  // measure 58
0000
0000
0000
0003
,  // measure 59
0001
0100
0001
0100
,  // measure 60
0001
0000
0100
0000
,  // measure 61
0010
0100
0010
0100
,  // measure 62
0010
0000
0100
0000
,  // measure 63
0010
1000
0010
1000
,  // measure 64
0010
0000
1000
0000
,  // measure 65
1000
0001
1000
0001
,  // measure 66
1000
0000
0001
0000
,  // measure 67
1000
0000
0100
0000
,  // measure 68
0001
0000
0010
0000
,  // measure 69
1000
0100
1000
0000
,  // measure 70
0010
0100
0001
0000
,  // measure 71
0100
0000
0001
0000
,  // measure 72
0010
0000
1000
0000
,  // measure 73
0100
0001
0100
1000
,  // measure 74
0200
0000
0000
0300
,  // measure 75
0100
0000
0000
0000
;

//---------------dance-single - yamamoto_----------------
#NOTES:
     dance-single:
     yamamoto_:
     Medium:
     8:
     0.402,0.519,0.219,0.053,0.000: // measure 1
0000
0000
0000
0000
,  // measure 2
0000
0000
0000
0000
,  // measure 3
0000
0000
0000
0000
,  // measure 4
0000
0000
0000
0000
,  // measure 5
1000
0100
1000
0000
0100
0000
0000
0000
,  // measure 6
0001
0100
0001
0000
0100
0000
0000
0000
,  // measure 7
0100
0100
0010
0010
,  // measure 8
2020
0000
0000
3030
,  // measure 9
1000
1000
1000
1000
,  // measure 10
1000
0001
0000
1000
0000
0001
1000
0000
,  // measure 11
0001
0001
0001
0001
,  // measure 12
1000
0001
0000
1000
0000
0001
1000
0000
,  // measure 13
0001
0010
0100
1000
,  // measure 14
0001
0010
0100
1000
,  // measure 15
0001
1000
0010
0100
,  // measure 16
0220
0000
0000
0330
,  // measure 17
0100
0000
0010
1000
0000
0000
0010
0000
,  // measure 18
1000
0000
0001
1000
0000
0000
0001
0000
,  // measure 19
0010
0000
0001
0010
0000
0000
0100
0000
,  // measure 20
1000
0000
0100
1000
0000
1000
0100
0000
,  // measure 21
1000
0000
0001
1000
0000
0000
0010
0000
,  // measure 22
0100
0000
0001
0100
0000
0000
0010
0000
,  // measure 23
1000
0000
0001
1000
0000
0000
0100
0000
,  // measure 24
0010
0000
0010
0000
0100
0010
0100
0000
,  // measure 25
0010
0001
0100
0001
,  // measure 26
0010
0100
1000
0000
0010
0000
1000
0000
,  // measure 27
0100
1000
0010
0100
,  // measure 28
0001
0100
0010
0000
1000
0000
0001
0000
,  // measure 29
1000
0100
0010
0001
,  // measure 30
0010
0100
1000
0000
0001
0000
1000
0000
,  // measure 31
0010
0000
0100
0000
0001
0100
0010
0000
,  // measure 32
1010
0000
0000
0000
,  // measure 33
1000
0001
0000
1000
0000
0001
1000
0000
,  // measure 34
0001
0010
0100
1000
,  // measure 35
0010
0010
1000
1000
,  // measure 36
0010
0100
0000
0100
0010
0000
1010
0000
,  // measure 37
1000
0010
1000
0000
0100
0000
0010
0000
,  // measure 38
0001
0010
0100
0000
1000
0000
0001
0000
,  // measure 39
1001
1001
0101
0101
,  // measure 40
0100
0010
0100
0110
0010
0000
1000
0000
,  // measure 41
0100
0000
1000
0000
0010
1000
0100
0000
,  // measure 42
1000
0100
1000
0000
0100
0000
0010
0000
,  // measure 43
0001
0100
0010
0010
,  // measure 44
0100
0100
0110
0000
,  // measure 45
1001
0000
1000
0100
,  // measure 46
0010
0000
0001
0000
1000
0001
1000
0001
,  // measure 47
1000
0100
1000
0100
0010
0000
0000
0000
,  // measure 48
1001
0000
1001
0000
1000
0100
1000
0000
,  // measure 49
0010
0100
0001
0000
0001
0100
0001
0000
,  // measure 50
0100
0010
1000
0000
1000
0000
0001
0000
,  // measure 51
1000
0000
0001
0000
1000
0100
1000
0000
,  // measure 52
0001
0100
0001
0000
1000
0000
0010
0000
,  // measure 53
0100
0001
0101
1001
,  // measure 54
1001
0110
0110
0010
,  // measure 55
0010
1000
1000
0001
,  // measure 56
0001
1000
1000
0002
,  // measure 57
0000
0000
0000
0000
,  // measure 58
0000
0000
0000
1003
,  // measure 59
0010
0001
0100
0001
,  // measure 60
0010
0100
1000
0000
0010
0000
1000
0000
,  // measure 61
0100
1000
0010
0100
,  // measure 62
0001
0100
0010
0000
1000
0000
0001
0000
,  // measure 63
1000
0100
0010
0001
,  // measure 64
0010
0100
1000
0000
0001
0000
1000
0000
,  // measure 65
0010
0000
0100
0000
0001
0100
0010
0000
,  // measure 66
1010
0000
0000
0000
,  // measure 67
1000
0001
0000
1000
0000
0001
1000
0000
,  // measure 68
0001
0010
0100
1000
,  // measure 69
0010
0010
1000
1000
,  // measure 70
0010
0100
0000
0100
0010
0000
1010
0000
,  // measure 71
1000
0010
1000
0000
0100
0000
0010
0000
,  // measure 72
0001
0010
0100
0000
1000
0000
0001
0000
,  // measure 73
1001
1001
0101
0101
,  // measure 74
0200
0000
0000
0300
,  // measure 75
1001
0000
0000
0000
;

//---------------dance-single - yamamoto_----------------
#NOTES:
     dance-single:
     yamamoto_:
     Hard:
     13:
     0.607,0.746,0.316,0.210,0.035: // measure 1
0000
0000
0000
0000
,  // measure 2
0000
0000
0000
0000
,  // measure 3
0000
0000
0000
0000
,  // measure 4
0000
0000
0000
0000
,  // measure 5
1000
0100
1000
0000
0001
0000
0101
0000
,  // measure 6
0001
0100
0001
0000
1000
0000
1010
0000
,  // measure 7
0001
1000
0001
1000
0010
0100
0010
0100
,  // measure 8
0020
0000
0000
0000
0100
0100
0130
0000
,  // measure 9
0100
0000
0000
0100
0000
0000
0100
0000
0010
0000
0000
0010
0000
0000
0010
0000
,  // measure 10
1000
1000
0000
1001
0000
0001
1000
0000
,  // measure 11
0001
0000
0000
0001
0000
0000
0001
0000
1000
0000
0000
1000
0000
0000
1000
0000
,  // measure 12
0100
0100
0000
0110
0000
0010
0001
0000
,  // measure 13
0001
1000
0010
0100
0001
1000
0100
0010
,  // measure 14
0001
0010
0100
1000
0001
0010
0100
1000
,  // measure 15
0010
0100
0001
1000
0100
0010
0001
0010
,  // measure 16
0012
0000
0000
1000
0000
0000
0200
0000
0000
0000
0000
0000
0303
0000
0000
0000
,  // measure 17
0001
1000
0010
0100
0000
0010
0100
0000
,  // measure 18
0001
1000
0100
0010
0000
0100
0010
0000
,  // measure 19
0001
0010
0100
1000
0000
0010
1000
0000
,  // measure 20
0001
1000
0010
0100
0001
1000
0100
0000
,  // measure 21
1000
0100
0010
0100
0000
1000
0100
0000
,  // measure 22
1000
0001
0100
0010
0000
0100
0001
0000
,  // measure 23
0100
0010
1000
0001
0000
1000
0010
0000
,  // measure 24
0010
0010
0100
0100
0001
1000
0100
0000
,  // measure 25
0010
0001
0100
0001
0010
0001
0100
0001
,  // measure 26
0010
0100
1000
0000
0010
0000
1010
0000
,  // measure 27
1000
0010
1000
0100
1000
0010
1000
0100
,  // measure 28
1000
0010
0100
0000
0001
0000
0101
0000
,  // measure 29
0100
0010
0100
0001
0100
0010
0100
0001
,  // measure 30
0010
0100
1000
0000
0010
0000
1100
0000
,  // measure 31
1000
0001
0100
0001
1000
0001
0100
0010
,  // measure 32
2010
0000
0000
0001
0000
0000
0200
0000
0000
0000
0000
0000
3300
0000
0000
0000
,  // measure 33
0001
1000
0000
0001
0000
1000
0100
0000
,  // measure 34
0010
0100
1000
0010
0000
1000
0100
0000
,  // measure 35
1000
1000
0001
0001
1000
1000
0001
0001
,  // measure 36
1000
0010
0100
0001
1000
0010
0100
0000
,  // measure 37
0001
0100
0010
0000
1000
0100
0010
0000
,  // measure 38
0001
1000
0100
1000
0001
0100
0010
0000
,  // measure 39
1010
0101
0011
1100
,  // measure 40
2001
0010
0001
3100
0001
0010
0100
0000
,  // measure 41
1000
0010
1000
0000
0100
1000
0001
0100
,  // measure 42
0010
1000
0001
0000
1000
0010
1000
0100
,  // measure 43
1000
0010
1000
0100
0010
0010
0100
0100
,  // measure 44
1000
1000
0001
0000
1000
0100
1100
0000
,  // measure 45
0001
0010
0100
0000
1000
0010
1010
0000
,  // measure 46
1000
0001
0100
0000
0010
0100
0001
1000
,  // measure 47
0100
0010
0001
0010
0002
0000
0000
0000
,  // measure 48
1000
1000
1003
0000
2000
0010
0001
0100
,  // measure 49
0010
0010
0200
3300
0002
0010
0100
1000
,  // measure 50
0010
0010
2000
3003
1000
0001
1000
0001
,  // measure 51
1000
0001
1000
0001
0010
0100
0010
0100
,  // measure 52
0010
0100
0010
0100
0010
0001
0010
0001
,  // measure 53
0100
0000
0000
0000
0000
0000
0000
0000
0001
0000
0000
0000
0000
0000
0000
0000
0100
0000
0000
0000
0000
0000
0000
0000
0001
0000
0000
0000
0000
0000
0000
0000
0100
0000
0000
0000
0000
0000
0000
0000
0000
0000
0000
0000
0000
0000
0000
0000
0220
0330
0000
0000
0000
0000
0000
0000
0000
0000
0000
0000
0000
0000
0000
0000
,  // measure 54
2002
3003
0000
0000
0000
0000
0000
0000
0000
0000
0000
0000
0000
0000
0000
0000
2200
3300
0000
0000
0000
0000
0000
0000
0000
0000
0000
0000
0000
0000
0000
0000
0022
0033
0000
0000
0000
0000
0000
0000
0000
0000
0000
0000
0000
0000
0000
0000
0011
0000
0000
0000
0000
0000
0000
0000
0000
0000
0000
0000
0000
0000
0000
0000
,  // measure 55
0000
1100
0000
0101
,  // measure 56
0101
1100
1100
1000
,  // measure 57
0001
1000
0001
1000
,  // measure 58
0001
0000
0000
0000
0000
0000
0000
0000
0000
0000
0000
0000
0000
0000
0000
0000
1000
0000
0000
0000
0000
0000
0000
0000
0000
0000
0000
0000
0000
0000
0000
0000
0001
0000
0000
0000
0000
0000
0000
0000
0000
0000
0000
0000
0000
0000
0000
0000
2000
3000
0000
0000
0000
0000
0000
0000
0000
0000
0000
0000
0000
0000
0000
0000
,  // measure 59
0100
1000
0010
1000
0100
1000
0010
1000
,  // measure 60
0100
0010
0001
0000
0100
0000
0101
0000
,  // measure 61
0001
0100
0001
0010
0001
0100
0001
0010
,  // measure 62
0001
0100
0010
0000
1000
0000
1010
0000
,  // measure 63
0010
0100
0010
1000
0010
0100
0010
1000
,  // measure 64
0100
0010
0001
0000
0100
0000
0011
0000
,  // measure 65
0001
1000
0010
1000
0001
1000
0010
0100
,  // measure 66
0102
0000
0000
1000
0000
0000
0020
0000
0000
0000
0000
0000
0033
0000
0000
0000
,  // measure 67
1000
0001
0000
1000
0000
0001
0010
0000
,  // measure 68
0100
0010
0001
0100
0000
0001
0010
0000
,  // measure 69
0001
0001
1000
1000
0001
0001
1000
1000
,  // measure 70
0001
0100
0010
1000
0001
0100
0010
0000
,  // measure 71
1000
0010
0100
0000
0001
0010
0100
0000
,  // measure 72
1000
0001
0010
0001
1000
0010
0100
0000
,  // measure 73
0101
1010
1100
0011
,  // measure 74
2001
0000
0000
0100
0000
0000
0002
0000
0000
0000
0000
0000
3003
0000
0000
0000
,  // measure 75
0110
0000
0000
0000
;
