#VERSION:0.83;
#TITLE:Ponyboy;
#SUBTITLE:;
#ARTIST:SOPHIE;
#TITLETRANSLIT:;
#SUBTITLETRANSLIT:;
#ARTISTTRANSLIT:;
#GENRE:Dance/Electronic;
#ORIGIN:;
#CREDIT:chewi;
#BANNER:Ponyboy.png;
#BACKGROUND:Ponyboy-bg.png;
#PREVIEWVID:;
#JACKET:Ponyboy-jacket.png;
#CDIMAGE:;
#DISCIMAGE:;
#LYRICSPATH:;
#CDTITLE:cdtitle.png;
#MUSIC:Ponyboy.ogg;
#OFFSET:-2.220000;
#SAMPLESTART:11.111000;
#SAMPLELENGTH:15.000000;
#SELECTABLE:YES;
#BPMS:0.000=107.978;
#STOPS:;
#DELAYS:;
#WARPS:;
#TIMESIGNATURES:0.000=4=4;
#TICKCOUNTS:0.000=4;
#COMBOS:0.000=1;
#SPEEDS:0.000=1.000=0.000=0;
#SCROLLS:0.000=1.000;
#FAKES:;
#LABELS:0.000=Song Start;
#BGCHANGES:0.000=Ponyboy.avi=1.000=1=0=1===CrossFade==,
99999=-nosongbg-=1.000=0=0=0 // don't automatically add -songbackground-
;
#KEYSOUNDS:;
#ATTACKS:
;

//---------------dance-double - chewi----------------
#NOTEDATA:;
#CHARTNAME:chewi;
#STEPSTYPE:dance-double;
#DESCRIPTION:chewi;
#CHARTSTYLE:;
#DIFFICULTY:Hard;
#METER:12;
#RADARVALUES:0.359205,0.369071,0.118707,0.000000,0.388496,233.000000,216.000000,11.000000,0.000000,92.000000,3.000000,0.000000,0.000000,0.000000,0.359205,0.369071,0.118707,0.000000,0.388496,233.000000,216.000000,11.000000,0.000000,92.000000,3.000000,0.000000,0.000000,0.000000;
#CREDIT:chewi;
#NOTES:
10000000
01000000
00000000
00000000
00000000
00000000
01000000
00000000
10000000
00000000
00000000
00000000
MMMM0000
00000000
00000000
00000000
,
00010000
01000000
00001000
01000000
00010000
00000000
01000000
00000000
00001000
00000000
00000000
00000000
MMMM0000
00000000
00000000
00000000
,
00001000
00010000
00000000
00000000
00000000
00000000
00010000
00000000
00000010
00000000
00000000
00000000
0000MMMM
00000000
00000000
00000000
,
00000100
00000010
00000100
00000001
00000100
00000000
00000001
00000000
00000010
00000000
00000000
00000000
0000MMMM
00000000
00000000
00000000
,
00000001
00000010
00000000
00000000
00000100
00001000
00000000
00000000
00001001
00000000
00000000
00000000
0000MMMM
00000000
00000000
00000000
,
00000100
00000010
00001000
00000001
00000100
00000000
00000010
00000000
00001000
00000000
00000000
00000000
MMMM0000
00000000
00000000
00000000
,
00010000
00100000
00000000
00000000
01000000
10000000
00000000
00000000
10010000
00000000
00000000
00000000
MMMM0000
00000000
00000000
00000000
,
01000000
00100000
10000000
00010000
01000000
00000000
00100000
00000000
10000000
00000000
00000000
00000000
MMMM0000
00000000
00000000
00000000
,
10000000
01000000
00000000
00000000
00000000
00000000
00100000
00000000
00010000
00000000
00000000
00000000
11110000
00000000
00000000
00000000
,
01000000
00001000
01000000
00001000
01000000
00000000
00001000
00000000
00010000
00000000
00000000
00000000
0000MMMM
00000000
00000000
00000000
,
00001000
00000100
00000000
00000000
00000000
00000000
00000010
00000000
00000001
00000000
00000000
00000000
00001111
00000000
00000000
00000000
,
00000100
00000010
00001000
00000001
00000100
00000000
00000001
00000000
00000100
00000000
00000000
00000000
0000MMMM
00000000
00000000
00000000
,
00000001
00000100
00000000
00000000
00000000
00000000
00000010
00000000
00001000
00000000
00000000
00000000
00011000
00000000
00000000
00000000
,
00000100
00010000
00001000
00100000
00010000
00000000
01000000
00000000
00010000
00000000
00000000
00000000
11110000
00000000
00000000
00000000
,
00010000
01000000
00000000
00000000
00000000
00000000
00100000
00000000
10000000
00000000
00000000
00000000
11000000
00000000
00000000
00000000
,
01000000
00100000
00010000
10000000
00100000
00000000
01000000
00000000
00010000
00000000
00000000
00000000
MMMM0000
00000000
00000000
00000000
,
10000000
01000000
00000000
00000000
00100000
00010000
00000000
00000000
10010000
00000000
00000000
00000000
MMMM0000
00000000
00000000
00000000
,
00100000
01000000
00010000
10000000
00100000
00000000
01000000
00000000
00010000
00000000
00000000
00000000
0000MMMM
00000000
00000000
00000000
,
00001000
00000100
00000000
00000000
00000010
00000001
00000000
00000000
00001001
00000000
00000000
00000000
0000MMMM
00000000
00000000
00000000
,
00000010
00000100
00000001
00001000
00000010
00000000
00000100
00000000
00000001
00000000
00000000
00000000
0000MMMM
00000000
00000000
00000000
,
00000001
00000010
00000000
00000000
00000100
00001000
00000000
00000000
00001001
00000000
00000000
00000000
0000MMMM
00000000
00000000
00000000
,
00000100
00000010
00001000
00000001
00000100
00000000
00000010
00000000
00001000
00000000
00000000
00000000
MMMM0000
00000000
00000000
00000000
,
00010000
00100000
00000000
00000000
01000000
10000000
00000000
00000000
10010000
00000000
00000000
00000000
MMMM0000
00000000
00000000
00000000
,
01000000
00100000
10000000
00010000
01000000
00000000
00100000
00000000
10000000
00000000
00000000
00000000
MMMM0000
00000000
00000000
01000000
,
00000000
00000000
00000100
00000000
00000000
00000000
00000000
01000000
00000000
01000000
00000100
00000000
00000000
00000000
00000000
00100000
,
00000000
00000000
00000010
00000000
00000000
00000000
00100000
00000010
00000000
00100000
00000010
00000000
00000000
00000000
00000000
10000000
,
00000000
00000000
00001000
00000000
00000000
00000000
00000000
10000000
00000000
00001000
10000000
00000000
00000000
00000000
00000000
10000000
,
00000000
00000000
00001000
00000000
00000000
00000000
10000000
00001000
00000000
10000000
00001000
00000000
00000000
00000000
00000000
00100000
,
00000000
00000000
00000010
00000000
00000000
00000000
00000000
00100000
00000000
00100000
00000010
00000000
00000000
00000000
00000000
01000000
,
00000000
00000000
00000100
00000000
00000000
00000000
01000000
00000100
00000000
01000000
00000100
00000000
00000000
00000000
00000000
01000000
,
00000000
00000000
00000100
00000000
00000000
00000000
00000000
01000000
00000000
01000000
00000100
00000000
00000000
00000000
00100000
00001000
,
00100000
00010000
00100000
00010000
01000000
00000000
00100000
00000000
10000000
00000000
00000000
00000000
MMMM0000
00000000
00000000
00000000
,
10000000
01000000
00000000
00000000
00000000
00000000
01000000
00000000
10000000
00000000
00000000
00000000
MMMM0000
00000000
00000000
00000000
,
00010000
01000000
00001000
01000000
00010000
00000000
01000000
00000000
00001000
00000000
00000000
00000000
MMMM0000
00000000
00000000
00000000
,
00001000
00010000
00000000
00000000
00000000
00000000
00010000
00000000
00000010
00000000
00000000
00000000
0000MMMM
00000000
00000000
00000000
,
00000010
00010000
00001000
10000000
01000000
00000000
01000000
00000000
01000000
00000000
01000000
00000000
01000000
00000000
01000000
00000000
,
01000000
00000000
00000000
00000000
;

//---------------dance-single - ----------------
#NOTEDATA:;
#CHARTNAME:;
#STEPSTYPE:dance-single;
#DESCRIPTION:;
#CHARTSTYLE:;
#DIFFICULTY:Hard;
#METER:12;
#RADARVALUES:0.406996,0.369071,0.356122,0.000000,0.350726,264.000000,231.000000,33.000000,0.000000,0.000000,0.000000,0.000000,0.000000,0.000000,0.406996,0.369071,0.356122,0.000000,0.350726,264.000000,231.000000,33.000000,0.000000,0.000000,0.000000,0.000000,0.000000,0.000000;
#CREDIT:;
#NOTES:
// measure 0
1000
0100
0000
0000
0000
0000
0100
0000
1000
0000
0000
0000
1001
0000
0000
0000
,  // measure 1
0001
0100
1000
0100
0001
0000
0100
0000
1000
0000
0000
0000
0101
0000
0000
0000
,  // measure 2
0100
0001
0000
0000
0000
0000
0001
0000
0010
0000
0000
0000
0110
0000
0000
0000
,  // measure 3
0010
0100
1000
0100
0010
0000
0100
0000
1000
0000
0000
0000
1100
0000
0000
0000
,  // measure 4
0001
0010
0000
0000
0100
1000
0000
0000
1001
0000
0000
0000
0110
0000
0000
0000
,  // measure 5
0100
0010
1000
0001
0100
0000
0010
0000
1000
0000
0000
0000
1010
0000
0000
0000
,  // measure 6
1000
0100
0000
0000
0010
0001
0000
0000
1001
0000
0000
0000
0110
0000
0000
0000
,  // measure 7
0010
0100
1000
0001
0010
0000
0100
0000
1000
0000
0000
0000
1100
0000
0000
0000
,  // measure 8
0100
0010
0000
0000
0000
0000
0001
0000
1000
0000
0000
0000
1001
0000
0000
0000
,  // measure 9
1000
0010
1000
0010
1000
0000
0010
0000
1000
0000
0000
0000
1010
0000
0000
0000
,  // measure 10
0010
0100
0000
0000
0000
0000
1000
0000
0001
0000
0000
0000
1001
0000
0000
0000
,  // measure 11
0001
0100
0001
0100
0001
0000
0100
0000
0001
0000
0000
0000
0101
0000
0000
0000
,  // measure 12
0001
1000
0000
0000
0000
0000
0010
0000
0100
0000
0000
0000
0110
0000
0000
0000
,  // measure 13
0100
0001
1000
0010
1000
0000
0001
0000
1000
0000
0000
0000
1001
0000
0000
0000
,  // measure 14
1000
0001
0000
0000
0000
0000
0010
0000
0100
0000
0000
0000
0110
0000
0000
0000
,  // measure 15
0010
0100
1000
0001
0010
0000
0100
0000
1000
0000
0000
0000
0000
0000
0000
0000
,  // measure 16
0100
0010
0000
0000
0001
1000
0000
0000
1100
0000
0000
0000
0011
0000
0000
0000
,  // measure 17
0001
0010
0100
1000
0001
0000
0100
0000
0010
0000
0000
0000
1010
0000
0000
0000
,  // measure 18
1000
0001
0000
0000
0010
0100
0000
0000
1100
0000
0000
0000
0011
0000
0000
0000
,  // measure 19
0010
0001
1000
0100
0010
0000
0001
0000
1000
0000
0000
0000
1001
0000
0000
0000
,  // measure 20
0010
0100
0000
0000
1000
0001
0000
0000
0011
0000
0000
0000
1100
0000
0000
0000
,  // measure 21
1000
0100
0010
0001
1000
0000
0010
0000
0100
0000
0000
0000
0101
0000
0000
0000
,  // measure 22
0001
1000
0000
0000
0100
0010
0000
0000
0011
0000
0000
0000
1100
0000
0000
0000
,  // measure 23
0100
1000
0001
0010
0100
0000
1000
0000
0001
0000
0000
0000
1001
0000
0000
0100
,  // measure 24
0000
0000
0100
0000
0000
0000
0000
0100
0000
0000
0100
0000
0000
0000
0000
0100
,  // measure 25
0000
0000
0100
0000
0000
0000
0100
0100
0000
0000
0100
0000
0000
0000
0000
0010
,  // measure 26
0000
0000
0010
0000
0000
0000
0000
0010
0000
0000
0010
0000
0000
0000
0000
0010
,  // measure 27
0000
0000
0010
0000
0000
0000
0010
0010
0000
0000
0010
0000
0000
0000
0000
1000
,  // measure 28
0000
0000
1000
0000
0000
0000
0000
1000
0000
0000
1000
0000
0000
0000
0000
1000
,  // measure 29
0000
0000
1000
0000
0000
0000
1000
1000
0000
0000
1000
0000
0000
0000
0000
0001
,  // measure 30
0000
0000
0001
0000
0000
0000
0000
0001
0000
0000
0001
0000
0000
0000
0001
0001
,  // measure 31
1000
0001
1000
0001
1000
0000
0001
0000
1000
0000
0000
0000
0110
0000
0000
0000
,  // measure 32
0100
0001
0000
0000
0000
0000
1000
0000
0100
0000
0000
0000
1100
0000
0000
0000
,  // measure 33
0100
0001
0100
1000
0100
0000
0001
0000
0100
0000
0000
0000
1100
0000
0000
0000
,  // measure 34
0010
1000
0000
0000
0000
0000
0001
0000
0010
0000
0000
0000
0011
0000
0000
0000
,  // measure 35
0010
1000
0010
0001
0010
0000
1000
0000
0010
0000
0010
0000
0010
0000
0010
0000
,  // measure 36
0010
0000
0000
0000
;

//---------------dance-single - ----------------
#NOTEDATA:;
#CHARTNAME:;
#STEPSTYPE:dance-single;
#DESCRIPTION:;
#CHARTSTYLE:;
#DIFFICULTY:Medium;
#METER:10;
#RADARVALUES:0.291372,0.291372,0.140290,0.000000,0.097124,189.000000,176.000000,13.000000,0.000000,0.000000,0.000000,0.000000,0.000000,0.000000,0.291372,0.291372,0.140290,0.000000,0.097124,189.000000,176.000000,13.000000,0.000000,0.000000,0.000000,0.000000,0.000000,0.000000;
#CREDIT:;
#NOTES:
1000
0000
0000
1000
0100
0000
0000
0000
,
0010
0001
0010
0001
0010
0000
0000
0000
,
0001
0000
0000
0001
0100
0000
0000
0000
,
0010
1000
0010
1000
0010
0000
0000
0000
,
1000
0101
0001
1100
,
1000
0100
0010
0100
1000
0000
0000
0000
,
0001
1010
1000
0011
,
0001
0010
0100
0010
0001
0000
0000
0000
,
0100
0010
0000
0000
0000
0000
0010
0000
0100
0000
0000
0000
0110
0000
0000
0000
,
0010
0010
1000
1000
0001
0000
1001
0000
,
1000
0001
0000
0000
0000
0000
0001
0000
1000
0000
0000
0000
1001
0000
0000
0000
,
0001
0001
0010
0010
0100
0000
0110
0000
,
0010
0100
0000
0000
0000
0000
0100
0000
0010
0000
0000
0000
0110
0000
0000
0000
,
0100
0100
1000
1000
0001
0000
1001
0000
,
0001
1000
0000
0000
0000
0000
1000
0000
0001
0000
0000
0000
1001
0000
0000
0000
,
1000
1000
0100
0100
0010
0000
0110
0000
,
0100
1000
0010
0100
,
0001
0010
0100
1000
0001
0000
0100
0000
,
0010
1000
0001
0010
,
0100
1000
0001
0010
0100
0000
1000
0000
,
0010
1000
0001
0100
,
0001
0100
0010
1000
0001
0000
0010
0000
,
0100
1000
0001
0010
,
0100
0000
1000
0000
0010
0000
0100
0000
0001
0000
0000
0000
1000
0000
0000
0100
,
0000
0000
0100
0000
0000
0000
0000
0100
0000
0000
0100
0000
0000
0000
0000
0100
,
0000
0000
0100
0000
0000
0000
0100
0100
0000
0000
0100
0000
0000
0000
0000
0010
,
0000
0000
0010
0000
0000
0000
0000
0010
0000
0000
0010
0000
0000
0000
0000
0010
,
0000
0000
0010
0000
0000
0000
0010
0010
0000
0000
0010
0000
0000
0000
0000
1000
,
0000
0000
1000
0000
0000
0000
0000
1000
0000
0000
1000
0000
0000
0000
0000
1000
,
0000
0000
1000
0000
0000
0000
1000
1000
0000
0000
1000
0000
0000
0000
0000
0001
,
0000
0000
0001
0000
0000
0000
0000
0001
0000
0000
0001
0000
0000
0000
0001
0000
,
1000
0001
1000
0001
1000
0000
1001
0000
,
1000
0000
0000
1000
0100
0000
0000
0000
,
0010
0001
0010
0001
0010
0000
0000
0000
,
0001
0000
0000
0001
0100
0000
0000
0000
,
0010
1000
0010
1000
0010
0010
0010
0010
,
0010
0000
0000
0000
;

//---------------dance-single - ----------------
#NOTEDATA:;
#CHARTNAME:;
#STEPSTYPE:dance-single;
#DESCRIPTION:;
#CHARTSTYLE:;
#DIFFICULTY:Easy;
#METER:5;
#RADARVALUES:0.172665,0.174823,0.086332,0.000000,0.075541,112.000000,104.000000,8.000000,0.000000,0.000000,0.000000,0.000000,0.000000,0.000000,0.172665,0.174823,0.086332,0.000000,0.075541,112.000000,104.000000,8.000000,0.000000,0.000000,0.000000,0.000000,0.000000,0.000000;
#CREDIT:;
#NOTES:
1000
0000
1000
0000
,
1000
0100
0001
0000
,
0001
0000
0001
0000
,
0001
0010
1000
0000
,
1000
0000
0010
0000
,
1000
0010
1000
0000
,
0001
0000
0010
0000
,
0001
0010
0001
0000
,
0001
0000
0001
1001
,
1000
0000
0000
0000
,
0010
0000
0010
0110
,
0100
0000
0000
0000
,
0100
0000
0100
0101
,
0001
0000
0000
0000
,
1000
0000
0100
1100
,
1000
0000
0000
0000
,
0100
0100
0010
0000
,
0100
0010
1001
0000
,
0100
0100
0010
0000
,
0100
0010
1001
0000
,
0010
0010
0100
0000
,
0010
0100
1001
0000
,
0010
0010
0100
0000
,
0010
0000
0000
0000
0100
0000
0000
0000
1001
0000
0000
0000
0000
0000
0000
0100
,
0000
0000
0100
0000
0000
0000
0000
0100
0000
0000
0100
0000
0000
0000
0000
0100
,
0000
0000
0100
0000
0000
0000
0000
0100
0000
0000
0100
0000
0000
0000
0000
0010
,
0000
0000
0010
0000
0000
0000
0000
0010
0000
0000
0010
0000
0000
0000
0000
0010
,
0000
0000
0010
0000
0000
0000
0000
0010
0000
0000
0010
0000
0000
0000
0000
1000
,
0000
0000
1000
0000
0000
0000
0000
1000
0000
0000
1000
0000
0000
0000
0000
1000
,
0000
0000
1000
0000
0000
0000
0000
1000
0000
0000
1000
0000
0000
0000
0000
0001
,
0000
0000
0001
0000
0000
0000
0000
0001
0000
0000
0001
0000
0000
0000
0001
0000
,
1000
0001
1000
0000
,
1000
0000
1000
0000
,
1000
0100
0001
0000
,
0001
0000
0001
0000
,
0001
0010
1000
0010
,
0001
0000
0000
0000
;

//---------------dance-single - ----------------
#NOTEDATA:;
#CHARTNAME:;
#STEPSTYPE:dance-single;
#DESCRIPTION:;
#CHARTSTYLE:;
#DIFFICULTY:Beginner;
#METER:3;
#RADARVALUES:0.109457,0.135974,0.043166,0.021583,0.075541,71.000000,67.000000,4.000000,2.000000,0.000000,0.000000,0.000000,0.000000,0.000000,0.109457,0.135974,0.043166,0.021583,0.075541,71.000000,67.000000,4.000000,2.000000,0.000000,0.000000,0.000000,0.000000,0.000000;
#CREDIT:;
#NOTES:
1000
0000
0000
0000
,
1000
0000
0000
0000
,
0001
0000
0000
0000
,
0001
0000
0000
0000
,
1000
0000
0010
0000
,
2000
0000
0000
3000
,
0001
0000
0010
0000
,
0002
0000
0000
0003
,
1000
0000
1000
1001
,
1000
0000
0000
0000
,
0010
0000
0010
0110
,
0010
0000
0000
0000
,
0100
0000
0100
0110
,
0100
0000
0000
0000
,
0001
0000
0001
1001
,
0001
0000
0000
0000
,
0100
0000
0010
0000
,
0100
0010
0000
0000
,
0010
0000
0100
0000
,
0010
0100
0000
0000
,
0001
0000
1000
0000
,
0001
1000
0000
0000
,
1000
0000
0001
0000
,
1000
0000
0000
0000
0001
0000
0000
0000
0000
0000
0000
0000
0000
0000
0000
0100
,
0000
0000
0000
0000
0000
0000
0000
0100
0000
0000
0000
0000
0000
0000
0000
0100
,
0000
0000
0000
0000
0000
0000
0000
0100
0000
0000
0000
0000
0000
0000
0000
0010
,
0000
0000
0000
0000
0000
0000
0000
0010
0000
0000
0000
0000
0000
0000
0000
0010
,
0000
0000
0000
0000
0000
0000
0000
0010
0000
0000
0000
0000
0000
0000
0000
1000
,
0000
0000
0000
0000
0000
0000
0000
1000
0000
0000
0000
0000
0000
0000
0000
1000
,
0000
0000
0000
0000
0000
0000
0000
1000
0000
0000
0000
0000
0000
0000
0000
0001
,
0000
0000
0000
0000
0000
0000
0000
0001
0000
0000
0000
0000
0000
0000
0000
0000
,
0001
0001
0001
0000
,
1000
0000
0000
0000
,
1000
0000
0000
0000
,
0001
0000
0000
0000
,
0001
0001
0001
0001
,
0001
0000
0000
0000
;
