#TITLE:PollinosiS;
#SUBTITLE:;
#ARTIST:dj REMO-CON;
#TITLETRANSLIT:;
#SUBTITLETRANSLIT:;
#ARTISTTRANSLIT:;
#GENRE:;
#CREDIT:Chewi☆;
#MENUCOLOR:;
#METERTYPE:DDR X;
#BANNER:PollinosiS.png;
#BACKGROUND:PollinosiS-bg.png;
#LYRICSPATH:;
#CDTITLE:;
#MUSIC:PollinosiS.mp3;
#OFFSET:-3.744;
#SAMPLESTART:74.916;
#SAMPLELENGTH:15.000;
#SELECTABLE:YES;
#LISTSORT:;
#BPMS:0.000=145.000;
#STOPS:200.000=0.207
,200.500=0.207
,201.000=0.207
,201.500=0.207
;
#BGCHANGES:;
#ATTACKS:;

//---------------dance-single - Chewi----------------
#NOTES:
     dance-single:
     Chewi:
     Hard:
     13:
     0.521,0.576,0.190,0.181,0.305:
0000
0000
0000
0000
,
0000
0000
0000
0000
,
0000
0000
0000
0000
,
0000
0000
0000
0000
,
0000
1000
0100
1000
0000
1000
0001
1000
,
0000
0001
0100
0001
0000
0001
1000
0001
,
0000
1000
0001
0010
0000
0001
1000
0010
,
0000
0100
0010
0100
0000
0010
0100
0010
,
1000
0010
0000
0000
0100
0001
0000
0000
1000
0010
0000
0000
0100
0001
0000
0000
,
1000
0100
0000
0000
0010
0001
0000
0000
1000
0100
0000
0000
0010
0001
0000
0000
,
0001
0010
0000
0000
0100
1000
0000
0000
0001
0010
0000
0000
0100
1000
0000
0000
,
0001
1000
0000
0000
1000
0001
0000
0000
1000
0000
0010
0000
0000
0100
0001
0100
,
0001
0010
0100
1000
0001
0010
0100
1000
,
0001
0100
0010
1000
0001
0100
0010
1000
,
0001
1000
0100
0010
0001
1000
0010
0100
,
0001
0000
0001
0000
1000
0000
1000
0000
0100
0010
0000
0010
0100
0000
1000
0000
,
0100
1000
0100
1000
0100
1000
0100
1000
,
0010
1000
0010
1000
0010
1000
0010
1000
,
0010
0100
0010
0100
0010
0100
0010
0100
,
0001
0100
0001
0100
0001
0100
0001
0100
,
0001
0010
0002
0000
0010
0000
1000
0000
,
1003
0010
0200
0000
0001
0000
0010
0000
,
0310
0100
0002
0000
0010
0000
1000
0000
,
1003
0100
0020
0000
0001
0000
0100
0000
,
0130
1000
0020
0000
0100
0000
1000
0000
,
1030
0010
0200
0000
0001
0000
0010
0000
,
0301
1000
0200
0000
1000
0000
0010
0000
,
0310
0001
0020
0000
0001
0000
0100
0000
,
0031
1000
0200
0000
1000
0000
0001
0000
,
1300
0001
0200
0000
0010
0000
0001
0000
,
0310
0100
0002
0000
1000
0000
0100
0000
,
0103
0010
2000
0000
0100
0000
0010
0000
,
3001
1000
2002
0000
0000
0000
3000
0000
,
0013
0100
0220
0000
0000
0000
0030
0000
,
1300
1000
2200
0000
0000
0000
3000
0000
,
1300
0010
2020
0000
0000
0000
3000
0000
,
0130
0100
0000
0000
1000
1000
0000
0000
,
0010
0010
0000
0000
0001
0001
0000
0000
,
0010
0000
0000
0000
0100
0000
1000
0000
0000
0010
0000
0000
0100
0000
0001
0000
,
0000
1000
0000
0000
0001
0000
1000
0000
0000
0100
0010
0100
0010
0100
0010
0100
,
0010
0000
0000
0000
,
1001
0220
0000
0000
,
0330
0000
0000
0000
,
0100
0010
0001
0010
0100
0010
0001
0010
,
0100
1000
0010
1000
0100
1000
0010
1000
,
0100
0010
0100
1000
0100
0010
0100
1000
,
0010
0100
0001
0100
0010
1000
0001
0000
,
1000
0100
0010
0100
1000
0100
0010
0100
,
1000
0001
0100
0001
1000
0001
0100
0001
,
0010
0001
0100
0001
0010
0001
0100
0010
,
0110
0000
0000
1010
0000
0000
1001
0000
0000
1100
0000
0000
1000
0000
0100
0000
0010
0000
0001
0000
0000
0000
0000
0000
,
0100
1000
0010
1000
0000
0000
0100
0010
0001
0100
0000
0000
,
0010
0100
0010
0100
0000
0000
0001
0100
0001
0100
0000
0000
,
0010
1000
0010
1000
0000
0000
1000
0001
1000
0001
0000
0000
,
1000
0100
0010
0001
0000
0000
1000
0100
1000
0100
0000
0000
,
0010
0001
0010
0001
0000
0000
1000
0100
1000
0100
0000
0000
,
1000
0001
1000
0001
0000
0000
0100
0010
0100
0010
0100
0010
,
1000
0010
1000
0010
1000
0000
1000
0000
1001
0000
0001
0000
,
1001
0000
0000
0000
0110
0000
0000
0000
0100
0010
0000
0010
0100
0000
0000
0000
,
0001
0000
0100
0000
0101
0000
0000
0000
1000
0100
0000
0100
1000
0000
0000
0000
,
1000
0000
0100
0000
0011
0000
0000
0000
0001
1000
0000
1000
0001
0000
0000
0000
,
1000
0000
0010
0000
1010
0000
0000
0000
0100
0001
0000
0001
0100
0000
0000
0000
,
0000
0100
0000
0010
0000
1001
0000
0000
1000
0100
0000
0100
1000
0000
0000
0000
,
0010
0000
1000
0000
1100
0000
0000
0000
0010
0001
0000
0001
0010
0000
0000
0000
,
0001
0000
0000
0100
0000
0000
0101
0000
0000
0000
0000
0000
0000
0000
1000
0000
0000
0000
1000
0000
0000
1000
0000
0000
,
0000
0001
0000
0000
0000
0000
0001
0000
0000
0001
0000
0000
0000
0000
0000
0011
0000
0000
0000
0000
0000
0101
0000
0000
,
0000
1100
0000
1010
0010
0000
0000
0000
;

//---------------dance-single - Chewi----------------
#NOTES:
     dance-single:
     Chewi:
     Medium:
     9:
     0.349,0.493,0.519,0.016,0.000: // measure 1
0000
0000
0000
0000
,  // measure 2
0000
0000
0000
0000
,  // measure 3
0000
0000
0000
0000
,  // measure 4
0000
0000
0000
0000
,  // measure 5
1000
0100
0001
0100
,  // measure 6
1000
0010
0001
0010
,  // measure 7
1000
0100
0001
0100
,  // measure 8
1000
0010
0001
0010
,  // measure 9
0110
0110
0110
0110
,  // measure 10
1001
1001
1001
1001
,  // measure 11
0101
0101
0101
0101
,  // measure 12
1010
1010
1010
1010
,  // measure 13
1001
1001
1001
1001
,  // measure 14
0011
0011
0011
0011
,  // measure 15
0110
0110
0110
0110
,  // measure 16
1100
1100
1100
1100
,  // measure 17
2000
0001
0100
0001
,  // measure 18
0010
0001
0100
0001
,  // measure 19
3002
1000
0100
1000
,  // measure 20
0010
0000
1000
0000
0100
0000
0100
0003
,  // measure 21
1000
0100
0010
0000
0000
0000
0000
0000
,  // measure 22
0001
0010
0100
0000
0000
0000
0000
0000
,  // measure 23
1000
0001
0100
0000
0000
0000
0000
0000
,  // measure 24
0010
0100
0010
0000
0000
0000
0000
0000
,  // measure 25
0100
0010
1000
0000
0000
0000
0000
0000
,  // measure 26
1000
0001
0010
0000
0000
0000
0000
0000
,  // measure 27
0001
0010
0100
0000
0000
0000
0000
0000
,  // measure 28
1000
0100
1000
0000
0000
0000
0000
0000
,  // measure 29
0001
1000
0010
0000
0000
0000
0000
0000
,  // measure 30
0100
0010
0100
0000
0000
0000
0000
0000
,  // measure 31
0001
0100
0001
0000
0000
0000
0000
0000
,  // measure 32
0010
0100
1000
0000
0000
0000
0000
0000
,  // measure 33
1000
0001
1000
0000
0000
0000
0000
0000
,  // measure 34
0001
1000
0001
0000
0000
0000
0000
0000
,  // measure 35
0100
0010
0100
0000
0000
0000
0000
0000
,  // measure 36
0010
0100
0010
0000
0000
0000
0000
0000
,  // measure 37
0110
0000
1010
0000
,  // measure 38
1100
0000
0110
0000
,  // measure 39
0011
0010
0100
1000
,  // measure 40
1010
0010
0100
0001
,  // measure 41
1001
0000
0000
0000
,  // measure 42
0110
0000
0000
0000
,  // measure 43
0100
0010
0100
0010
,  // measure 44
0010
0001
0010
0100
,  // measure 45
1000
0100
1000
0000
0001
0000
0101
0000
,  // measure 46
1000
0010
0100
0001
,  // measure 47
0010
0001
0010
0000
0010
0000
1100
0000
,  // measure 48
1000
0001
0100
0010
,  // measure 49
0100
0001
0100
0000
0010
0000
1010
0000
,  // measure 50
1000
0000
0001
0000
1000
0100
0010
0000
,  // measure 51
0011
0011
1100
1100
0001
0000
0011
0000
,  // measure 52
1000
1100
0001
0101
,  // measure 53
1000
1010
0010
0010
,  // measure 54
0100
0000
0100
0000
0010
0100
0001
0000
,  // measure 55
0010
0100
1000
0000
1000
0000
1100
0000
,  // measure 56
0001
0101
1000
1010
,  // measure 57
0001
0011
0010
0100
,  // measure 58
1000
0001
0100
0000
0110
0000
0000
0000
,  // measure 59
0000
0000
0010
0010
,  // measure 60
0010
0010
1000
1000
,  // measure 61
1000
0000
1000
0000
0001
1000
0001
0000
,  // measure 62
1000
1100
1000
0001
,  // measure 63
1000
0001
0010
0000
0100
0000
0100
0000
,  // measure 64
0100
0100
0010
0010
,  // measure 65
0010
0000
0010
0000
0000
0011
0000
0000
,  // measure 66
0000
1100
0000
0000
0000
1001
0000
1001
,  // measure 67
0000
1001
0000
1001
1000
0000
0000
0000
;

//---------------dance-single - Chewi----------------
#NOTES:
     dance-single:
     Chewi:
     Beginner:
     3:
     0.138,0.164,0.025,0.000,0.000:
0000
0000
0000
0000
,
0000
0000
0000
0000
,
0000
0000
0000
0000
,
0000
0000
0000
0000
,
0000
0100
0000
0001
,
0000
0100
0000
1000
,
0000
0001
0000
1000
,
0000
0010
0000
0100
,
1000
0000
1000
0000
,
1000
0000
1000
0000
,
0001
0000
0001
0000
,
0001
0000
1000
0000
,
0001
0000
0001
0000
,
0001
0000
0001
0000
,
0001
0000
0001
0000
,
0001
0000
0100
0000
,
0100
0000
0100
0000
,
0010
0000
0010
0000
,
0010
0000
0010
0000
,
0001
0000
0001
0000
,
0001
0000
0010
0000
,
1000
0000
0001
0000
,
0010
0000
0010
0000
,
1000
0000
0001
0000
,
0100
0000
0100
0000
,
1000
0000
0001
0000
,
0001
0000
1000
0000
,
0010
0000
0001
0000
,
0001
0000
1000
0000
,
1000
0000
0010
0000
,
0010
0000
1000
0000
,
0100
0000
0100
0000
,
0001
0000
0000
0000
,
0010
0000
0000
0000
,
1000
0000
0000
0000
,
1000
0000
0000
0000
,
0100
0000
1000
0000
,
0010
0000
0001
0000
,
0010
0000
0100
0000
,
0000
0001
0000
0000
,
0010
0000
0000
0000
,
1001
0000
0000
0000
,
0000
0000
0000
0000
,
0100
0000
0100
0000
,
0100
0000
0100
0000
,
0100
0000
0100
0000
,
0010
0000
0010
0000
,
1000
0000
1000
0000
,
1000
0000
1000
0000
,
0010
0000
0010
0000
,
0110
0000
1000
0000
,
0100
0000
0100
0000
,
0010
0000
0001
0000
,
0010
0000
1000
0000
,
1000
0000
1000
0000
,
0010
0000
1000
0000
,
1000
0000
0100
0000
,
1000
0000
1000
0000
,
1001
0000
0100
0000
,
0001
0000
1000
0000
,
1000
0000
0001
0000
,
1000
0000
0100
0000
,
0000
0000
1000
0000
,
0010
0000
0010
0000
,
0001
0000
0000
1000
,
0000
0001
0000
0000
,
0000
0000
0010
0000
;

//---------------dance-single - Chewi----------------
#NOTES:
     dance-single:
     Chewi:
     Easy:
     5:
     0.238,0.329,0.082,0.000,0.000: // measure 1
0000
0000
0000
0000
,  // measure 2
0000
0000
0000
0000
,  // measure 3
0000
0000
0000
0000
,  // measure 4
0000
0000
0000
0000
,  // measure 5
0000
0100
0000
0001
,  // measure 6
0000
0100
0000
1000
,  // measure 7
0000
0001
0000
1000
,  // measure 8
0000
0010
0000
0100
,  // measure 9
1000
0100
1000
0100
,  // measure 10
1000
0010
1000
0010
,  // measure 11
0001
0100
0001
0100
,  // measure 12
0001
1000
1000
0000
,  // measure 13
0001
0100
0001
0100
,  // measure 14
0001
0010
0001
0010
,  // measure 15
0001
0100
0001
0010
,  // measure 16
0001
1000
0100
0100
,  // measure 17
0100
0100
0100
0100
,  // measure 18
0010
0010
0010
0010
,  // measure 19
0010
0010
0010
0010
,  // measure 20
0001
0001
0001
0001
,  // measure 21
0001
0000
0010
1000
,  // measure 22
1000
0000
0001
0010
,  // measure 23
0010
0000
0010
1000
,  // measure 24
1000
0000
0001
0100
,  // measure 25
0100
0000
0100
1000
,  // measure 26
1000
0000
0001
0010
,  // measure 27
0001
0000
1000
0010
,  // measure 28
0010
0000
0001
0100
,  // measure 29
0001
0000
1000
0001
,  // measure 30
1000
0000
0010
0001
,  // measure 31
0010
0000
1000
0100
,  // measure 32
0100
0000
0100
0010
,  // measure 33
0001
0000
0000
0000
,  // measure 34
0010
0000
0000
0000
,  // measure 35
1000
0000
0000
0000
,  // measure 36
1000
0000
0000
0000
,  // measure 37
0100
0000
1000
0000
,  // measure 38
0010
0000
0001
0000
,  // measure 39
0010
0100
0000
0100
,  // measure 40
0000
0001
0000
0010
,  // measure 41
0010
0000
0000
0000
,  // measure 42
1001
0000
0000
0000
,  // measure 43
0000
0000
0000
0000
,  // measure 44
0100
0001
0100
0001
,  // measure 45
0100
0010
0100
0010
,  // measure 46
0100
0100
0100
0100
,  // measure 47
0010
0001
0010
0001
,  // measure 48
1000
0010
1000
0010
,  // measure 49
1000
0100
1000
0100
,  // measure 50
0010
0100
0010
0100
,  // measure 51
0110
1001
1000
0001
,  // measure 52
0100
1000
0100
0100
,  // measure 53
0010
0100
0001
0100
,  // measure 54
0010
1000
1000
0001
,  // measure 55
1000
0001
1000
0100
,  // measure 56
0010
0001
1000
0100
,  // measure 57
1000
0001
0100
0010
,  // measure 58
1000
0010
1000
0000
,  // measure 59
1001
0110
0100
0100
,  // measure 60
0001
0101
1000
1000
,  // measure 61
1000
0011
0001
0001
,  // measure 62
1000
1010
0100
0100
,  // measure 63
0000
0000
1000
1000
,  // measure 64
0010
1100
0010
0010
,  // measure 65
0001
0101
0000
1000
,  // measure 66
0000
0001
0000
0000
,  // measure 67
0000
0000
0010
0000
;
