#TITLE:Poker Face;
#SUBTITLE:;
#ARTIST:Lady GaGa;
#TITLETRANSLIT:;
#SUBTITLETRANSLIT:;
#ARTISTTRANSLIT:;
#GENRE:;
#CREDIT:Chewphoria~;
#MENUCOLOR:;
#METERTYPE:DDR;
#BANNER:Poker Face.png;
#BACKGROUND:Poker Face-bg.png;
#LYRICSPATH:;
#CDTITLE:;
#MUSIC:Poker Face.mp3;
#OFFSET:-8.069;
#SAMPLESTART:40.336;
#SAMPLELENGTH:12.000;
#SELECTABLE:YES;
#LISTSORT:;
#BPMS:0.000=118.930;
#STOPS:;
#BGCHANGES:;
#ATTACKS:;

//---------------dance-single - Chewphoria~----------------
#NOTES:
     dance-single:
     Chewphoria~:
     Hard:
     9:
     0.337,0.364,0.245,0.224,0.000: // measure 1
1000
1000
0001
0000
0010
0010
0001
0000
,  // measure 2
1000
0000
0001
0100
0010
0000
0000
0000
,  // measure 3
1000
1000
0001
0000
0010
0010
0001
0000
,  // measure 4
0001
1000
0100
0000
0101
0000
0000
0000
,  // measure 5
1200
1300
0021
0031
,  // measure 6
0001
1000
0001
0000
,  // measure 7
0102
0103
2010
3010
,  // measure 8
1000
0010
0100
0001
0000
0000
0000
0000
,  // measure 9
1001
0000
0000
1000
0001
1000
0000
0000
,  // measure 10
0110
0000
0000
0010
0100
0010
0100
1000
,  // measure 11
0000
0101
1010
0000
,  // measure 12
1000
0001
0010
0100
0000
0000
0000
0000
,  // measure 13
2100
3100
0012
0013
,  // measure 14
1000
0000
1001
0000
,  // measure 15
0100
1000
0001
0010
1000
0000
0000
0000
,  // measure 16
2200
0000
0000
3300
,  // measure 17
0000
0000
1000
0000
0100
0000
1000
0100
,  // measure 18
0010
0000
0100
0000
0010
0000
0100
1000
,  // measure 19
0001
0001
0100
0001
,  // measure 20
0010
0100
0010
0100
,  // measure 21
0001
0001
1000
0000
0001
0000
0100
0000
,  // measure 22
0010
0010
1000
0001
0100
0000
0001
0000
,  // measure 23
1000
0100
0000
1000
0100
0000
1100
0000
,  // measure 24
0010
0001
0010
0000
0001
0100
1000
0100
,  // measure 25
0000
0201
0310
1020
,  // measure 26
1030
0100
0010
0000
0100
0000
0010
0000
,  // measure 27
0100
0000
0001
0100
0010
0000
0100
0000
,  // measure 28
0010
0000
0100
0001
1000
0000
1001
0000
,  // measure 29
0001
0001
1000
0000
0001
0000
0100
0000
,  // measure 30
0010
0010
1000
0001
0100
0000
0001
0000
,  // measure 31
0000
1000
0100
0000
0000
0010
0001
0010
,  // measure 32
0000
0001
0100
1000
0100
0000
0000
0000
,  // measure 33
0202
0303
2020
3030
,  // measure 34
2000
3200
0320
0031
,  // measure 35
0012
0013
2010
3010
,  // measure 36
0100
0000
0010
0000
0010
1000
0001
0000
,  // measure 37
1000
0000
0001
1000
0001
0000
1000
0000
,  // measure 38
0010
0100
0010
0100
0001
0000
0000
0000
,  // measure 39
1200
1300
0012
0013
,  // measure 40
1000
0000
0001
0000
0010
0000
1000
0100
,  // measure 41
0010
0001
0000
0000
0000
0000
0000
0000
;

//---------------dance-single - Chewphoria~----------------
#NOTES:
     dance-single:
     Chewphoria~:
     Beginner:
     1:
     0.072,0.107,0.021,0.000,0.000:
1000
0000
0000
0000
,
0001
0000
0000
0000
,
0001
0000
0000
0000
,
1000
0000
0000
0000
,
0001
0000
0000
0000
,
0100
0000
0000
0000
,
1000
0000
0000
0000
,
0010
0000
0000
0000
,
0001
0000
0000
0000
,
1000
0000
0000
0000
,
0010
0010
0000
0000
,
0001
0000
0000
0000
,
0001
0000
0001
0000
,
0001
0000
0001
0000
,
0010
0000
0000
0000
,
0110
0000
0000
0000
,
0100
0000
0000
0000
,
0001
0000
0000
0000
,
0010
0000
0000
0000
,
0001
0000
0000
0000
,
1000
0000
0000
0000
,
0010
0000
0000
0000
,
0001
0000
0000
0000
,
0100
0000
0000
0000
,
1000
0000
0000
0000
,
0001
0000
0000
0000
,
0100
0000
0000
0000
,
0001
0000
0000
0000
,
0010
0000
0000
0000
,
1000
0000
0000
0000
,
0010
0000
0000
0000
,
0100
0000
0000
0000
,
0001
0000
0000
0000
,
0100
0000
0000
0000
,
0010
0000
0000
0000
,
0010
0000
0000
0000
,
1000
0000
0000
0000
,
0100
0000
0000
0000
,
0010
0000
0000
0000
,
1000
0000
1001
0000
,
0001
0000
0000
0000
;

//---------------dance-single - Chewphoria~----------------
#NOTES:
     dance-single:
     Chewphoria~:
     Easy:
     3:
     0.149,0.149,0.032,0.139,0.000: // measure 1
1000
0000
0100
0000
,  // measure 2
0001
0000
1000
0000
,  // measure 3
0001
0000
0100
0000
,  // measure 4
1000
0000
0001
0000
,  // measure 5
0001
0001
0100
0000
,  // measure 6
0100
0000
0010
0000
,  // measure 7
1000
1000
0010
0000
,  // measure 8
0010
0000
0100
0000
,  // measure 9
0002
0003
0000
0000
,  // measure 10
2000
3000
0000
0000
,  // measure 11
0010
0010
0000
0000
,  // measure 12
0001
1000
1001
0000
,  // measure 13
0001
0000
1000
0000
,  // measure 14
0001
0000
1000
0000
,  // measure 15
0020
0030
0000
0000
,  // measure 16
0110
0000
0000
0000
,  // measure 17
0100
0100
0100
0000
,  // measure 18
0002
0000
0003
0000
,  // measure 19
0010
0010
0010
0000
,  // measure 20
0002
0000
0003
0000
,  // measure 21
1000
1000
0100
0000
,  // measure 22
0020
0000
0030
0000
,  // measure 23
0001
0001
0010
0000
,  // measure 24
0200
0000
0300
0000
,  // measure 25
1000
1000
1000
0000
,  // measure 26
0001
0000
0001
0000
,  // measure 27
0100
0100
0100
0000
,  // measure 28
0001
0000
0001
0000
,  // measure 29
0010
0010
0010
0000
,  // measure 30
1000
0000
1000
0000
,  // measure 31
0010
0010
0010
0000
,  // measure 32
0100
0000
0100
0000
,  // measure 33
0002
0003
2000
3000
,  // measure 34
0200
0000
0000
0300
,  // measure 35
0010
0000
0100
0000
,  // measure 36
0010
0000
0000
0000
,  // measure 37
2000
3000
0002
0003
,  // measure 38
0200
0000
0300
0000
,  // measure 39
0010
0000
0100
0000
,  // measure 40
1000
0001
1001
0000
,  // measure 41
0001
0000
0000
0000
;

//---------------dance-single - Chewphoria~----------------
#NOTES:
     dance-single:
     Chewphoria~:
     Medium:
     6:
     0.251,0.277,0.128,0.128,0.000: // measure 1
0010
1000
0100
0000
,  // measure 2
0010
0001
0100
0000
,  // measure 3
0001
0000
0010
0100
0010
0000
0000
0000
,  // measure 4
1000
0000
0010
0100
0010
0000
0000
0000
,  // measure 5
0200
0300
0002
0003
,  // measure 6
0200
0000
0300
0000
0010
1000
0001
0000
,  // measure 7
2000
3000
0200
0300
,  // measure 8
0002
0000
0003
0000
0001
0100
1000
0000
,  // measure 9
1001
0000
0100
0100
,  // measure 10
0110
0000
0000
0000
0010
0001
1000
0000
,  // measure 11
0000
0000
0001
0000
1000
0000
0001
1000
,  // measure 12
0100
0000
0001
0001
0000
0000
0000
0000
,  // measure 13
0101
0000
0000
0000
0100
0000
0010
0100
,  // measure 14
0010
0000
1010
0010
,  // measure 15
0010
0100
0010
0000
0001
0000
0010
0000
,  // measure 16
0010
0100
1000
0000
0000
0000
0000
0000
,  // measure 17
1100
0000
0100
0000
0001
0100
0001
0000
,  // measure 18
0101
0000
0100
0000
1000
0100
1000
0000
,  // measure 19
0100
0000
0001
1000
0000
0000
0000
0000
,  // measure 20
0010
0100
0010
0000
,  // measure 21
0101
0000
0100
0000
0010
0100
0010
0000
,  // measure 22
0010
1000
0010
0000
,  // measure 23
1010
0000
0101
0000
,  // measure 24
0110
0001
1000
0100
,  // measure 25
1001
0000
1000
0000
,  // measure 26
0100
0010
0100
0000
,  // measure 27
0001
0100
0010
0100
,  // measure 28
0010
0001
0100
1000
,  // measure 29
0010
1000
0001
0000
,  // measure 30
1000
0000
0010
0100
0010
0000
0000
0000
,  // measure 31
0010
0001
0100
0000
,  // measure 32
0010
0001
1000
0000
,  // measure 33
0010
0100
0010
0000
1000
0000
1000
0000
,  // measure 34
0001
0001
0000
0000
,  // measure 35
0010
1000
0001
0000
1000
0000
0001
0000
,  // measure 36
1000
1000
0001
0100
,  // measure 37
0200
0300
2000
3100
,  // measure 38
0200
0310
0001
1000
,  // measure 39
0020
0030
2000
3000
,  // measure 40
0020
0130
0001
0010
,  // measure 41
0110
0000
0000
0000
;
