#TITLE:Poker Face (LLG vs. GLG Remix);
#SUBTITLE:;
#ARTIST:Lady Gaga;
#TITLETRANSLIT:;
#SUBTITLETRANSLIT:;
#ARTISTTRANSLIT:;
#GENRE:;
#CREDIT:Chewi☆;
#MENUCOLOR:#FFFF00;
#METERTYPE:DDR X;
#BANNER:Poker Face (LLG vs. GLG Remix).png;
#BACKGROUND:Poker Face (LLG vs. GLG Remix)-bg.png;
#LYRICSPATH:;
#CDTITLE:./CDTITLES/DanceDanceRevolution skyMIX2 -FREEDOM-.png;
#MUSIC:Poker Face (LLG vs. GLG Remix).mp3;
#OFFSET:-0.029;
#SAMPLESTART:52.525;
#SAMPLELENGTH:15.000;
#SELECTABLE:YES;
#LISTSORT:;
#DISPLAYBPM:128.000;
#BPMS:0.000=128.000;
#STOPS:;
#BGCHANGES:;
#ATTACKS:;

//---------------dance-single - Chewi----------------
#NOTES:
     dance-single:
     Chewi:
     Beginner:
     2:
     0.143,0.203,0.077,0.000,0.000: // measure 1
0000
0000
0000
0000
,  // measure 2
0000
0000
0000
0000
,  // measure 3
0000
0000
0000
0000
,  // measure 4
0000
0000
0000
0000
,  // measure 5
1000
0000
0100
0000
,  // measure 6
0001
0000
0100
0000
,  // measure 7
1000
0000
0010
0000
,  // measure 8
0001
0000
0010
0000
,  // measure 9
0110
0000
0000
0000
,  // measure 10
0100
0100
0100
0000
,  // measure 11
1001
0000
0000
0000
,  // measure 12
0001
0001
0001
0000
,  // measure 13
0001
0000
0010
0000
,  // measure 14
1000
1000
1000
0000
,  // measure 15
1000
0000
0010
0000
,  // measure 16
0001
0001
0001
0000
,  // measure 17
1000
0000
0001
0000
,  // measure 18
0100
0100
0100
0000
,  // measure 19
0001
0000
1000
0000
,  // measure 20
0010
0010
0010
0000
,  // measure 21
0110
0000
0000
0000
,  // measure 22
1000
0000
0000
0000
,  // measure 23
0001
0000
0000
0000
,  // measure 24
0100
0000
0000
0000
,  // measure 25
1001
0000
0000
0000
,  // measure 26
0010
0000
0000
0000
,  // measure 27
0100
0000
0000
0000
,  // measure 28
1000
0000
0000
0000
,  // measure 29
1000
1000
1000
0000
,  // measure 30
0001
0000
0000
0000
,  // measure 31
0001
0001
0001
0000
,  // measure 32
1000
0000
0000
0000
,  // measure 33
0010
0010
0010
0000
,  // measure 34
0100
0000
0000
0000
,  // measure 35
0100
0100
0100
0000
,  // measure 36
0010
0000
0000
0000
,  // measure 37
1001
0000
0000
0000
,  // measure 38
1000
0000
0000
0000
,  // measure 39
0001
0000
0100
0000
,  // measure 40
1000
0000
0010
0000
,  // measure 41
0001
0000
0010
0000
,  // measure 42
1000
0000
0100
0000
,  // measure 43
0001
0000
1000
0000
,  // measure 44
0001
0000
1000
0000
,  // measure 45
0010
0000
0100
0000
,  // measure 46
0010
0000
0100
0000
,  // measure 47
0110
0000
0000
0000
,  // measure 48
1000
0000
0000
0000
,  // measure 49
0001
0000
0000
0000
,  // measure 50
0010
0000
0000
0000
,  // measure 51
0110
0000
0100
0000
,  // measure 52
0100
0100
0100
0000
,  // measure 53
0010
0000
1000
0000
,  // measure 54
0100
0000
0001
0000
,  // measure 55
1001
0000
0001
0000
,  // measure 56
0001
0001
0001
0000
,  // measure 57
0010
0000
0001
0000
,  // measure 58
0100
0000
1000
0000
,  // measure 59
0010
0010
0010
0000
,  // measure 60
0100
0000
0010
0000
,  // measure 61
1000
0000
0001
0000
,  // measure 62
1000
0000
0001
0000
,  // measure 63
1001
0000
1000
0000
,  // measure 64
1000
1000
1000
0000
,  // measure 65
1001
0000
0001
0000
,  // measure 66
0001
0001
0001
0000
,  // measure 67
0100
0000
0000
0000
;

//---------------dance-single - Chewi----------------
#NOTES:
     dance-single:
     Chewi:
     Easy:
     5:
     0.259,0.280,0.031,0.146,0.000:
0000
0000
0000
0000
,
0000
0000
0000
0000
,
0000
0000
0000
0000
,
0000
0000
0000
0000
,
1000
1000
1000
0000
,
0001
0001
0001
0000
,
0010
0010
0010
0000
,
0100
0100
0100
0000
,
1000
0100
1000
0100
,
0001
0010
0001
0010
,
0001
0100
0001
0100
,
1000
0010
1000
0010
,
0020
0000
0000
0030
,
0010
1000
0100
0000
,
0020
0000
0000
0030
,
0010
0001
0100
0000
,
0001
0000
1000
0000
,
0001
0010
1000
0000
,
1000
0000
0001
0000
,
1000
0100
0001
0000
,
1001
0000
0001
0010
,
0100
0000
0010
0100
,
1000
0000
0100
0000
,
0001
0010
1000
0000
,
1001
0000
1000
0010
,
0001
0000
0100
1000
,
0010
0000
0100
0000
,
0010
0100
0010
0000
,
1000
1000
1000
1000
,
1000
1000
1000
0000
,
0001
0001
0001
0001
,
0001
0001
0001
0000
,
0010
0010
0110
0100
,
0100
0100
1000
0001
,
1000
0001
1001
0001
,
0010
1000
0100
0001
,
2000
0000
0000
0000
,
3000
0000
0000
0000
,
0001
0010
0001
0010
,
0001
0100
0001
0100
,
1000
0010
1000
0010
,
1000
0100
1000
0100
,
1000
0100
0001
1000
,
0100
0001
0010
1000
,
0100
0010
0001
1000
,
0010
0100
1000
0010
,
0100
1000
1000
0100
,
0001
0001
0010
0010
,
0100
0001
0001
0100
,
1000
1000
0010
0010
,
0002
1003
2000
3001
,
0010
0100
0010
0100
,
0200
0310
0020
0130
,
0001
1000
0001
1000
,
0002
0013
0200
1300
,
1000
0100
0010
0001
,
2000
3010
0002
0103
,
0001
0100
0010
1000
,
0002
1003
2000
3001
,
1000
0001
0100
0010
,
0020
0130
0200
0310
,
0010
0100
0001
1000
,
2000
3100
0200
0310
,
0001
0100
1000
0010
,
0002
0013
0020
0130
,
0100
1000
1000
0010
,
0001
0000
0000
0000
;

//---------------dance-single - Chewi----------------
#NOTES:
     dance-single:
     Chewi:
     Medium:
     6:
     0.335,0.331,0.185,0.185,0.000:
0000
0000
0000
0000
,
0000
0000
0000
0000
,
0000
0000
0000
0000
,
0000
0000
0000
0000
,
2000
3100
0002
0013
,
0010
0100
0010
0000
0100
0000
0110
0000
,
0002
0103
2000
3010
,
0010
0100
0010
0000
0100
0000
0110
0000
,
2000
0001
0100
3001
,
0002
1000
0100
1003
,
0010
0001
0100
1000
,
0010
1000
0100
0001
,
0010
0100
0010
0100
0010
0000
1000
0000
,
0100
0001
0100
1000
,
0001
1000
0001
1000
0001
0000
1000
0000
,
0010
0001
0010
1000
,
1001
0000
0110
0000
,
1001
0110
1001
0000
,
0001
0010
0100
1000
,
0001
0010
0100
1000
,
1001
0000
0000
0000
0100
0100
0100
0000
,
0110
0000
0000
0000
0010
0001
0100
0000
,
1000
0010
0100
0001
,
0010
0100
1000
0001
,
1100
0000
0000
0000
0010
0010
0010
0000
,
0101
0000
0000
0000
0100
0100
0100
0000
,
0010
0001
0100
1000
,
2002
0000
0000
3003
,
0002
0013
2000
3010
,
0100
0010
0100
0010
,
0200
0301
0200
1300
,
0100
0010
0100
0010
,
0002
0103
2000
3100
,
0001
0010
1000
0010
,
0002
0103
2000
3100
,
1000
0001
0100
1000
,
0001
0101
0100
1100
,
0000
1000
0000
0001
0000
1000
0000
0000
,
0010
0100
0010
0100
,
0001
0000
1000
0000
0001
1000
0001
0000
,
1000
0100
0010
0001
,
1000
0100
0010
0110
,
0001
0010
0100
1000
,
0001
0010
0100
1000
,
0001
1000
0100
0000
1000
0000
0001
0000
,
1000
0001
0100
0000
0010
0000
0100
0000
,
0101
0010
0010
0010
,
1100
0100
0100
0100
,
1100
0010
0010
0010
,
0101
0100
0100
0100
,
0020
0130
0002
1003
,
0100
0001
0010
1000
,
0002
1003
0200
0310
,
0001
0100
1000
0010
,
0200
0310
0002
1003
,
0010
1000
0100
0001
,
2000
3100
0002
0103
,
0010
0000
0100
0000
0010
0100
0010
0000
,
1100
0010
0001
0100
,
1010
0001
0100
0010
,
0101
0010
1000
0100
,
0101
1000
0010
0001
,
0100
0010
0100
0010
0001
0000
0010
0000
,
0100
1000
0010
0100
,
0010
0100
0001
0100
0010
0000
0100
0000
,
0001
0010
1000
0100
,
1001
0000
0000
0000
;

//---------------dance-single - Chewi----------------
#NOTES:
     dance-single:
     Chewi:
     Hard:
     10:
     0.521,0.516,0.131,0.216,0.004:
0000
0000
0000
0000
,
0000
0000
0000
0000
,
0000
0000
0000
0000
,
0000
0000
0000
0000
,
1000
0100
0010
0000
0001
0010
1000
0000
,
0100
0001
0010
0100
1000
1000
0001
0001
,
1000
0010
0100
0000
0001
0100
0010
0000
,
1000
0001
1000
0001
0010
0010
0100
0100
,
0010
0001
0100
1000
0010
0100
0010
0000
,
0100
0010
0001
1000
0010
0010
0100
0100
,
0010
1000
0100
0001
0010
0100
0001
0000
,
0010
0100
1000
0001
1000
1000
0001
0001
,
1001
1000
0010
0001
0010
1000
0100
0001
,
0100
1000
0001
0100
0010
0000
0220
0330
,
0101
0100
0010
1000
0100
0001
0100
1000
,
0001
0100
1000
0010
0200
0010
0010
0310
,
0110
0010
0100
1000
0100
0001
0010
0100
,
0001
0010
0100
1000
0002
0000
2003
0000
,
3001
0001
0010
0100
1000
0010
0100
0001
,
0100
0010
1000
0001
0020
0000
0030
0000
,
0022
0000
0033
0010
1000
0100
0002
0000
,
0203
0000
0300
0001
0100
1000
0010
0100
,
1000
0001
1000
0100
1000
0001
0100
0001
,
0100
0010
1000
0001
0010
0100
0100
0100
,
0220
0000
0330
0010
0100
1000
0020
0000
,
0230
0000
0300
0010
1000
0001
0010
0100
,
1000
0001
1000
0001
0010
0100
0010
0100
,
0020
0001
0100
1030
,
1000
0100
0010
0100
1000
0100
0010
0100
,
1000
0100
0010
0020
0000
0000
0030
0000
,
0001
0100
0010
0100
0001
0100
0010
0100
,
0001
0100
0010
0020
0000
0000
0030
0000
,
0010
1000
1001
0000
0110
0010
0001
0000
,
0001
0010
0100
1000
0001
0001
1000
1000
,
0101
0100
0010
0000
1000
0010
0100
0000
,
0001
1000
0100
0010
0001
0001
0010
0010
,
0100
1000
0100
1000
0100
0001
0100
0002
,
0000
0023
0000
0230
0000
0310
0100
0001
,
0100
0010
1000
0001
0010
0100
1000
0001
,
1000
0000
0010
0000
0100
0000
0001
0000
0100
0001
0000
0000
0001
0000
0010
0000
,
0100
0010
0001
0010
1000
0100
0001
0010
,
0100
1000
0010
0100
0001
0100
0010
2020
,
3030
1000
0001
0010
0100
1000
0001
1000
,
0010
0100
0001
0100
0010
1000
0001
0010
,
0100
0010
0001
0010
0100
1000
0100
1000
,
0100
0001
0100
0001
0001
0010
0100
1000
,
0001
1000
0100
1000
0001
0000
1100
0000
,
1000
0001
1000
0100
1000
0000
0101
0000
,
0100
0010
1000
0001
0010
0100
0110
0000
,
0200
1000
0010
0301
,
0010
0100
1000
0100
0010
0100
0010
0000
,
0001
0010
0100
0010
0001
0010
0001
0000
,
0001
1000
0010
0000
1000
0001
0010
0000
,
0001
0010
0100
1000
0001
0010
0100
1000
,
0001
0100
1000
0100
0001
0000
1100
0000
,
1000
0100
0001
0100
1000
0000
0101
0000
,
0100
0010
1000
0001
0010
0100
1000
0001
,
1000
0010
0001
0100
1000
0100
0001
0010
,
1000
0001
0010
0100
1000
0000
1001
0000
,
0001
1000
0010
0100
0001
0100
0110
0000
,
1000
0100
0010
0100
1000
0010
0001
0100
,
1000
0001
0100
0010
1000
0001
0100
0010
,
2000
0000
3200
0000
0301
0010
0100
0000
,
1000
0100
1000
0100
1000
0001
1000
0001
,
2000
0000
3020
0000
0031
0010
0100
0000
,
0100
0010
0100
0010
1000
0001
1000
0001
,
2000
0000
0000
0000
,
3000
0000
0000
0000
;
