#TITLE:Party in the U.S.A.;
#SUBTITLE:;
#ARTIST:Miley Cyrus;
#TITLETRANSLIT:;
#SUBTITLETRANSLIT:;
#ARTISTTRANSLIT:;
#GENRE:;
#CREDIT:Chewi☆;
#MENUCOLOR:#FFFF00;
#METERTYPE:DDR X;
#BANNER:Party in the U.S.A.png;
#BACKGROUND:Party in the U.S.A-bg.png;
#LYRICSPATH:;
#CDTITLE:./CDTITLES/DanceDanceRevolution skyMIX2 -FREEDOM-.png;
#MUSIC:Party in the U.S.A.mp3;
#OFFSET:-0.323;
#SAMPLESTART:44.699;
#SAMPLELENGTH:15.000;
#SELECTABLE:YES;
#LISTSORT:;
#DISPLAYBPM:96.000;
#BPMS:0.000=96.000;
#STOPS:;
#BGCHANGES:;
#ATTACKS:;

//---------------dance-single - Chewi----------------
#NOTES:
     dance-single:
     Chewi:
     Beginner:
     1:
     0.084,0.116,0.020,0.041,0.000:
0000
0000
0000
0000
,
0000
0000
0000
0000
,
0000
0000
0000
0000
,
0000
0000
0000
0000
,
2000
0000
0000
3000
,
1000
0000
0000
0000
,
0002
0000
0000
0003
,
0001
0000
0000
0000
,
1000
0000
1000
0000
,
0001
0000
0001
0000
,
0100
0000
0100
0000
,
0010
0000
0010
0000
,
0020
0000
0000
0030
,
0010
0000
0000
0000
,
0200
0000
0000
0300
,
0100
0000
0000
0000
,
0010
0000
0010
0000
,
0010
0000
0100
0000
,
0100
0000
1000
0000
,
0001
0000
0000
0000
,
1000
0000
0001
0000
,
1000
0000
0000
0000
,
0010
0000
1000
0000
,
0100
0000
0000
0000
,
0010
0000
0001
0000
,
0100
0000
0000
0000
,
1001
0000
0000
0000
,
1000
0000
1000
0000
,
0010
0000
1000
0000
,
0100
0000
0000
0000
,
0010
0000
0001
0000
,
0100
0000
0000
0000
,
1000
0000
0100
0000
,
0010
0000
0000
0000
,
0001
0000
0010
0000
,
0100
0000
0000
0000
,
1001
0000
0000
0000
,
1000
0001
1000
0000
,
0001
0000
0000
0000
;

//---------------dance-single - Chewi----------------
#NOTES:
     dance-single:
     Chewi:
     Easy:
     3:
     0.182,0.193,0.061,0.142,0.000:
0000
0000
0000
0000
,
0000
0000
0000
0000
,
0000
0000
0000
0000
,
0000
0000
0000
0000
,
0001
0001
0002
0003
,
1000
1000
2000
3000
,
0010
1000
0200
0300
,
0010
0001
0200
0300
,
0010
1000
0010
1000
,
0010
0001
0010
0001
,
0100
0001
0100
0001
,
0100
1000
0100
1000
,
2002
0000
0000
3003
,
0001
1000
1000
0001
,
0220
0000
0000
0330
,
0010
0100
0100
0010
,
0002
1000
0000
1000
,
2003
0001
0000
0001
,
3001
0100
1000
0010
,
0100
0100
0100
0100
,
1000
0100
1000
0000
,
0001
0100
0001
0000
,
1000
0100
0001
0010
,
0100
0100
0100
0100
,
0020
0000
0000
0030
,
0001
0100
0001
0100
,
2000
0000
0000
3000
,
1000
0010
1000
0010
,
0010
0110
0010
0000
,
0001
1000
0100
0000
,
1000
1000
0010
0000
,
0001
0001
0010
0000
,
0010
0110
0100
0000
,
1000
0010
0001
0000
,
0200
0000
0000
0300
,
0010
0110
0001
0100
,
2000
0000
0000
3000
,
0010
0110
1000
0001
,
1000
0000
0000
0000
;

//---------------dance-single - Chewi----------------
#NOTES:
     dance-single:
     Chewi:
     Medium:
     6:
     0.237,0.309,0.153,0.285,0.000:
0000
0000
0000
0000
,
0000
0000
0000
0000
,
0000
0000
0000
0000
,
0000
0000
0000
0000
,
1000
0100
1000
0100
,
0001
0100
0001
0100
,
0010
0010
0010
0000
0100
0100
0100
0000
,
0220
0000
0000
0330
,
0010
1000
0010
1000
,
0100
0001
0100
0001
,
0010
0100
1001
0110
,
0001
0010
0100
1000
0100
0000
0000
0000
,
1000
0100
0001
1000
,
0100
0000
0001
0000
0010
0100
0010
0000
,
0001
0010
1000
0001
,
0010
0000
1000
0000
0100
0010
0100
0000
,
0200
0010
0000
0310
,
0020
0100
0000
0130
,
2002
3003
0220
0330
,
1000
0010
0001
0100
,
0100
0000
0010
0010
0010
0000
0000
0000
,
1000
0000
0001
1000
0001
0000
0000
0000
,
2200
3300
0022
0033
,
0001
0100
1000
0010
,
0200
0000
0000
0300
,
0100
0100
0100
0000
1001
0000
0000
0000
,
0020
0000
0000
0030
,
0010
0010
0010
0000
1001
0000
0000
0000
,
2020
3030
0202
0303
,
1000
0010
0001
0100
,
0010
0010
0010
0000
0220
0000
0330
0000
,
0010
1000
0001
0000
2002
0000
3003
0000
,
0022
0033
2200
3300
,
0010
0001
0100
1000
,
0002
0000
0000
0003
,
0001
1000
0010
0100
0010
0000
0000
0000
,
0200
0000
0000
0300
,
0010
0100
0001
1000
0100
0000
0010
0000
,
0001
0000
0000
0000
;

//---------------dance-single - Chewi----------------
#NOTES:
     dance-single:
     Chewi:
     Hard:
     8:
     0.302,0.329,0.163,0.112,0.056: // measure 1
0000
0000
0000
0000
,  // measure 2
0000
0000
0000
0000
,  // measure 3
0000
0000
0000
0000
,  // measure 4
0000
0000
0000
0000
,  // measure 5
1000
0000
0100
0000
0010
0000
0001
0000
0010
0000
0000
0010
0000
0000
0100
0000
,  // measure 6
0010
0000
0000
0000
0001
0000
0000
1000
0000
0000
0000
0000
0000
0000
0000
0000
,  // measure 7
1000
0000
0010
0000
0100
0000
0001
0000
0100
0000
0000
0010
0000
0000
1000
0000
,  // measure 8
0000
0001
0010
0100
1000
0000
0000
0000
,  // measure 9
1000
0100
0010
1000
0100
0001
0010
0100
,  // measure 10
0000
0100
0010
0001
1000
0010
0100
0001
,  // measure 11
0000
0000
0100
0000
0010
0000
1000
0000
1001
0000
0000
0110
0000
0000
0000
0000
,  // measure 12
0001
0000
0010
0000
0100
0000
1000
0000
0010
0000
0000
0010
0000
0000
0000
0000
,  // measure 13
0000
0010
1000
0100
0001
0010
1000
0001
,  // measure 14
0000
0010
0000
0000
0100
0000
0010
0000
0001
0000
0010
0000
0000
0000
0000
0000
,  // measure 15
0001
0000
0010
0000
0100
0000
1000
0000
0001
0000
0000
1000
0000
0000
0001
0000
,  // measure 16
1000
0010
0100
0001
2000
0000
3000
0001
,  // measure 17
0010
0100
1000
0010
0200
0000
0300
0010
,  // measure 18
1000
0100
0010
0001
0020
0000
0031
0010
,  // measure 19
1100
0000
0011
0000
0001
1000
0010
0000
,  // measure 20
0001
0100
1000
0010
0100
0000
0000
0000
,  // measure 21
0010
1000
0010
0001
0010
0000
0000
0000
,  // measure 22
0100
0001
0100
1000
0100
0000
0010
0100
,  // measure 23
0101
0000
0110
0000
0001
1000
0100
0000
,  // measure 24
0001
1000
0100
0010
0001
0010
0100
0000
,  // measure 25
2200
0000
0000
0000
0000
0000
3300
0001
,  // measure 26
0010
0000
0100
0000
1000
0000
0010
0000
0000
0100
0000
0000
0000
0000
0000
0000
,  // measure 27
0202
0000
0000
0000
0000
0000
0303
0010
,  // measure 28
1000
0000
0100
0000
0010
0000
0001
0000
0000
0010
0000
0000
0000
0000
0000
0000
,  // measure 29
0110
0000
1001
0000
1000
0010
0001
0000
,  // measure 30
0100
1000
0010
0001
0100
0000
0010
0000
,  // measure 31
0001
0000
1000
0100
1100
0000
0000
0000
,  // measure 32
0001
0000
1000
0010
1010
0000
1000
0010
,  // measure 33
0001
0100
0010
0101
,  // measure 34
0100
0010
1000
0001
0010
0000
0100
0000
,  // measure 35
2002
0000
0000
0000
0000
0000
3003
0001
,  // measure 36
0100
0000
0010
0000
1000
0000
0001
0000
0000
0010
0000
0000
0010
0000
0000
0000
,  // measure 37
0022
0000
0000
0000
0000
0000
0033
0010
,  // measure 38
1000
0000
0100
0000
0010
0000
1000
0000
0000
0100
0000
0000
0001
0000
0000
0000
,  // measure 39
1001
0000
0000
0000
;
