#TITLE:Party Hard;
#SUBTITLE:;
#ARTIST:Andrew W. K.;
#TITLETRANSLIT:;
#SUBTITLETRANSLIT:;
#ARTISTTRANSLIT:;
#CREDIT:steps by Chewi☆;
#BANNER:[ROUND 9] - Party Hard.png;
#BACKGROUND:[ROUND 9] - Party Hard-bg.png;
#LYRICSPATH:;
#CDTITLE:;
#MUSIC:[ROUND 9] - Party Hard.ogg;
#OFFSET:-3.183;
#SAMPLESTART:65.361;
#SAMPLELENGTH:15.000;
#SELECTABLE:YES;
#BPMS:0.000=162.000;
#STOPS:;
#BGCHANGES:;

//---------------dance-single - Chewi----------------
#NOTES:
     dance-single:
     Chewi:
     Hard:
     8:
     0.541,0.590,0.820,0.018,0.000: // measure 1
0000
0000
0000
0000
,  // measure 2
0000
0000
0000
0000
,  // measure 3
0000
0000
0000
0000
,  // measure 4
0000
0000
0000
0000
,  // measure 5
1000
0100
0010
0100
1000
0000
1100
0000
,  // measure 6
0001
0010
0100
0010
0001
0000
0011
0000
,  // measure 7
1000
0010
0100
0010
1000
0000
1010
0000
,  // measure 8
0001
0100
0010
0100
0001
0000
0101
0000
,  // measure 9
1000
0100
0001
0100
1000
0000
1001
0000
,  // measure 10
0001
0100
1000
0100
0001
0000
1001
0000
,  // measure 11
0001
0010
1000
0010
0001
0000
1001
0000
,  // measure 12
1000
1000
1000
0000
1001
0000
0000
0000
,  // measure 13
0001
0010
1000
0010
0001
0000
1001
0000
,  // measure 14
1000
0010
0001
0010
1000
0000
1001
0000
,  // measure 15
1000
0100
0001
0100
1000
0000
1001
0000
,  // measure 16
0001
0001
0001
0000
1001
0000
0000
0000
,  // measure 17
0011
0110
1100
1001
,  // measure 18
1010
0000
0110
0000
0101
1000
1001
0000
,  // measure 19
1000
0100
0010
0001
0010
0000
0011
0000
,  // measure 20
0001
0001
1000
0000
1000
1000
0100
0000
,  // measure 21
0001
0010
0100
1000
0100
0000
1100
0000
,  // measure 22
0001
0010
0100
1000
0001
0010
0100
1000
,  // measure 23
0001
0010
0100
1000
0100
0000
1100
0000
,  // measure 24
1000
1000
0001
0000
0001
0001
0010
0000
,  // measure 25
1000
0100
0010
0001
0010
0000
0011
0000
,  // measure 26
0001
0010
1100
0000
0011
0000
0000
0000
,  // measure 27
1001
0000
0000
0000
0000
0000
1000
0001
,  // measure 28
0010
1100
0011
0000
,  // measure 29
0000
1000
0010
0100
0001
1000
0001
0000
,  // measure 30
1000
0010
0000
0101
0000
0000
1000
0000
,  // measure 31
0001
0000
0000
0001
,  // measure 32
0010
0000
0100
0000
1000
0010
1000
0100
,  // measure 33
1000
0000
1100
0000
0101
0000
1000
0001
,  // measure 34
1000
0001
1000
0000
0010
0000
0100
0000
,  // measure 35
0001
1000
0000
1010
0000
0101
0000
1100
,  // measure 36
0000
0001
0010
0100
1000
0000
1001
0000
,  // measure 37
1000
0010
0000
1100
0000
0011
0000
1100
,  // measure 38
0000
0001
0010
0100
1000
0000
1001
0000
,  // measure 39
1000
0001
0000
0101
0000
1010
0000
0101
,  // measure 40
0000
0100
0010
1000
0001
0000
1001
0000
,  // measure 41
0010
0100
0000
1100
0000
1001
0000
0011
,  // measure 42
0000
0001
0010
0100
1000
0000
1010
0000
,  // measure 43
1001
0000
1000
0100
0010
0001
1000
0000
,  // measure 44
1001
0000
1000
0100
0010
0001
1000
0000
,  // measure 45
1001
0000
0001
0010
0100
1000
0001
1000
,  // measure 46
0001
0100
0101
0000
1000
0010
1010
0000
,  // measure 47
1001
0000
0001
0010
0100
1000
0001
0000
,  // measure 48
1001
0000
0001
0010
0100
1000
0001
0000
,  // measure 49
1001
0000
1000
0100
0010
0001
1000
0001
,  // measure 50
1000
0000
1001
0000
0011
0000
1000
0100
,  // measure 51
1000
0000
0001
0100
0001
0000
1000
0100
,  // measure 52
1000
0000
0001
0100
0001
0000
1000
0010
,  // measure 53
1000
0000
0001
0010
0001
0000
1000
0010
,  // measure 54
1000
0000
0001
0010
0001
0000
0010
0100
,  // measure 55
1000
0000
0010
0100
0001
0000
0100
0010
,  // measure 56
1000
0000
0100
0010
0001
0000
1000
0100
,  // measure 57
0010
0000
0001
0010
0100
0000
1000
0001
,  // measure 58
0010
0000
0001
1000
0100
0000
0000
0000
,  // measure 59
1010
0011
0101
1100
,  // measure 60
1010
0011
0101
1100
,  // measure 61
1010
0011
0101
1100
,  // measure 62
1010
0011
1010
0011
,  // measure 63
0011
1010
1100
0101
,  // measure 64
0011
1010
1100
0101
,  // measure 65
0011
1010
1100
0101
,  // measure 66
0011
1010
0011
1010
,  // measure 67
2002
0000
0000
0000
,  // measure 68
0000
0000
0000
0000
,  // measure 69
0000
0000
0000
0000
,  // measure 70
0000
0000
0000
0000
,  // measure 71
0000
0000
0000
0000
,  // measure 72
0000
0000
0000
0000
,  // measure 73
0000
0000
0000
3003
;

//---------------dance-single - chewi----------------
#NOTES:
     dance-single:
     chewi:
     Easy:
     4:
     0.305,0.328,0.027,0.063,0.000:
0000
0000
0000
0000
,
0000
0000
0000
0000
,
0000
0000
0000
0000
,
0000
0000
0000
0000
,
1000
0100
0001
0000
,
1000
0100
0001
0000
,
1000
0010
0001
0000
,
1000
0010
0001
0000
,
0010
0010
0020
0030
,
0010
0010
0020
0030
,
0010
0010
0020
0030
,
0010
0100
0110
0000
,
0100
0100
0200
0300
,
0100
0100
0200
0300
,
0100
0100
0200
0300
,
0100
0010
0110
0000
,
0010
0000
0001
0000
,
0010
0000
0001
0000
,
0001
1000
0001
1000
,
0010
0010
0010
0000
,
1000
0001
1000
0001
,
0100
0100
0100
0000
,
0010
0100
0001
0100
,
0010
0010
0010
0000
,
0010
1000
0100
1000
,
0010
0010
0010
0000
,
1000
0001
1000
0100
,
1000
0001
1000
0100
,
1000
0001
1000
0010
,
1000
0001
1000
0010
,
1000
0001
1000
0100
,
1000
0001
1000
0010
,
1000
0001
0100
0001
,
1000
0001
0010
0001
,
0010
0010
0010
0010
,
0100
0100
0100
0100
,
1000
1000
1000
1000
,
0001
0001
0001
0001
,
0100
0100
0100
0100
,
0010
0010
0010
0010
,
1000
1000
1000
1000
,
0001
0001
0001
0001
,
1000
0100
0001
0100
,
1000
0100
0001
0100
,
1000
0010
0001
0010
,
1000
0001
1000
0000
,
0001
0010
1000
0010
,
0001
0010
1000
0010
,
0001
0100
1000
0100
,
0001
1000
0001
0000
,
1000
1000
1000
1000
,
0100
0100
0100
0100
,
0001
0001
0001
0001
,
0010
0010
0010
0010
,
1000
1000
1000
1000
,
0010
0010
0010
0010
,
0001
0001
0001
0001
,
0100
0100
0100
0100
,
1000
1000
1000
1000
,
0001
0001
0001
0001
,
1000
0001
0100
0010
,
0100
0100
0100
0100
,
0010
0010
0010
0010
,
1000
1000
1000
1000
,
0010
0001
0010
1000
,
0010
1000
0001
1001
,
0020
0000
0000
0000
,
0000
0000
0000
0000
,
0000
0000
0000
0000
,
0000
0000
0000
0000
,
0000
0000
0000
0000
,
0000
0000
0000
0000
,
0000
0000
0000
0030
;

//---------------dance-single - Chewi----------------
#NOTES:
     dance-single:
     Chewi:
     Medium:
     6:
     0.409,0.459,0.532,0.018,0.000: // measure 1
0000
0000
0000
0000
,  // measure 2
0000
0000
0000
0000
,  // measure 3
0000
0000
0000
0000
,  // measure 4
0000
0000
0000
0000
,  // measure 5
1000
1100
0000
1100
,  // measure 6
0001
0101
0000
0101
,  // measure 7
0001
1001
0000
1001
,  // measure 8
1000
0100
0010
0001
,  // measure 9
0010
0000
0010
0000
0010
0100
0010
0000
,  // measure 10
0010
0000
0010
0000
0010
0100
0010
0000
,  // measure 11
0010
0000
0010
0000
0010
0100
0010
0000
,  // measure 12
0100
0010
0100
0000
0110
0000
0000
0000
,  // measure 13
0001
0000
0001
0000
0001
1000
0001
0000
,  // measure 14
0001
0000
0001
0000
0001
1000
0001
0000
,  // measure 15
0001
0000
0001
0000
0001
1000
0001
0000
,  // measure 16
1000
0001
1001
0000
,  // measure 17
1000
0100
0001
0010
,  // measure 18
1000
0010
0001
0010
,  // measure 19
0010
0100
1000
0000
1100
0000
1000
0000
,  // measure 20
0010
0100
0001
0000
0100
0000
0101
0000
,  // measure 21
0001
1000
0001
0000
1000
0000
1001
0000
,  // measure 22
0001
0010
0100
1000
0100
0000
1100
0000
,  // measure 23
1000
0010
1000
0000
0001
0000
1001
0000
,  // measure 24
0001
0010
0001
0000
1000
0000
1001
0000
,  // measure 25
0100
0010
0100
0000
0001
0000
0101
0000
,  // measure 26
0001
0010
0100
1000
0010
0000
1001
0000
,  // measure 27
1000
0100
0001
0010
,  // measure 28
1000
0010
0001
0010
,  // measure 29
1000
0010
0001
0100
,  // measure 30
1000
0100
0001
0100
,  // measure 31
0010
0100
1000
1001
,  // measure 32
0100
0010
1000
0001
,  // measure 33
0100
0010
0100
0101
,  // measure 34
0010
0100
1000
0001
,  // measure 35
1000
0100
0000
0010
0000
0001
0000
1000
,  // measure 36
0000
0100
1000
0000
0001
0000
1001
0000
,  // measure 37
0010
0100
0000
0001
0000
0100
0000
0010
,  // measure 38
0000
1000
0001
0000
1000
0000
1001
0000
,  // measure 39
1000
0100
0000
0010
0000
0001
0000
0010
,  // measure 40
0000
0100
1000
0000
0001
0000
1001
0000
,  // measure 41
0100
0010
0000
0100
0000
0001
0000
0010
,  // measure 42
0000
0100
1000
0000
1001
0000
0010
0000
,  // measure 43
0001
0001
1001
1001
,  // measure 44
0001
0001
1001
1001
,  // measure 45
1000
1100
0001
0101
,  // measure 46
0100
0010
1000
0001
,  // measure 47
1000
1000
1001
1001
,  // measure 48
1000
1000
1001
1001
,  // measure 49
0001
0001
0011
0011
,  // measure 50
0010
0100
1000
0100
,  // measure 51
1100
0101
1100
0000
,  // measure 52
0101
1100
0101
0000
,  // measure 53
0011
1010
0011
0000
,  // measure 54
0011
1010
0011
0000
,  // measure 55
1001
1001
1001
0000
,  // measure 56
0110
0110
0110
0000
,  // measure 57
1010
1010
1010
0000
,  // measure 58
0101
0101
0101
0000
,  // measure 59
1000
0100
0001
0010
,  // measure 60
1000
0100
0001
0010
,  // measure 61
1000
0100
0001
0010
,  // measure 62
1000
0100
0001
0100
,  // measure 63
0001
0100
1000
0010
,  // measure 64
0001
0100
1000
0010
,  // measure 65
0001
0100
1000
0010
,  // measure 66
0001
0010
1000
0010
,  // measure 67
2002
0000
0000
0000
,  // measure 68
0000
0000
0000
0000
,  // measure 69
0000
0000
0000
0000
,  // measure 70
0000
0000
0000
0000
,  // measure 71
0000
0000
0000
0000
,  // measure 72
0000
0000
0000
0000
,  // measure 73
0000
0000
0000
3003
;
