#VERSION:0.83;
#TITLE:Paradinha;
#SUBTITLE:;
#ARTIST:Anitta;
#TITLETRANSLIT:;
#SUBTITLETRANSLIT:;
#ARTISTTRANSLIT:;
#GENRE:Pop;
#ORIGIN:;
#CREDIT:chewi;
#BANNER:Paradinha.png;
#BACKGROUND:Paradinha-bg.png;
#PREVIEWVID:;
#JACKET:Paradinha-jacket.png;
#CDIMAGE:;
#DISCIMAGE:;
#LYRICSPATH:;
#CDTITLE:cdtitle.png;
#MUSIC:Paradinha.ogg;
#OFFSET:0.000000;
#SAMPLESTART:32.000000;
#SAMPLELENGTH:15.000000;
#SELECTABLE:YES;
#BPMS:0.000=90.000;
#STOPS:;
#DELAYS:;
#WARPS:;
#TIMESIGNATURES:0.000=4=4;
#TICKCOUNTS:0.000=4;
#COMBOS:0.000=1;
#SPEEDS:0.000=1.000=0.000=0;
#SCROLLS:0.000=1.000;
#FAKES:;
#LABELS:0.000=Song Start;
#BGCHANGES:0.000=Paradinha.avi=1.000=1=0=1===CrossFade==,
99999=-nosongbg-=1.000=0=0=0 // don't automatically add -songbackground-
;
#KEYSOUNDS:;
#ATTACKS:
;

//---------------dance-single - ----------------
#NOTEDATA:;
#CHARTNAME:;
#STEPSTYPE:dance-single;
#DESCRIPTION:;
#CHARTSTYLE:;
#DIFFICULTY:Hard;
#METER:10;
#RADARVALUES:0.397477,0.397362,0.430259,0.143420,0.078881,388.000000,328.000000,60.000000,20.000000,0.000000,0.000000,0.000000,0.000000,0.000000,0.397477,0.397362,0.430259,0.143420,0.078881,388.000000,328.000000,60.000000,20.000000,0.000000,0.000000,0.000000,0.000000,0.000000;
#CREDIT:;
#OFFSET:0.000000;
#BPMS:0.000000=90.000000
,48.000000=360.000000
,50.000000=90.000000
,56.000000=360.000000
,58.000000=90.000000
,72.000000=360.000000
,74.000000=90.000000
,80.000000=360.000000
,82.000000=90.000000
,88.000000=360.000000
,90.000000=90.000000
,128.000000=360.000000
,130.000000=90.000000
,136.000000=360.000000
,138.000000=90.000000
,152.000000=360.000000
,154.000000=90.000000
,160.000000=360.000000
,162.000000=90.000000
,168.000000=360.000000
,170.000000=90.000000
,176.000000=360.000000
,178.000000=90.000000
,184.000000=360.000000
,186.000000=90.000000
;
#STOPS:18.000000=1.000000
,24.500000=1.000000
,31.000000=1.000000
,37.500000=1.000000
,48.000000=0.250000
,48.500000=0.250000
,49.000000=0.250000
,49.500000=0.250000
,56.000000=0.250000
,56.500000=0.250000
,57.000000=0.250000
,57.500000=0.250000
,72.000000=0.250000
,72.500000=0.250000
,73.000000=0.250000
,73.500000=0.250000
,80.000000=0.250000
,80.500000=0.250000
,81.000000=0.250000
,81.500000=0.250000
,88.000000=0.250000
,88.500000=0.250000
,89.000000=0.250000
,89.500000=0.250000
,128.000000=0.250000
,128.500000=0.250000
,129.000000=0.250000
,129.500000=0.250000
,136.000000=0.250000
,136.500000=0.250000
,137.000000=0.250000
,137.500000=0.250000
,152.000000=0.250000
,152.500000=0.250000
,153.000000=0.250000
,153.500000=0.250000
,160.000000=0.250000
,160.500000=0.250000
,161.000000=0.250000
,161.500000=0.250000
,168.000000=0.250000
,168.500000=0.250000
,169.000000=0.250000
,169.500000=0.250000
,176.000000=0.250000
,176.500000=0.250000
,177.000000=0.250000
,177.500000=0.250000
,184.000000=0.250000
,184.500000=0.250000
,185.000000=0.250000
,185.500000=0.250000
;
#DELAYS:;
#WARPS:;
#TIMESIGNATURES:0.000000=4=4
;
#TICKCOUNTS:0.000000=4
;
#COMBOS:0.000000=1
;
#SPEEDS:0.000000=1.000000=0.000000=0
;
#SCROLLS:0.000000=1.000000
;
#FAKES:;
#LABELS:0.000000=Song Start
;
#NOTES:
0000
0000
0000
0000
,
0000
0000
0000
0000
,
0000
0000
0000
0000
,
0000
0000
0000
0000
,
1000
0000
0000
0100
0010
0000
0001
0000
1001
0000
0001
0000
0000
0100
0010
0000
,
1000
0000
0001
0000
1000
0000
0001
0000
1000
0000
1000
0000
0000
0010
0100
0000
,
0001
0000
1001
0000
0001
0000
0000
0010
0100
0000
1000
0000
0001
0000
1000
0000
,
0001
0000
1000
0000
0010
0000
0000
0100
0001
0000
0010
0000
0110
0000
0100
0000
,
0000
1000
0001
0000
1000
0000
0010
0000
0100
0000
0010
0000
0100
0000
0010
0000
,
0000
0010
1000
0000
0100
0000
0110
0000
0100
0000
0000
0100
1000
0000
0010
0000
,
0100
0100
0010
0010
0100
0001
0100
0001
,
0200
0000
0302
0000
0013
0010
0100
0100
,
1100
0101
1100
0101
0100
0010
0100
0010
,
0200
0000
0302
0000
0103
0100
0010
0010
,
1010
0000
0011
0000
1010
0000
0011
0000
1000
0000
0000
0010
1000
0000
0010
0000
,
0100
0000
0001
0000
0010
0000
0000
0000
0001
0000
0000
0100
0001
0000
0010
0000
,
0100
0000
1000
0000
0010
0000
0000
0000
0100
0000
0000
0100
0010
0000
1000
0000
,
0001
0000
0010
0000
0100
0000
1000
0000
0001
0000
0000
0001
1000
0000
0010
0000
,
0110
1001
0110
1001
0001
0100
0001
0100
,
0002
0000
2003
0000
3100
0100
0010
0010
,
0011
1010
0011
1010
0010
1000
0010
1000
,
0020
0000
0230
0000
0310
0010
0100
0100
,
0101
1100
0101
1100
1000
0000
1000
0000
,
0001
0001
0001
0010
,
0100
1000
0010
0010
,
1000
1000
0010
0100
,
0001
0000
1000
0000
0001
0001
0001
0000
,
1000
1000
1000
0000
0100
0010
0100
0000
,
0010
0100
0010
0000
0001
0001
0001
0000
,
1000
1000
1000
0000
0010
0010
0010
0010
,
0100
0100
0100
0100
0100
0010
1000
0001
,
2000
0000
3002
0000
0103
0100
0001
0001
,
0101
0011
0101
0011
0001
0010
0100
1000
,
0002
0000
2003
0000
3001
0001
0100
0100
,
0101
0000
0011
0000
0101
0000
0011
0000
0001
0000
0000
0010
0100
0000
1000
0000
,
1000
0000
0000
0010
0100
0000
0001
0000
0001
0000
0000
0100
0001
0000
1000
0000
,
1000
0000
0000
0100
0010
0000
0100
0000
1000
0000
0001
0000
1000
0000
0001
0000
,
0100
0010
0100
0010
1000
1000
0001
0001
,
1001
0110
1001
0110
0001
0010
0100
1000
,
0002
0000
2003
0000
3010
0010
1000
1000
,
1010
1100
1010
1100
1000
0010
0100
0001
,
2000
0000
3020
0000
1030
1000
0001
0001
,
0101
0011
0101
0011
0001
0100
0010
0100
,
0002
0000
0203
0000
0310
0010
1000
1000
,
1100
0101
1100
0101
1000
0100
0010
0100
,
2000
0000
3002
0000
0103
0100
0010
0010
,
1010
0000
0011
0000
1010
0000
0011
0000
1000
0000
0000
1000
0100
0000
1000
0000
,
0001
0000
0000
0001
0100
0000
0001
0000
0100
0000
0000
0100
0010
0000
0010
0000
,
1010
0000
1100
0000
1010
0000
1100
0000
0001
0000
0000
0001
0010
0000
0001
0000
,
1000
0000
0000
1000
0010
0000
1000
0000
0010
0000
0000
0010
0100
0000
0100
0000
,
0101
0011
0101
0011
0000
0000
0000
0000
;

//---------------dance-single - ----------------
#NOTEDATA:;
#CHARTNAME:;
#STEPSTYPE:dance-single;
#DESCRIPTION:;
#CHARTSTYLE:;
#DIFFICULTY:Medium;
#METER:7;
#RADARVALUES:0.274546,0.278996,0.200787,0.028684,0.000000,268.000000,240.000000,28.000000,4.000000,0.000000,0.000000,0.000000,0.000000,0.000000,0.274546,0.278996,0.200787,0.028684,0.000000,268.000000,240.000000,28.000000,4.000000,0.000000,0.000000,0.000000,0.000000,0.000000;
#CREDIT:;
#NOTES:
0000
0000
0000
0000
,
0000
0000
0000
0000
,
0000
0000
0000
0000
,
0000
0000
0000
0000
,
1000
0000
0001
1000
0001
0000
0000
0000
,
0001
0000
1000
0001
1000
0000
0100
0000
,
0010
0000
0100
0010
0100
0000
0000
0000
,
0010
0000
0100
0000
1000
0001
1000
0000
,
0001
0000
0100
0001
0100
0000
0000
0000
,
0010
0000
1000
0000
0010
1000
0010
0000
,
1000
0000
0100
1000
0100
0000
0000
0000
,
0100
0000
0010
0000
0001
1000
0001
0000
,
1000
0010
1000
0000
0010
0000
0010
0000
,
0100
0000
0100
0000
0101
0100
0101
0001
,
0001
0010
0001
0000
0010
0000
0010
0000
,
0100
0000
0100
0000
1100
0100
1100
1000
,
1000
0000
1000
0000
1000
0001
0010
0000
,
0001
0001
1000
1000
,
0010
0000
0010
0000
0100
0001
0010
0000
,
0001
0000
0001
0000
0011
0010
0011
0001
,
1000
0010
1000
0000
0010
0000
0010
0000
,
0100
0000
0100
0000
0101
0100
0101
0001
,
0001
0010
0001
0000
0010
0000
0010
0000
,
0100
0000
0100
0000
1100
0100
1100
1000
,
2000
0010
0100
3010
,
0020
0100
0001
0130
,
0200
0010
0001
0310
,
0002
0010
1000
0013
,
0010
0100
1000
0001
,
0100
0010
1000
0001
,
1000
1000
1000
1000
,
0001
0001
0001
0001
,
0001
0100
0001
0000
0100
0000
0100
0000
,
0010
0000
0010
0000
1010
0010
1010
1000
,
1000
0100
1000
0000
0100
0000
0100
0000
,
0010
0000
0010
0000
0011
0010
0011
0001
,
0001
0000
0001
0000
0001
1000
0100
0000
,
1000
1000
0001
0001
,
0100
0000
0100
0000
0010
1000
0100
0000
,
1000
0000
1000
0000
1100
0100
1100
1000
,
0001
0100
0001
0000
0100
0000
0100
0000
,
0010
0000
0010
0000
1010
1000
1010
0010
,
1000
0100
1000
0000
0100
0000
0100
0000
,
0010
0000
0010
0000
0011
0001
0011
0010
,
0100
1000
0100
0000
1000
0000
1000
0000
,
0001
0000
0001
0000
0101
0100
0101
0001
,
0100
0001
0010
0000
0001
0000
0001
0000
,
1000
0000
1000
0000
1010
0010
1010
1000
,
0100
0000
0100
0000
0100
0010
0001
0000
,
0100
0000
0100
0000
0110
0010
0110
0100
,
0001
0000
0001
0000
0001
0010
1000
0000
,
1000
0000
1000
0000
1010
0010
1010
1000
;

//---------------dance-single - ----------------
#NOTEDATA:;
#CHARTNAME:;
#STEPSTYPE:dance-single;
#DESCRIPTION:;
#CHARTSTYLE:;
#DIFFICULTY:Easy;
#METER:4;
#RADARVALUES:0.143420,0.129257,0.000000,0.143420,0.000000,140.000000,140.000000,0.000000,20.000000,0.000000,0.000000,0.000000,0.000000,0.000000,0.143420,0.129257,0.000000,0.143420,0.000000,140.000000,140.000000,0.000000,20.000000,0.000000,0.000000,0.000000,0.000000,0.000000;
#CREDIT:;
#NOTES:
// measure 0
0000
0000
0000
0000
,  // measure 1
0000
0000
0000
0000
,  // measure 2
0000
0000
0000
0000
,  // measure 3
0000
0000
0000
0000
,  // measure 4
0001
0010
0100
0000
,  // measure 5
0010
0100
1000
0000
,  // measure 6
1000
0010
0100
0000
,  // measure 7
0010
0100
0001
0000
,  // measure 8
0001
1000
0100
0000
,  // measure 9
1000
0100
0010
0000
,  // measure 10
0001
1000
0010
0000
,  // measure 11
1000
0010
0100
0000
,  // measure 12
0100
0100
0200
0300
,  // measure 13
0010
0010
0020
0000
,  // measure 14
1030
1000
2000
3000
,  // measure 15
0001
0001
0002
0000
,  // measure 16
1003
0100
1000
0000
,  // measure 17
0100
1000
0010
0000
,  // measure 18
1000
0010
0100
0000
,  // measure 19
0010
0100
0001
0000
,  // measure 20
0100
0100
0200
0300
,  // measure 21
0001
0001
0002
0000
,  // measure 22
1003
1000
2000
3000
,  // measure 23
0100
0100
0200
0000
,  // measure 24
1300
0000
1000
0000
,  // measure 25
0001
0000
0001
0000
,  // measure 26
0100
0000
0100
0000
,  // measure 27
0010
0000
0010
0000
,  // measure 28
0010
0010
0010
0000
,  // measure 29
0100
0100
0100
0000
,  // measure 30
0001
0001
0001
0000
,  // measure 31
1000
1000
1000
0000
,  // measure 32
0100
0100
0200
0300
,  // measure 33
0010
0010
0020
0000
,  // measure 34
1030
1000
2000
3000
,  // measure 35
0001
0001
0002
0000
,  // measure 36
1003
0100
1000
0000
,  // measure 37
0100
1000
0010
0000
,  // measure 38
1000
0010
0100
0000
,  // measure 39
0010
0100
0001
0000
,  // measure 40
0100
0100
0200
0300
,  // measure 41
0001
0001
0002
0000
,  // measure 42
1003
1000
2000
3000
,  // measure 43
0100
0100
0200
0000
,  // measure 44
1300
1000
2000
3000
,  // measure 45
0010
0010
0020
0000
,  // measure 46
0130
0100
0200
0300
,  // measure 47
0001
0001
0002
0000
,  // measure 48
1003
0010
0100
0000
,  // measure 49
0010
0100
0001
0000
,  // measure 50
0001
0010
0100
0000
,  // measure 51
0010
0100
1000
0000
;

//---------------dance-single - ----------------
#NOTEDATA:;
#CHARTNAME:;
#STEPSTYPE:dance-single;
#DESCRIPTION:;
#CHARTSTYLE:;
#DIFFICULTY:Beginner;
#METER:1;
#RADARVALUES:0.069661,0.091430,0.000000,0.000000,0.000000,68.000000,68.000000,0.000000,0.000000,0.000000,0.000000,0.000000,0.000000,0.000000,0.069661,0.091430,0.000000,0.000000,0.000000,68.000000,68.000000,0.000000,0.000000,0.000000,0.000000,0.000000,0.000000,0.000000;
#CREDIT:;
#NOTES:
// measure 0
0000
0000
0000
0000
,  // measure 1
0000
0000
0000
0000
,  // measure 2
0000
0000
0000
0000
,  // measure 3
0000
0000
0000
0000
,  // measure 4
0001
0000
0000
0000
,  // measure 5
0010
0000
0000
0000
,  // measure 6
1000
0000
0000
0000
,  // measure 7
0010
0000
0000
0000
,  // measure 8
0001
0000
0000
0000
,  // measure 9
1000
0000
0000
0000
,  // measure 10
0001
0000
0000
0000
,  // measure 11
1000
0000
0000
0000
,  // measure 12
0100
0000
0100
0000
,  // measure 13
0010
0000
0010
0000
,  // measure 14
1000
0000
1000
0000
,  // measure 15
0001
0000
0001
0000
,  // measure 16
1000
0000
0000
0000
,  // measure 17
0100
0000
0000
0000
,  // measure 18
1000
0000
0000
0000
,  // measure 19
0010
0000
0000
0000
,  // measure 20
0100
0000
0100
0000
,  // measure 21
0001
0000
0001
0000
,  // measure 22
1000
0000
1000
0000
,  // measure 23
0100
0000
0100
0000
,  // measure 24
1000
0000
0000
0000
,  // measure 25
0001
0000
0000
0000
,  // measure 26
0100
0000
0000
0000
,  // measure 27
0010
0000
0000
0000
,  // measure 28
0010
0000
0000
0000
,  // measure 29
0100
0000
0000
0000
,  // measure 30
0001
0000
0000
0000
,  // measure 31
1000
0000
0000
0000
,  // measure 32
0100
0000
0100
0000
,  // measure 33
0010
0000
0010
0000
,  // measure 34
1000
0000
1000
0000
,  // measure 35
0001
0000
0001
0000
,  // measure 36
1000
0000
0000
0000
,  // measure 37
0100
0000
0000
0000
,  // measure 38
1000
0000
0000
0000
,  // measure 39
0010
0000
0000
0000
,  // measure 40
0100
0000
0100
0000
,  // measure 41
0001
0000
0001
0000
,  // measure 42
1000
0000
1000
0000
,  // measure 43
0100
0000
0100
0000
,  // measure 44
1000
0000
1000
0000
,  // measure 45
0010
0000
0010
0000
,  // measure 46
0100
0000
0100
0000
,  // measure 47
0001
0000
0001
0000
,  // measure 48
1000
0000
0000
0000
,  // measure 49
0010
0000
0000
0000
,  // measure 50
0001
0000
0000
0000
,  // measure 51
0010
0000
0000
0000
;
