#TITLE:PRO NAILS (Rusko Remix);
#SUBTITLE:;
#ARTIST:KID SISTER;
#TITLETRANSLIT:;
#SUBTITLETRANSLIT:;
#ARTISTTRANSLIT:;
#GENRE:;
#CREDIT:Chewi☆;
#MENUCOLOR:#FFFFFF;
#METERTYPE:DDR X;
#BANNER:PRO NAILS (Rusko Remix).png;
#BACKGROUND:PRO NAILS (Rusko Remix)-bg.png;
#LYRICSPATH:;
#CDTITLE:./CDTITLES/DanceDanceRevolution skyMIX3 -breeze-.png;
#MUSIC:PRO NAILS (Rusko Remix).mp3;
#OFFSET:-0.523;
#SAMPLESTART:14.234;
#SAMPLELENGTH:15.000;
#SELECTABLE:YES;
#LISTSORT:;
#DISPLAYBPM:140.000;
#BPMS:0.000=140.000;
#STOPS:;
#BGCHANGES:;
#ATTACKS:;

//---------------dance-single - Chewi----------------
#NOTES:
     dance-single:
     Chewi:
     Beginner:
     1:
     0.081,0.116,0.024,0.000,0.000: // measure 1
0000
0000
0000
0000
,  // measure 2
0000
0000
0000
0000
,  // measure 3
0000
0000
0000
0000
,  // measure 4
0000
0000
0000
0000
,  // measure 5
1000
0000
0000
0000
,  // measure 6
1000
0000
0000
0000
,  // measure 7
0001
0000
0000
0000
,  // measure 8
0110
0000
0000
0000
,  // measure 9
0001
0000
0000
0000
,  // measure 10
0100
0000
0000
0000
,  // measure 11
0010
0000
0000
0000
,  // measure 12
0010
0000
0000
0000
,  // measure 13
0010
0000
0000
0000
,  // measure 14
0001
0000
0000
0000
,  // measure 15
0001
0000
0000
0000
,  // measure 16
1000
0000
0000
0000
,  // measure 17
0100
0000
0000
0000
,  // measure 18
0010
0000
0000
0000
,  // measure 19
0100
0000
0000
0000
,  // measure 20
0010
0000
0000
0000
,  // measure 21
1000
0000
0000
0000
,  // measure 22
0010
0000
0000
0000
,  // measure 23
0100
0000
0000
0000
,  // measure 24
0010
0000
0000
0000
,  // measure 25
0100
0000
0000
0000
,  // measure 26
0010
0000
0000
0000
,  // measure 27
0010
0000
0000
0000
,  // measure 28
0010
0000
0000
0000
,  // measure 29
0010
0000
0000
0000
,  // measure 30
1001
0000
0000
0000
,  // measure 31
0001
0000
0000
0000
,  // measure 32
1000
0000
0000
0000
,  // measure 33
0100
0000
0000
0000
,  // measure 34
0001
0000
0000
0000
,  // measure 35
0001
0000
0000
0000
,  // measure 36
0001
0000
0000
0000
,  // measure 37
0100
0000
0000
0000
,  // measure 38
0100
0000
0000
0000
,  // measure 39
0001
0000
0000
0000
,  // measure 40
0010
0000
0000
0000
,  // measure 41
0010
0000
0000
0000
,  // measure 42
0010
0000
0000
0000
,  // measure 43
0010
0000
0000
0000
,  // measure 44
0100
0000
0000
0000
,  // measure 45
0100
0000
0000
0000
,  // measure 46
0100
0000
0000
0000
,  // measure 47
0100
0000
0000
0000
,  // measure 48
0010
0000
0000
0000
,  // measure 49
0010
0000
0000
0000
;

//---------------dance-single - Chewi----------------
#NOTES:
     dance-single:
     Chewi:
     Easy:
     4:
     0.243,0.260,0.012,0.084,0.000: // measure 1
0000
0000
0000
0000
,  // measure 2
0000
0000
0000
0000
,  // measure 3
0000
0000
0000
0000
,  // measure 4
0000
0000
0000
0000
,  // measure 5
1000
0000
0000
1000
,  // measure 6
1000
0000
0000
0001
,  // measure 7
0001
0000
0000
0000
,  // measure 8
0220
0000
0000
0330
,  // measure 9
0001
0100
0010
0001
,  // measure 10
0100
0100
0000
1000
,  // measure 11
0010
0100
1000
1000
,  // measure 12
0010
0001
0010
1000
,  // measure 13
0010
0001
0100
0010
,  // measure 14
0001
0001
0000
1000
,  // measure 15
0001
0100
0100
0010
,  // measure 16
1000
0001
0010
0100
,  // measure 17
0000
0000
1000
0100
,  // measure 18
0010
0001
0000
1000
,  // measure 19
0100
0010
0000
0001
,  // measure 20
0010
0100
1000
0100
,  // measure 21
1000
0100
1000
0100
,  // measure 22
0010
0010
0000
0001
,  // measure 23
0100
0001
0100
0000
,  // measure 24
0010
0100
0001
1000
,  // measure 25
0100
0100
0100
0100
,  // measure 26
0010
0100
0000
0010
,  // measure 27
0010
0010
0100
0000
,  // measure 28
0010
0001
0100
1000
,  // measure 29
0010
0010
1000
2000
,  // measure 30
0001
3001
0001
0000
,  // measure 31
0001
0100
1000
0000
,  // measure 32
1000
0100
0001
0010
,  // measure 33
0100
0000
0100
0010
,  // measure 34
0001
1000
0010
0100
,  // measure 35
0001
0100
0010
1000
,  // measure 36
0001
0010
0100
1000
,  // measure 37
0100
0100
0010
0010
,  // measure 38
0100
0010
0001
0100
,  // measure 39
0001
0100
1000
0000
,  // measure 40
0010
1000
0010
0001
,  // measure 41
0020
0000
1000
0000
,  // measure 42
0000
0000
1030
0000
,  // measure 43
2000
0000
0001
0000
,  // measure 44
0000
0000
3001
0000
,  // measure 45
0020
0000
0001
0000
,  // measure 46
0000
0000
0031
0000
,  // measure 47
0200
0000
0010
0000
,  // measure 48
0000
0000
0000
0000
0000
0000
0000
0000
0000
0000
0000
0000
0000
0000
0000
0000
0000
0000
0000
0000
0000
0000
0000
0000
0000
0000
0000
0000
0000
0000
0000
0000
0000
0000
0000
0000
0000
0000
0000
0000
0000
0000
0000
0000
0000
0000
0000
0000
0000
0000
0000
0000
0000
0000
0000
0000
0000
0000
0000
0000
0000
0000
0000
0000
0000
0000
0000
0000
0000
0000
0000
0000
0000
0000
0000
0000
0000
0000
0000
0000
0000
0000
0000
0000
0000
0000
0000
0000
0000
0000
0000
0000
0000
0000
0000
0000
0010
0000
0000
0000
0000
0000
0000
0000
0000
0000
0000
0000
0000
0000
0000
0000
0000
0000
0000
0000
0000
0000
0000
0000
0000
0000
0000
0000
0000
0000
0000
0000
0000
0000
0000
0000
0000
0000
0000
0000
0000
0000
0000
0000
0000
0000
0000
0000
0010
0000
0000
0000
0000
0000
0000
0000
0000
0000
0000
0000
0000
0000
0000
0000
0000
0000
0000
0000
0000
0000
0000
0000
0000
0300
0000
0000
0000
0000
0000
0000
0000
0000
0000
0000
0000
0000
0000
0000
0000
0000
0000
0000
0000
0000
0000
0000
;

//---------------dance-single - Chewi----------------
#NOTES:
     dance-single:
     Chewi:
     Medium:
     8:
     0.313,0.317,0.205,0.048,0.000: // measure 1
0000
0000
0000
0000
,  // measure 2
0000
0000
0000
0000
,  // measure 3
0000
0000
0000
0000
,  // measure 4
0000
0000
0000
0000
,  // measure 5
2000
0000
0000
0010
0000
0000
0001
0000
,  // measure 6
3100
0000
0000
0100
,  // measure 7
0110
0000
0000
0001
,  // measure 8
1001
0000
0000
0000
,  // measure 9
0001
0100
0010
1000
,  // measure 10
0010
0010
0010
0000
0000
0000
1000
0000
,  // measure 11
0100
0010
0011
0000
,  // measure 12
0001
0010
1000
0100
,  // measure 13
0001
0100
0010
0100
,  // measure 14
0010
0010
0010
0000
0000
0000
1000
0000
,  // measure 15
0100
0010
0011
0000
,  // measure 16
0001
1000
0100
0010
,  // measure 17
0000
0000
1000
1010
,  // measure 18
0011
0010
0000
0001
,  // measure 19
0101
1100
0000
1000
,  // measure 20
0100
0001
0100
1000
,  // measure 21
0000
0001
1000
0001
1000
0000
0010
0000
,  // measure 22
0100
0100
0100
0000
0000
0000
0000
0010
,  // measure 23
0100
0010
1000
0000
0010
0000
0000
0000
,  // measure 24
1000
0010
1000
0100
0010
0000
0000
0000
,  // measure 25
0001
0010
0100
0000
1000
0000
0100
0000
,  // measure 26
0010
0010
0010
0000
0110
0000
0000
0000
,  // measure 27
1000
0100
0010
0000
0001
0000
0000
0000
,  // measure 28
0001
1000
0001
0000
1000
0001
1000
0000
,  // measure 29
0010
0001
0100
0010
,  // measure 30
0110
0110
0000
0001
,  // measure 31
0010
0100
1100
0000
,  // measure 32
1000
0100
0001
0100
,  // measure 33
0020
0030
0110
1000
,  // measure 34
0001
1000
1001
0001
,  // measure 35
0010
0100
1100
1000
,  // measure 36
0100
0001
0010
1000
,  // measure 37
0000
0010
0100
0010
0100
0000
1000
0000
,  // measure 38
1000
0001
1000
0000
0000
0000
1000
0100
,  // measure 39
0010
0001
0011
0000
,  // measure 40
0001
1000
0100
0000
1000
0000
1100
0000
,  // measure 41
0200
0000
1000
0000
,  // measure 42
1300
0001
1000
0001
,  // measure 43
0200
0000
0001
0000
,  // measure 44
0301
1000
0001
1000
,  // measure 45
0010
0100
0000
0000
0010
0000
0000
0000
,  // measure 46
0100
0010
0000
0000
0100
0000
0000
0000
,  // measure 47
1000
0100
0000
0000
0010
0000
0000
0000
,  // measure 48
0001
0000
0010
0000
0100
0100
0100
0100
;

//---------------dance-single - Chewi----------------
#NOTES:
     dance-single:
     Chewi:
     Hard:
     12:
     0.563,0.548,0.277,0.422,0.030: // measure 1
0000
0000
0000
0000
,  // measure 2
0000
0000
0000
0000
,  // measure 3
0000
0000
0000
0000
,  // measure 4
0000
0000
0000
0000
,  // measure 5
0020
0000
0000
0032
0000
0000
0203
0000
,  // measure 6
2300
0000
0000
3200
,  // measure 7
0302
0000
0000
0000
,  // measure 8
0023
0000
0000
0030
,  // measure 9
0100
0010
0100
0010
1000
0001
1000
0001
,  // measure 10
1000
1000
1000
0000
0110
0000
0001
0010
,  // measure 11
0100
1000
0100
0010
1001
0000
1000
0100
,  // measure 12
0010
0100
1000
0010
0100
0001
0100
0010
,  // measure 13
0100
0001
0010
0100
1000
0010
0100
0001
,  // measure 14
0100
0100
0100
0000
0110
0000
0010
1000
,  // measure 15
0010
0001
0010
1000
0100
0000
1000
0100
,  // measure 16
0001
0100
1000
0100
0001
0100
1000
0001
,  // measure 17
1000
0001
1001
0000
1020
0000
0230
0000
,  // measure 18
0302
0000
0023
0030
1001
0000
1200
0000
,  // measure 19
0320
0000
0032
0003
1001
0000
1002
0000
,  // measure 20
0203
2300
3020
0032
,  // measure 21
1003
0010
0001
0010
1000
0100
0001
0100
,  // measure 22
1000
1000
1000
0000
1001
0000
0001
0100
,  // measure 23
1000
0010
0001
0010
1000
0000
1000
0100
,  // measure 24
0010
0001
1000
0100
0010
0001
1000
0010
,  // measure 25
0100
0001
0100
0010
0100
0001
0100
0010
,  // measure 26
0100
0100
0100
0000
1001
0000
1000
0100
,  // measure 27
0010
0100
1000
0100
0110
0000
0001
0010
,  // measure 28
0100
1000
0010
0100
0001
0100
0010
1000
,  // measure 29
0001
0010
0100
0010
0001
0100
0020
0000
,  // measure 30
0032
0000
0203
0000
1300
0000
0001
0010
,  // measure 31
0100
1000
0100
0010
0001
0000
1000
0010
,  // measure 32
0001
0010
1000
0100
0001
0100
1000
0001
,  // measure 33
0101
0110
1020
0032
,  // measure 34
0203
0000
2300
0000
3002
0003
1002
0000
,  // measure 35
0203
0000
2300
3000
1001
0000
1020
0000
,  // measure 36
0032
0203
2300
3002
,  // measure 37
0103
1000
0100
0001
0100
1000
0010
0001
,  // measure 38
0010
0010
0010
0000
1010
0000
1000
0010
,  // measure 39
0100
0001
0100
0010
0101
0000
0001
0010
,  // measure 40
0100
1000
0100
0010
0001
0010
0100
1000
,  // measure 41
0001
0100
0000
0010
1000
0000
1001
0000
,  // measure 42
1000
0001
0010
0000
0001
0000
0010
0000
1000
0000
0100
0000
0001
0000
0100
0000
,  // measure 43
0000
1000
0100
0010
0001
0000
0101
0000
,  // measure 44
0001
0000
0100
0000
0010
1000
0001
0000
0010
0000
0100
0000
0010
0000
0001
0000
,  // measure 45
0000
0010
0100
1000
0010
0000
0101
0000
,  // measure 46
1000
0001
0100
0000
0010
0000
1000
0000
0001
0000
0010
0000
0100
0000
0010
0000
,  // measure 47
0000
0001
0010
0100
1000
0100
1000
0010
,  // measure 48
0000
0000
0010
0000
0010
1000
0010
0000
0000
0000
0100
0000
0100
0001
0100
0000
;
