#TITLE:PRIME TIME;
#SUBTITLE:;
#ARTIST:capsule;
#TITLETRANSLIT:;
#SUBTITLETRANSLIT:;
#ARTISTTRANSLIT:;
#CREDIT:Chewi☆;
#BANNER:PRIME TIME.png;
#BACKGROUND:PRIME TIME-bg.png;
#LYRICSPATH:;
#CDTITLE:;
#MUSIC:PRIME TIME.mp3;
#OFFSET:-0.525;
#SAMPLESTART:45.525;
#SAMPLELENGTH:15.000;
#SELECTABLE:YES;
#DISPLAYBPM:128.000;
#BPMS:0.000=128.000;
#STOPS:;
#BGCHANGES:;

//---------------dance-single - Chewi----------------
#NOTES:
     dance-single:
     Chewi:
     Hard:
     10:
     0.442,0.439,0.295,0.000,0.000: // measure 1
0000
0000
0000
0000
,  // measure 2
0000
0000
0000
0000
,  // measure 3
0000
0000
0000
0000
,  // measure 4
0000
0000
0000
0000
,  // measure 5
1000
0000
0100
0000
1000
0001
0100
0000
,  // measure 6
0001
0000
0100
0000
0001
1000
0100
0000
,  // measure 7
0010
0100
0010
0000
0100
0010
0100
0000
,  // measure 8
0010
0001
0100
0000
0010
1000
0100
0000
,  // measure 9
1000
0000
0100
0000
1000
0001
1001
0000
,  // measure 10
0001
0000
0100
0000
0001
1000
1001
0000
,  // measure 11
1000
0000
0010
0000
0100
0010
0110
0000
,  // measure 12
0100
0000
0001
0000
0010
0001
0011
0000
,  // measure 13
0001
0001
1000
0000
0100
0010
0001
0000
,  // measure 14
0100
0100
0010
0000
1000
0010
0100
0000
,  // measure 15
0001
0001
0100
0000
0001
1000
0100
0000
,  // measure 16
1000
1000
1100
0000
0110
0000
0011
0000
,  // measure 17
0001
1000
0001
0000
1000
0001
1000
0000
,  // measure 18
0010
0100
0010
0000
0100
0010
0100
0000
,  // measure 19
0100
0001
0100
0000
0001
0010
0001
0000
,  // measure 20
0010
0100
0010
0000
0100
1000
0100
0000
,  // measure 21
1000
0100
1000
0000
1000
0001
1000
0000
,  // measure 22
1000
0010
0100
0000
0001
0100
0010
0000
,  // measure 23
0100
0001
0100
0000
0001
0010
0001
0000
,  // measure 24
0010
0100
1000
0000
1000
0010
0100
0000
,  // measure 25
0101
0000
1010
0000
0100
0001
0010
0000
,  // measure 26
0100
1000
0010
0000
1000
0001
0100
0000
,  // measure 27
0110
0000
1001
0000
1000
0100
0010
0000
,  // measure 28
0001
0010
0100
0000
1000
0001
0100
0000
,  // measure 29
0101
0000
1010
0000
1000
0010
0100
0000
,  // measure 30
0001
0100
0010
0000
1000
0001
0010
0000
,  // measure 31
0011
0000
1100
0000
0001
1000
0100
0000
,  // measure 32
1000
0001
0100
0000
0010
0100
0010
0000
,  // measure 33
1010
0000
0101
0000
1000
0100
0010
0000
,  // measure 34
0001
0010
0001
0010
0001
0100
0001
0100
,  // measure 35
0101
0000
0110
0000
0100
0010
0100
0000
,  // measure 36
0010
1000
0010
1000
0001
1000
0001
1000
,  // measure 37
1100
0000
0110
0000
0100
1000
0100
0000
,  // measure 38
0100
1000
0010
0100
0001
0100
0010
0000
,  // measure 39
0110
0000
0101
0000
0001
0010
0001
0000
,  // measure 40
0001
0010
0100
1000
0001
1000
0001
0000
,  // measure 41
1000
0001
1000
0001
1000
0001
1000
0001
,  // measure 42
1000
0100
1000
0100
1000
0100
1000
0100
,  // measure 43
1000
0100
0010
0100
1000
0100
0010
0100
,  // measure 44
1000
0001
1000
0001
1001
0000
0101
0000
;

//---------------dance-single - Chewi----------------
#NOTES:
     dance-single:
     Chewi:
     Medium:
     7:
     0.358,0.416,0.236,0.354,0.000:
0000
0000
0000
0000
,
0000
0000
0000
0000
,
0000
0000
0000
0000
,
0000
0000
0000
0000
,
2000
3100
2000
3100
,
0002
0103
0002
0103
,
2000
3010
2000
3010
,
0002
0013
0002
0013
,
0120
0000
0100
0000
,
0100
0100
0130
0000
,
0210
0000
0010
0000
,
0010
0010
0310
0000
,
0012
0000
0010
0000
,
1000
0010
1003
0000
,
2010
0000
0010
0000
,
0001
0010
3001
0000
,
1000
0100
0010
1000
,
0100
0001
0010
1000
,
0100
0001
0010
0100
,
0001
0010
1000
0100
,
0010
0100
1000
0001
,
0100
0010
1000
0001
,
1000
0000
0100
0000
1000
0001
0100
0000
,
0001
0000
0100
0000
0001
1000
0100
0000
,
1001
1001
0110
0110
,
0100
0100
0100
0000
0010
0010
0010
0000
,
1010
1000
0101
0001
,
1000
0100
1000
0000
0100
1000
0100
0000
,
1100
0100
0011
0010
,
0010
0010
0010
0000
0100
0100
0100
0000
,
0110
0010
1001
1000
,
0001
0100
0001
0000
0100
0001
0100
0000
,
0020
2030
3200
0302
,
0013
0000
0100
0000
0010
0100
0010
0000
,
0020
0032
0203
2300
,
3010
0000
0100
0000
0010
0100
0010
0000
,
2000
3200
0320
0032
,
0013
0000
0001
0000
0010
0001
0010
0000
,
0002
0023
0230
2300
,
3100
0000
1000
0000
0100
1000
0100
0000
,
1001
1000
1001
0001
,
0101
0100
0101
0001
,
0011
0010
0100
1000
,
1100
0100
0020
0032
,
0003
0000
0000
0000
;

//---------------dance-single - Chewi----------------
#NOTES:
     dance-single:
     Chewi:
     Easy:
     4:
     0.223,0.258,0.118,0.047,0.000:
0000
0000
0000
0000
,
0000
0000
0000
0000
,
0000
0000
0000
0000
,
0000
0000
0000
0000
,
1000
0000
0100
0000
,
0010
0000
0100
0000
,
1000
0000
0010
0000
,
0100
0000
0001
0000
,
1001
0000
1000
0000
,
0001
1000
0001
0000
,
0110
0000
0100
0000
,
0010
0100
0010
0000
,
0010
0000
1000
0000
,
0100
0000
0001
0000
,
0010
0000
0001
0000
,
0100
0000
1000
0000
,
1000
1000
1000
0000
,
0001
1000
1001
0000
,
0001
0001
0001
0000
,
1000
0001
1001
0000
,
0100
0100
0100
0000
,
0100
0010
0110
0000
,
0010
0010
0010
0000
,
0010
0100
0110
0000
,
1000
0100
0001
0100
,
1000
0100
0001
0100
,
1000
0010
0001
0010
,
1000
0010
0001
0010
,
1000
0001
1000
0001
,
1000
0001
1000
0001
,
0010
0100
0010
0100
,
0010
0100
0010
0100
,
0001
0100
1000
0100
,
0001
0010
1000
0010
,
0100
0010
1000
0010
,
0100
0001
0010
0001
,
0100
1000
0010
0001
,
0100
1000
0010
0001
,
0100
0010
1000
0001
,
0010
0100
1000
0001
,
2002
0000
0000
0000
,
0000
0000
0000
3003
,
0220
0000
0000
0000
,
0000
0330
0110
0110
;

//---------------dance-single - Chewi----------------
#NOTES:
     dance-single:
     Chewi:
     Beginner:
     2:
     0.095,0.128,0.000,0.024,0.000:
0000
0000
0000
0000
,
0000
0000
0000
0000
,
0000
0000
0000
0000
,
0000
0000
0000
0000
,
1000
0000
0000
0000
,
0001
0000
0000
0000
,
1000
0000
0000
0000
,
0001
0000
0000
0000
,
0100
0000
0000
0000
,
0010
0000
0000
0000
,
0100
0000
0000
0000
,
0010
0000
0000
0000
,
1000
0000
0000
0000
,
0100
0000
0000
0000
,
0001
0000
0000
0000
,
0100
0000
0000
0000
,
0010
0000
0000
0000
,
0010
0000
0000
0000
,
0100
0000
0000
0000
,
0100
0000
0000
0000
,
1000
0000
0000
0000
,
1000
0000
0000
0000
,
0001
0000
0000
0000
,
0001
0000
0000
0000
,
1000
0000
1000
0000
,
1000
0000
1000
0000
,
0100
0000
0100
0000
,
0100
0000
0100
0000
,
0010
0000
0010
0000
,
0010
0000
0010
0000
,
0001
0000
0001
0000
,
0001
0000
0001
0000
,
0001
0000
1000
0000
,
0001
0000
1000
0000
,
0010
0000
0100
0000
,
0010
0000
0100
0000
,
0010
0000
1000
0000
,
0010
0000
1000
0000
,
0001
0000
0100
0000
,
0001
0000
0100
0000
,
0200
0000
0000
0000
,
0000
0000
0000
0300
,
0020
0000
0000
0000
,
0000
0000
0030
0000
;
