#TITLE:PONPONPON;
#SUBTITLE:;
#ARTIST:きゃりーぱみゅぱみゅ;
#TITLETRANSLIT:;
#SUBTITLETRANSLIT:;
#ARTISTTRANSLIT:kyary pamyu Pamyu;
#CREDIT:Chewi☆;
#BANNER:PONPONPON.png;
#BACKGROUND:PONPONPON-bg.png;
#LYRICSPATH:;
#CDTITLE:;
#MUSIC:PONPONPON.mp3;
#OFFSET:-1.075;
#SAMPLESTART:31.105;
#SAMPLELENGTH:15.000;
#SELECTABLE:YES;
#DISPLAYBPM:128.000;
#BPMS:0.000=128.000;
#STOPS:;
#BGCHANGES:;

//---------------dance-single - Chewi----------------
#NOTES:
     dance-single:
     Chewi:
     Hard:
     10:
     0.433,0.469,0.208,0.017,0.000: // measure 1
0000
0000
0000
0000
,  // measure 2
0000
0000
0000
0000
,  // measure 3
0000
0000
0000
0000
,  // measure 4
0000
0000
0000
0000
,  // measure 5
0000
1001
0000
0110
,  // measure 6
0000
1001
0000
0110
,  // measure 7
0000
0011
0000
0101
,  // measure 8
0000
1100
0000
1010
,  // measure 9
0010
0000
0010
0000
0010
0100
0010
0000
,  // measure 10
0100
0001
0010
1000
,  // measure 11
0100
0000
0100
0000
0010
0100
0010
0000
,  // measure 12
0100
1000
0010
0001
,  // measure 13
0100
0000
0001
0000
1000
0100
0010
0000
,  // measure 14
0001
0000
1000
0000
0010
0100
0001
0000
,  // measure 15
1000
0100
1000
0000
0001
0100
0001
0000
,  // measure 16
1000
0001
0100
0010
1000
1000
0001
0001
,  // measure 17
1000
0100
0010
0000
0100
1000
0010
0000
,  // measure 18
0100
0100
0001
0001
0100
0010
1000
0000
,  // measure 19
0001
1000
0010
0000
1000
0001
0010
0000
,  // measure 20
0100
0100
0010
0010
0100
1000
0010
0000
,  // measure 21
1000
0100
0010
0000
0001
0100
0010
0000
,  // measure 22
0100
0100
0010
0010
1000
0001
1000
0000
,  // measure 23
0001
1000
0100
0000
1000
0001
0010
0000
,  // measure 24
0100
0010
0001
0100
0010
0010
0100
0000
,  // measure 25
1010
0000
0101
0000
1000
0100
0010
0000
,  // measure 26
0001
1001
1000
1001
,  // measure 27
0101
0000
1010
0000
0010
1000
0100
0000
,  // measure 28
0010
0110
0001
1001
,  // measure 29
0001
0100
0001
0000
0100
0010
0100
0000
,  // measure 30
0010
1000
0010
0000
1000
0100
1000
0000
,  // measure 31
1000
0100
0010
0000
0001
0010
0100
0000
,  // measure 32
1000
0001
1000
0001
0100
0010
0100
0010
,  // measure 33
0100
0100
0100
0000
0010
1000
1001
0000
,  // measure 34
0001
0010
0100
1000
0001
0010
0100
1000
,  // measure 35
0001
0001
0001
0000
1000
0001
1001
0000
,  // measure 36
1000
0010
0100
0010
1000
0100
0010
0001
,  // measure 37
0010
0010
0010
0000
0100
0010
0110
0000
,  // measure 38
0100
0010
0001
0100
0010
1000
0001
1000
,  // measure 39
0010
0010
0010
0000
1000
0001
1001
0000
,  // measure 40
0001
0010
0100
1000
0100
0100
1000
1000
,  // measure 41
0001
0100
0010
1000
0001
0100
0010
1000
,  // measure 42
0001
0010
0100
1000
0001
0010
0100
1000
,  // measure 43
0001
0010
0001
0100
0001
0010
0100
1000
,  // measure 44
0010
1000
0100
1000
0010
1000
0100
0010
,  // measure 45
0001
0100
0010
0100
0001
0010
0100
1000
,  // measure 46
0010
0100
0010
1000
1000
0100
0010
0001
,  // measure 47
1000
0100
0001
0100
1000
0010
0001
0010
,  // measure 48
0100
0010
0100
0010
0001
1000
0001
1000
,  // measure 49
1001
0100
0010
0000
1000
0100
0010
0000
,  // measure 50
0100
1000
0010
0100
0001
0100
0010
0100
,  // measure 51
0101
0100
0010
0000
1000
0100
0010
0000
,  // measure 52
0100
0010
0001
1000
0010
0100
0100
0100
,  // measure 53
0001
0100
0010
0000
1000
0001
1001
0000
,  // measure 54
0001
0010
0100
1000
1000
0100
0010
0001
,  // measure 55
1000
0010
0100
0000
0001
0100
0101
0000
,  // measure 56
0001
0100
1000
0010
0001
0010
0100
1000
,  // measure 57
0020
0000
0000
0000
,  // measure 58
0000
0000
0000
0000
,  // measure 59
0200
0000
0000
0000
,  // measure 60
0000
0000
0000
0000
,  // measure 61
0000
0330
0000
0000
0000
0000
0000
0000
;

//---------------dance-single - Chewi----------------
#NOTES:
     dance-single:
     Chewi:
     Medium:
     7:
     0.351,0.365,0.139,0.433,0.000: // measure 1
0000
0000
0000
0000
,  // measure 2
0000
0000
0000
0000
,  // measure 3
0000
0000
0000
0000
,  // measure 4
0000
0000
0000
0000
,  // measure 5
1000
1000
0100
0000
,  // measure 6
0001
0001
0010
0000
,  // measure 7
1000
1000
0010
0000
,  // measure 8
0001
0001
0100
0000
,  // measure 9
1000
0100
0010
0100
,  // measure 10
1000
1000
0001
0001
,  // measure 11
0001
0100
0010
0100
,  // measure 12
0001
0001
1000
1000
,  // measure 13
0100
0010
0001
1000
,  // measure 14
0100
0001
0010
1000
,  // measure 15
0100
0010
0001
0100
,  // measure 16
1000
0010
0001
0010
,  // measure 17
0100
0000
0100
0000
0100
0100
0100
0000
,  // measure 18
0020
2030
3002
2003
,  // measure 19
3001
0000
1000
0000
0001
1000
0001
0000
,  // measure 20
0002
0203
0320
2030
,  // measure 21
3001
0000
0001
0000
0001
0001
0001
0000
,  // measure 22
0002
0023
0230
2300
,  // measure 23
3100
0000
0010
0000
0100
0010
0100
0000
,  // measure 24
0020
0032
0203
0320
,  // measure 25
0130
0100
0100
0100
,  // measure 26
0001
1100
1000
0101
,  // measure 27
1000
1000
1000
1000
,  // measure 28
0001
1001
1000
1001
,  // measure 29
0100
0100
0100
0100
,  // measure 30
0010
1001
1000
1100
,  // measure 31
0001
0001
0001
0001
,  // measure 32
0010
0110
0100
0110
,  // measure 33
0001
0000
0001
0000
0001
0001
0001
0000
,  // measure 34
0002
2003
3020
0230
,  // measure 35
0301
0000
0100
0000
0001
0100
0001
0000
,  // measure 36
0200
2300
3020
0032
,  // measure 37
0013
0000
0100
0000
0010
0100
0010
0000
,  // measure 38
0200
2300
3020
0032
,  // measure 39
1003
0000
1000
0000
0001
0100
0010
0000
,  // measure 40
2000
3020
0230
0302
,  // measure 41
1003
1100
0001
0101
,  // measure 42
0100
0010
1000
0001
,  // measure 43
1000
1010
0001
0011
,  // measure 44
0100
0010
0001
1000
,  // measure 45
0010
0110
0001
1001
,  // measure 46
0001
0100
1000
0010
,  // measure 47
1000
1010
1000
1001
,  // measure 48
0001
0010
0100
1000
,  // measure 49
0001
0000
0001
0000
0001
1000
0001
0000
,  // measure 50
0200
2300
3020
0032
,  // measure 51
0013
0000
0010
0000
0010
0100
0010
0000
,  // measure 52
0200
0302
0023
2030
,  // measure 53
3100
0000
0100
0000
0100
1000
0100
0000
,  // measure 54
2000
3020
0230
0302
,  // measure 55
0103
0000
0100
0000
0010
0100
0010
0000
,  // measure 56
0020
2030
3002
2003
,  // measure 57
3002
0000
0000
0000
,  // measure 58
0000
0000
0000
0000
,  // measure 59
2000
0000
0000
0000
,  // measure 60
0000
0000
0000
0000
,  // measure 61
0000
3003
0000
0000
0000
0000
0000
0000
;

//---------------dance-single - Chewi----------------
#NOTES:
     dance-single:
     Chewi:
     Easy:
     5:
     0.248,0.339,0.165,0.139,0.000: // measure 1
0000
0000
0000
0000
,  // measure 2
0000
0000
0000
0000
,  // measure 3
0000
0000
0000
0000
,  // measure 4
0000
0000
0000
0000
,  // measure 5
0000
1000
0000
1000
,  // measure 6
0000
1000
0000
1000
,  // measure 7
0000
0001
0000
0001
,  // measure 8
0000
0001
0000
0001
,  // measure 9
0001
0100
1000
0000
,  // measure 10
1000
0010
0001
0000
,  // measure 11
0001
0010
1000
0000
,  // measure 12
1000
0100
0001
0000
,  // measure 13
0001
1000
0001
1000
,  // measure 14
0001
1000
0001
1000
,  // measure 15
0010
0100
0010
0100
,  // measure 16
0010
0100
0010
0000
,  // measure 17
0010
1000
0100
0000
,  // measure 18
0100
0010
0100
0000
,  // measure 19
0010
0001
0100
0000
,  // measure 20
0100
0010
0100
0000
,  // measure 21
0010
1000
0001
0000
,  // measure 22
1000
0001
1001
0000
,  // measure 23
0010
0001
1000
0000
,  // measure 24
0001
1000
1001
0000
,  // measure 25
0002
0000
1000
0000
,  // measure 26
1003
1000
1000
1000
,  // measure 27
2000
0000
0001
0000
,  // measure 28
3001
0001
0001
0001
,  // measure 29
1000
0100
0001
0000
,  // measure 30
0001
0010
1000
0000
,  // measure 31
1000
0100
0001
0000
,  // measure 32
0001
0010
1000
0000
,  // measure 33
2001
0001
3001
0000
,  // measure 34
1000
0001
1000
0000
,  // measure 35
0210
0010
0310
0000
,  // measure 36
0010
0100
0010
0000
,  // measure 37
1002
1000
1003
0000
,  // measure 38
1000
0001
1000
0000
,  // measure 39
0120
0100
0130
0000
,  // measure 40
0100
0010
0100
0000
,  // measure 41
0120
0100
0130
0110
,  // measure 42
1000
0100
0010
0001
,  // measure 43
1002
1000
1003
1001
,  // measure 44
0001
0100
1000
0010
,  // measure 45
0210
0010
0310
0110
,  // measure 46
0010
1000
0100
0001
,  // measure 47
1002
1000
1003
1001
,  // measure 48
0001
1000
0010
0100
,  // measure 49
0002
0000
1000
0000
,  // measure 50
0010
0100
0013
0110
,  // measure 51
2000
0000
0100
0000
,  // measure 52
0010
0100
3010
0110
,  // measure 53
0200
0000
0010
0000
,  // measure 54
0001
0010
0301
1001
,  // measure 55
2000
0000
0100
0000
,  // measure 56
0010
0100
3001
1001
,  // measure 57
0120
0000
0000
0000
,  // measure 58
0000
0000
0000
0000
,  // measure 59
0200
0000
0000
0000
,  // measure 60
0000
0000
0000
0000
,  // measure 61
0000
0330
0000
0000
0000
0000
0000
0000
;

//---------------dance-single - Chewi----------------
#NOTES:
     dance-single:
     Chewi:
     Beginner:
     3:
     0.144,0.156,0.000,0.121,0.000: // measure 1
0000
0000
0000
0000
,  // measure 2
0000
0000
0000
0000
,  // measure 3
0000
0000
0000
0000
,  // measure 4
0000
0000
0000
0000
,  // measure 5
0000
1000
0000
1000
,  // measure 6
0000
1000
0000
1000
,  // measure 7
0000
0001
0000
0001
,  // measure 8
0000
0001
0000
0001
,  // measure 9
0002
0000
0000
0000
,  // measure 10
0000
0000
0000
0003
,  // measure 11
2000
0000
0000
0000
,  // measure 12
0000
0000
0000
3000
,  // measure 13
0020
0000
0000
0000
,  // measure 14
0000
0000
0000
0030
,  // measure 15
0200
0000
0000
0000
,  // measure 16
0000
0000
0000
0300
,  // measure 17
0100
0100
0100
0000
,  // measure 18
0010
0000
0100
0000
,  // measure 19
0010
0010
0010
0000
,  // measure 20
0100
0000
0010
0000
,  // measure 21
0001
0001
0001
0000
,  // measure 22
1000
0000
0001
0000
,  // measure 23
1000
1000
1000
0000
,  // measure 24
0001
0000
1000
0000
,  // measure 25
0001
0000
0100
0000
,  // measure 26
1000
0000
0100
0000
,  // measure 27
0001
0000
0100
0000
,  // measure 28
1000
0000
0100
0000
,  // measure 29
0001
0000
0010
0000
,  // measure 30
1000
0000
0010
0000
,  // measure 31
0001
0000
0010
0000
,  // measure 32
1000
0000
0010
0000
,  // measure 33
0010
0010
0010
0000
,  // measure 34
0020
0000
0030
0000
,  // measure 35
0100
0100
0100
0000
,  // measure 36
0200
0000
0300
0000
,  // measure 37
0001
0001
0001
0000
,  // measure 38
0002
0000
0003
0000
,  // measure 39
1000
1000
1000
0000
,  // measure 40
2000
0000
3000
0000
,  // measure 41
1000
1000
1000
0000
,  // measure 42
1000
0000
0001
0000
,  // measure 43
0010
0010
0010
0000
,  // measure 44
0100
0000
0010
0000
,  // measure 45
0100
0100
0100
0000
,  // measure 46
0010
0000
1000
0000
,  // measure 47
1000
1000
1000
0000
,  // measure 48
1000
0000
0001
0000
,  // measure 49
0002
0000
0000
0003
,  // measure 50
0001
0001
0001
0000
,  // measure 51
0200
0000
0000
0300
,  // measure 52
0100
0100
0100
0000
,  // measure 53
2000
0000
0000
3000
,  // measure 54
1000
1000
1000
0000
,  // measure 55
0020
0000
0000
0030
,  // measure 56
0010
0010
0010
0000
,  // measure 57
0200
0000
0000
0000
,  // measure 58
0000
0000
0000
0000
,  // measure 59
0020
0000
0000
0000
,  // measure 60
0000
0000
0000
0000
,  // measure 61
0000
0330
0000
0000
0000
0000
0000
0000
;
