#VERSION:0.83;
#TITLE:PLACEBO;
#SUBTITLE:;
#ARTIST:米津玄師 + 野田洋次郎;
#TITLETRANSLIT:PLACEBO;
#SUBTITLETRANSLIT:;
#ARTISTTRANSLIT:Kenshi Yonezu + Yojiro Noda;
#GENRE:;
#ORIGIN:;
#CREDIT:chewi;
#BANNER:PLACEBO.png;
#BACKGROUND:PLACEBO-bg.png;
#PREVIEWVID:;
#JACKET:PLACEBO-jacket.png;
#CDIMAGE:;
#DISCIMAGE:;
#LYRICSPATH:;
#CDTITLE:cdtitle.png;
#MUSIC:PLACEBO.ogg;
#OFFSET:0.000000;
#SAMPLESTART:54.743000;
#SAMPLELENGTH:12.000000;
#SELECTABLE:YES;
#BPMS:0.000=113.988;
#STOPS:;
#DELAYS:;
#WARPS:;
#TIMESIGNATURES:0.000=4=4;
#TICKCOUNTS:0.000=4;
#COMBOS:0.000=1;
#SPEEDS:0.000=1.000=0.000=0;
#SCROLLS:0.000=1.000;
#FAKES:;
#LABELS:0.000=Song Start;
#BGCHANGES:;
#KEYSOUNDS:;
#ATTACKS:
;

//---------------dance-single - ----------------
#NOTEDATA:;
#CHARTNAME:;
#STEPSTYPE:dance-single;
#DESCRIPTION:;
#CHARTSTYLE:;
#DIFFICULTY:Hard;
#METER:9;
#RADARVALUES:0.295389,0.301230,0.000000,0.177869,0.005558,186.000000,186.000000,0.000000,16.000000,0.000000,0.000000,0.000000,0.000000,0.000000,0.295389,0.301230,0.000000,0.177869,0.005558,186.000000,186.000000,0.000000,16.000000,0.000000,0.000000,0.000000,0.000000,0.000000;
#CREDIT:chewi;
#NOTES:
0000
0000
0000
0000
,
0000
0000
0000
0000
,
0000
0000
0000
0000
,
0000
0000
0000
0000
,
0002
0000
0203
0000
0310
1000
0010
0000
,
0100
0001
0100
0000
0001
1000
0001
0000
,
2000
0000
3200
0000
0310
0001
0010
0000
,
0100
1000
0100
0000
1000
0001
1000
0000
,
0001
1000
0100
0001
,
0010
1000
1000
0000
0010
0001
0001
0000
,
0010
0000
0100
0000
0001
0010
0100
0000
,
1000
0001
1000
0000
0001
1000
0001
0000
,
1000
0001
0100
1000
,
0010
0001
0001
0000
0010
1000
1000
0000
,
0010
0000
0100
0000
1000
0010
0100
0000
,
0001
1000
0001
0000
1000
0000
0001
0000
,
0001
0000
0000
0001
0000
0100
0100
0000
,
0000
0010
0010
0000
1000
0100
0010
0000
,
0100
0000
0000
0100
0000
1000
1000
0000
,
0000
0010
0010
0000
0100
0001
0010
0000
,
0001
0000
0000
0001
0000
0010
0010
0000
,
0000
0100
0100
0000
1000
0100
1000
0000
,
0010
0000
1000
0000
0001
0100
1000
0000
,
0100
0000
0001
0000
0010
0100
1000
0000
,
0002
0003
2000
3000
,
0200
0300
0020
0030
,
0100
0000
0100
0000
1000
0100
0002
0000
,
1003
0010
0002
0000
0103
0010
2000
0000
,
3100
0100
2000
0000
3010
0000
0001
0000
,
0010
1000
0100
0001
,
0100
0000
0100
0000
0001
0100
2000
0000
,
3001
0010
2000
0000
3100
0010
0002
0000
,
0103
0100
0002
0000
0013
0000
1000
0000
,
0010
0001
0100
1000
,
0010
0010
0010
0000
0100
0000
1000
0000
,
1000
0100
0001
0000
0001
0100
1000
0000
,
0010
0010
0010
0000
0010
0000
1000
0000
,
0001
0010
1000
0000
1000
0010
0001
0000
,
0100
0100
0100
0000
0010
0000
1000
0000
,
0001
0010
1000
0000
1000
0010
0001
0000
,
0100
0100
0100
0000
0100
0000
0001
0000
,
1000
0000
0000
0000
0001
0000
0000
0000
0010
0000
0000
0010
0000
0000
0000
0000
;

//---------------dance-single - ----------------
#NOTEDATA:;
#CHARTNAME:;
#STEPSTYPE:dance-single;
#DESCRIPTION:;
#CHARTSTYLE:;
#DIFFICULTY:Medium;
#METER:6;
#RADARVALUES:0.220748,0.301230,0.000000,0.355737,0.005558,139.000000,139.000000,0.000000,32.000000,0.000000,0.000000,0.000000,0.000000,0.000000,0.220748,0.301230,0.000000,0.355737,0.005558,139.000000,139.000000,0.000000,32.000000,0.000000,0.000000,0.000000,0.000000,0.000000;
#CREDIT:chewi;
#NOTES:
0000
0000
0000
0000
,
0000
0000
0000
0000
,
0000
0000
0000
0000
,
0000
0000
0000
0000
,
2000
3200
0320
0030
,
0002
0023
0230
0300
,
2000
3020
0230
0300
,
0002
0203
0320
0030
,
1000
0010
1000
0000
,
1000
0010
1000
0000
0100
0000
0000
0000
,
0001
0010
0001
0000
,
0001
0010
0001
0000
0100
0000
0000
0000
,
0001
1000
0100
0000
,
0001
1000
0100
0000
1000
0000
0000
0000
,
1000
0001
0010
0000
,
1000
0001
0010
0000
0001
0000
0000
0000
,
0001
0000
0000
0001
0000
1000
0001
0000
,
2000
3020
0230
0302
,
0013
0000
0000
0010
0000
0100
0010
0000
,
0002
0023
0230
0320
,
0130
0000
0000
0100
0000
0010
0100
0000
,
2000
3200
0302
0203
,
0301
0001
0001
0000
1000
1000
1000
0000
,
1000
1000
1000
0000
0001
0001
0001
0000
,
0000
1000
0000
0001
,
0000
0100
0000
0010
,
0100
0100
0001
1000
,
0010
0000
1000
0001
,
0010
0000
0001
1000
,
0100
0000
1000
0001
,
0100
0100
0001
0010
,
1000
0000
0001
0100
,
1000
0000
1000
0010
,
0001
0000
1000
0100
,
0002
0100
0010
1003
,
2000
0010
0001
3100
,
2000
0010
0100
3010
,
0002
0100
1000
0013
,
0002
0013
2000
3010
,
0002
0103
2000
3100
,
0100
0000
0010
0000
0001
1000
0001
0000
,
1000
0000
0000
0000
0001
0000
0000
0000
0100
0000
0000
0100
0000
0000
0000
0000
;

//---------------dance-single - ----------------
#NOTEDATA:;
#CHARTNAME:;
#STEPSTYPE:dance-single;
#DESCRIPTION:;
#CHARTSTYLE:;
#DIFFICULTY:Easy;
#METER:3;
#RADARVALUES:0.141342,0.161471,0.000000,0.055584,0.000000,89.000000,89.000000,0.000000,5.000000,0.000000,0.000000,0.000000,0.000000,0.000000,0.141342,0.161471,0.000000,0.055584,0.000000,89.000000,89.000000,0.000000,5.000000,0.000000,0.000000,0.000000,0.000000,0.000000;
#CREDIT:chewi;
#NOTES:
// measure 0
0000
0000
0000
0000
,  // measure 1
0000
0000
0000
0000
,  // measure 2
0000
0000
0000
0000
,  // measure 3
0000
0000
0000
0000
,  // measure 4
1000
0001
1000
0000
,  // measure 5
0001
1000
0001
0000
,  // measure 6
0100
0010
0100
0000
,  // measure 7
0010
0100
0010
0000
,  // measure 8
0010
0000
1000
0000
,  // measure 9
0010
1000
0010
0000
,  // measure 10
0100
0000
0001
0000
,  // measure 11
0100
0001
0100
0000
,  // measure 12
0001
0000
1000
0000
,  // measure 13
0001
1000
0001
0000
,  // measure 14
1000
0000
0001
0000
,  // measure 15
1000
0001
1000
0000
,  // measure 16
2000
0000
3000
0000
,  // measure 17
0001
0000
0001
0000
,  // measure 18
0200
0000
0300
0000
,  // measure 19
0100
0000
0100
0000
,  // measure 20
0020
0000
0030
0000
,  // measure 21
0010
0000
0010
0000
,  // measure 22
2000
0000
0000
3000
,  // measure 23
0002
0000
0000
0003
,  // measure 24
1000
0000
0000
0000
,  // measure 25
0001
0000
0000
0000
,  // measure 26
1000
1000
1000
1000
,  // measure 27
1000
0000
0100
0000
,  // measure 28
0010
0000
0001
0000
,  // measure 29
0100
0000
0001
0000
,  // measure 30
0001
0001
0001
0001
,  // measure 31
0001
0000
0100
0000
,  // measure 32
0010
0000
1000
0000
,  // measure 33
0100
0000
1000
0000
,  // measure 34
0100
0100
0100
0100
,  // measure 35
0100
0000
0100
0000
,  // measure 36
0010
0010
0010
0010
,  // measure 37
0010
0000
0010
0000
,  // measure 38
0001
1000
0001
1000
,  // measure 39
0001
0000
1000
0000
,  // measure 40
1000
0001
1000
0001
,  // measure 41
1000
0000
0001
0000
;

//---------------dance-single - ----------------
#NOTEDATA:;
#CHARTNAME:;
#STEPSTYPE:dance-single;
#DESCRIPTION:;
#CHARTSTYLE:;
#DIFFICULTY:Beginner;
#METER:2;
#RADARVALUES:0.090522,0.161471,0.000000,0.033350,0.000000,57.000000,57.000000,0.000000,3.000000,0.000000,0.000000,0.000000,0.000000,0.000000,0.090522,0.161471,0.000000,0.033350,0.000000,57.000000,57.000000,0.000000,3.000000,0.000000,0.000000,0.000000,0.000000,0.000000;
#CREDIT:chewi;
#NOTES:
// measure 0
0000
0000
0000
0000
,  // measure 1
0000
0000
0000
0000
,  // measure 2
0000
0000
0000
0000
,  // measure 3
0000
0000
0000
0000
,  // measure 4
1000
0000
0000
0000
,  // measure 5
0001
0000
0000
0000
,  // measure 6
0100
0000
0000
0000
,  // measure 7
0010
0000
0000
0000
,  // measure 8
0010
0000
0000
0000
,  // measure 9
0010
0000
0010
0000
,  // measure 10
0100
0000
0000
0000
,  // measure 11
0100
0000
0100
0000
,  // measure 12
0001
0000
0000
0000
,  // measure 13
0001
0000
0001
0000
,  // measure 14
1000
0000
0000
0000
,  // measure 15
1000
0000
1000
0000
,  // measure 16
2000
0000
0000
3000
,  // measure 17
1000
0000
0000
0000
,  // measure 18
0200
0000
0000
0300
,  // measure 19
0100
0000
0000
0000
,  // measure 20
0020
0000
0000
0030
,  // measure 21
0010
0000
0000
0000
,  // measure 22
0000
0000
0000
0000
,  // measure 23
0000
0000
0000
0000
,  // measure 24
1000
0000
0000
0000
,  // measure 25
0001
0000
0000
0000
,  // measure 26
1000
1000
1000
1000
,  // measure 27
1000
0000
0000
0000
,  // measure 28
0010
0000
0000
0000
,  // measure 29
0000
0000
0000
0000
,  // measure 30
0001
0001
0001
0001
,  // measure 31
0001
0000
0000
0000
,  // measure 32
0010
0000
0000
0000
,  // measure 33
0100
0000
0000
0000
,  // measure 34
0100
0100
0100
0100
,  // measure 35
0100
0000
0100
0000
,  // measure 36
0010
0010
0010
0010
,  // measure 37
0010
0000
0010
0000
,  // measure 38
0001
0000
0001
0000
,  // measure 39
1000
0000
1000
0000
,  // measure 40
0001
0000
0001
0000
,  // measure 41
1000
0000
1000
0000
;
