#TITLE:Out Of Control;
#SUBTITLE:;
#ARTIST:nc ft. NRG Factory;
#TITLETRANSLIT:;
#SUBTITLETRANSLIT:;
#ARTISTTRANSLIT:;
#GENRE:;
#CREDIT:Chewi☆;
#MENUCOLOR:;
#METERTYPE:DDR X;
#BANNER:Out Of Control.png;
#BACKGROUND:Out Of Control-bg.png;
#LYRICSPATH:;
#CDTITLE:./CDTITLES/DanceDanceRevolution skyMIX3 -breeze-.png;
#MUSIC:Out Of Control.mp3;
#OFFSET:-0.120;
#SAMPLESTART:72.968;
#SAMPLELENGTH:15.000;
#SELECTABLE:YES;
#LISTSORT:;
#DISPLAYBPM:145.000;
#BPMS:0.000=145.000;
#STOPS:206.750=0.310
;
#BGCHANGES:;
#ATTACKS:;

//---------------dance-single - Chewi----------------
#NOTES:
     dance-single:
     Chewi:
     Beginner:
     2:
     0.133,0.180,0.039,0.088,0.000: // measure 1
0000
0000
0000
0000
,  // measure 2
0000
0000
0000
0000
,  // measure 3
0000
0000
0000
0000
,  // measure 4
0000
0000
0000
0000
,  // measure 5
2000
0000
0000
0000
,  // measure 6
0000
0000
0000
3000
,  // measure 7
1000
0000
0000
0000
,  // measure 8
0000
0000
0000
0000
,  // measure 9
0002
0000
0000
0000
,  // measure 10
0000
0000
0000
0003
,  // measure 11
0001
0000
0000
0000
,  // measure 12
1001
0000
0000
0000
,  // measure 13
1000
0000
0100
0000
,  // measure 14
1000
0000
0100
0000
,  // measure 15
1000
0000
0100
0000
,  // measure 16
1000
0000
0100
0000
,  // measure 17
0001
0000
0100
0000
,  // measure 18
0001
0000
0100
0000
,  // measure 19
0001
0000
0100
0000
,  // measure 20
0001
0000
0100
0000
,  // measure 21
0020
0000
0000
0030
,  // measure 22
0010
0000
0000
0000
,  // measure 23
0200
0000
0000
0300
,  // measure 24
0100
0000
0000
0000
,  // measure 25
2000
0000
0000
3000
,  // measure 26
1000
0000
0000
0000
,  // measure 27
0002
0000
0000
0003
,  // measure 28
0001
0000
0000
0000
,  // measure 29
0100
0000
0010
0000
,  // measure 30
0100
0000
0010
0000
,  // measure 31
1000
0000
0001
0000
,  // measure 32
1000
0000
0001
0000
,  // measure 33
1000
0000
0100
0000
,  // measure 34
0001
0000
0010
0000
,  // measure 35
0001
0000
0100
0000
,  // measure 36
1000
0000
0010
0000
,  // measure 37
0020
0000
0000
0000
,  // measure 38
0000
0000
0000
0030
,  // measure 39
0010
0000
0000
0000
,  // measure 40
0000
0000
0000
0000
,  // measure 41
0200
0000
0000
0000
,  // measure 42
0000
0000
0000
0300
,  // measure 43
0100
0000
0000
0000
,  // measure 44
1001
0000
0000
0000
,  // measure 45
1000
0000
0010
0000
,  // measure 46
0001
0000
0010
0000
,  // measure 47
1000
0000
0100
0000
,  // measure 48
0001
0000
0100
0000
,  // measure 49
1000
0000
0001
0000
,  // measure 50
1000
0000
0001
0000
,  // measure 51
0010
0000
0100
0000
,  // measure 52
0010
0000
0110
1000
,  // measure 53
0000
1000
0000
0001
,  // measure 54
0000
0001
0000
0010
,  // measure 55
0000
0010
0000
0100
,  // measure 56
0000
0110
0000
0010
,  // measure 57
0000
0001
0000
1000
,  // measure 58
0000
0001
0000
1000
,  // measure 59
0000
0010
0000
0001
,  // measure 60
0000
1000
0000
2000
,  // measure 61
0000
0000
0000
0000
,  // measure 62
0000
0000
3000
0000
;

//---------------dance-single - Chewi----------------
#NOTES:
     dance-single:
     Chewi:
     Easy:
     4:
     0.211,0.269,0.010,0.273,0.000: // measure 1
0000
0000
0000
0000
,  // measure 2
0000
0000
0000
0000
,  // measure 3
0000
0000
0000
0000
,  // measure 4
0000
0000
0000
0000
,  // measure 5
2000
0000
0000
0000
,  // measure 6
3002
0000
0000
0000
,  // measure 7
0023
0000
0000
0000
,  // measure 8
0230
0000
0000
0000
,  // measure 9
0320
0000
0000
0000
,  // measure 10
0032
0000
0000
0000
,  // measure 11
0203
0000
0000
0000
,  // measure 12
2300
0000
0000
0000
,  // measure 13
3010
0000
0010
0000
,  // measure 14
0100
0000
0100
0000
,  // measure 15
1000
0000
1000
0000
,  // measure 16
0001
0000
0001
0000
,  // measure 17
0001
0000
0010
0000
,  // measure 18
0100
0000
0001
0000
,  // measure 19
1000
0000
0100
0000
,  // measure 20
0010
0000
1000
0000
,  // measure 21
2000
0100
3010
0000
,  // measure 22
0010
0010
0010
0000
,  // measure 23
0002
0100
0013
0000
,  // measure 24
0010
0010
0010
0000
,  // measure 25
2000
0001
3100
0000
,  // measure 26
0100
0100
0100
0000
,  // measure 27
0002
1000
0013
0000
,  // measure 28
0010
0010
0010
0000
,  // measure 29
1000
0100
1000
0000
,  // measure 30
0100
0001
0100
0000
,  // measure 31
0001
0010
0001
0000
,  // measure 32
0010
1000
0010
0000
,  // measure 33
0100
0010
0100
0000
,  // measure 34
0001
1000
0001
0000
,  // measure 35
0010
0001
0010
0000
,  // measure 36
0100
1000
0100
0000
,  // measure 37
0002
0000
0000
0000
,  // measure 38
0203
0000
0000
0000
,  // measure 39
0320
0000
0000
0000
,  // measure 40
2030
0000
0000
0000
,  // measure 41
3200
0000
0000
0000
,  // measure 42
0302
0000
0000
0000
,  // measure 43
0023
0000
0000
0000
,  // measure 44
2030
0000
0000
0000
,  // measure 45
3001
1000
0100
0000
,  // measure 46
2000
0000
3010
0000
,  // measure 47
1000
0001
0100
0000
,  // measure 48
0002
0000
0013
0000
,  // measure 49
0100
0100
0010
0000
,  // measure 50
0002
0000
1003
0000
,  // measure 51
0010
0100
0100
0000
,  // measure 52
0001
1000
1001
0001
,  // measure 53
1000
0010
0000
2000
,  // measure 54
0000
3100
0000
0001
,  // measure 55
0100
0100
0000
2000
,  // measure 56
0000
3001
0000
1000
,  // measure 57
0100
0010
0000
0002
,  // measure 58
0000
0103
0000
0001
,  // measure 59
1000
0010
0000
2000
,  // measure 60
0000
3100
0010
0200
,  // measure 61
0000
0000
0000
0000
,  // measure 62
0000
0000
0300
0000
;

//---------------dance-single - Chewi----------------
#NOTES:
     dance-single:
     Chewi:
     Medium:
     7:
     0.324,0.389,0.117,0.263,0.000: // measure 1
0000
0000
0000
0000
,  // measure 2
0000
0000
0000
0000
,  // measure 3
0000
0000
0000
0000
,  // measure 4
0000
0000
0000
0000
,  // measure 5
2000
0000
0000
0000
,  // measure 6
3200
0000
0000
0000
,  // measure 7
0302
0000
0000
0000
,  // measure 8
0023
0000
0000
0000
,  // measure 9
0230
0000
0001
0000
,  // measure 10
0320
0000
1000
0000
,  // measure 11
2030
0000
0001
3000
,  // measure 12
1002
0000
0000
0000
0020
0000
0000
0033
,  // measure 13
0100
0010
0001
0010
,  // measure 14
0100
1000
0010
1000
,  // measure 15
0100
1000
0001
0100
,  // measure 16
0010
1000
0001
0010
,  // measure 17
0100
0010
0001
0100
,  // measure 18
1000
0010
0100
1000
,  // measure 19
0001
1000
0100
0010
,  // measure 20
0001
1000
0220
0330
,  // measure 21
0100
0010
1000
1100
,  // measure 22
0010
0001
0100
0101
,  // measure 23
0100
0010
1000
1001
,  // measure 24
0001
0010
0100
1000
,  // measure 25
0100
0010
0001
0101
,  // measure 26
0100
0010
1000
1001
,  // measure 27
1000
0100
0001
0010
,  // measure 28
0001
0100
1000
0010
,  // measure 29
0100
0001
0100
0000
0010
0000
1000
0000
,  // measure 30
0100
0001
0010
1000
,  // measure 31
0100
1000
0100
0000
1000
0000
0010
0000
,  // measure 32
0001
0100
0010
1000
,  // measure 33
0100
1000
0001
0000
0010
0000
0100
0000
,  // measure 34
0010
0001
0100
1000
,  // measure 35
0010
1000
0001
0000
0010
0000
0100
0000
,  // measure 36
0010
0001
1000
0010
,  // measure 37
0220
0000
0000
0030
,  // measure 38
0002
0300
0020
0003
,  // measure 39
0200
0000
0000
0030
,  // measure 40
2000
0300
0020
3000
,  // measure 41
0002
0030
0000
0000
,  // measure 42
0020
0003
2000
0030
,  // measure 43
0200
0000
0000
3000
,  // measure 44
1300
0000
0001
0000
0001
1000
0001
0000
,  // measure 45
1000
0000
0100
0000
0010
0001
0100
0000
,  // measure 46
0010
0100
0001
1000
,  // measure 47
0100
0000
1000
0000
0001
0010
0001
0000
,  // measure 48
0010
0100
1000
1001
,  // measure 49
1000
0010
0100
0000
0001
0000
0100
0000
,  // measure 50
0001
0100
1000
0010
,  // measure 51
0100
0001
0010
0100
,  // measure 52
1000
0000
0000
0000
0001
0000
0000
0000
2002
0000
0000
3003
1001
0000
0000
0000
,  // measure 53
1000
0000
0010
0100
0001
0000
0010
0000
,  // measure 54
0100
1000
0010
0001
,  // measure 55
0100
0000
0010
0100
0001
0000
0100
0000
,  // measure 56
0010
2020
3030
1000
,  // measure 57
0100
0010
0001
0100
,  // measure 58
1000
0010
0001
0001
,  // measure 59
0010
0100
1000
0010
,  // measure 60
0001
0100
1000
0002
,  // measure 61
0000
0000
0000
0000
,  // measure 62
0000
0000
0003
0000
;

//---------------dance-single - Chewi----------------
#NOTES:
     dance-single:
     Chewi:
     Hard:
     10:
     0.521,0.509,0.136,0.321,0.005: // measure 1
0000
0000
0000
0000
,  // measure 2
0000
0000
0000
0000
,  // measure 3
0000
0000
0000
0000
,  // measure 4
0000
0000
0000
0000
,  // measure 5
2000
0000
0010
0000
,  // measure 6
3002
0000
0100
0000
,  // measure 7
2003
0000
0100
0000
,  // measure 8
0002
3000
0000
0000
0000
0000
0000
0000
0010
0000
0000
0000
0000
0000
0000
0000
,  // measure 9
0023
0000
0001
0000
,  // measure 10
0230
0000
1000
0000
,  // measure 11
2300
0000
0010
0000
,  // measure 12
3001
0010
0000
0000
0100
1000
0010
0000
,  // measure 13
1000
0010
1000
0010
0001
0010
0001
0010
,  // measure 14
1000
0010
1000
0010
0001
0010
0001
0010
,  // measure 15
1000
0100
1000
0100
0001
0100
0001
0100
,  // measure 16
1000
0100
1000
0100
0001
0100
0001
0100
,  // measure 17
0010
0100
0010
0100
0001
1000
0001
1000
,  // measure 18
0100
0010
0100
0010
1000
0001
1000
0001
,  // measure 19
1000
0100
1000
0100
0010
0001
0010
0001
,  // measure 20
1000
0100
0010
0001
1000
0010
0101
0000
,  // measure 21
0001
0100
1010
0000
0001
0010
0100
1000
,  // measure 22
0001
0100
0110
0000
0100
0001
0010
0100
,  // measure 23
1000
0010
1001
0000
1000
0100
0010
0100
,  // measure 24
1000
0010
0101
0000
0100
0100
0010
0010
,  // measure 25
1000
0001
0011
0000
0001
0010
0100
1000
,  // measure 26
0010
0100
0101
0000
0100
0010
1000
0001
,  // measure 27
0010
0100
0011
0000
0001
0010
0100
1000
,  // measure 28
0001
0100
0110
0000
0100
0100
0010
0010
,  // measure 29
1000
0100
0010
0000
0010
0001
0100
0000
,  // measure 30
1000
0010
0100
0001
0010
0100
1000
0000
,  // measure 31
0001
0010
0100
0000
0001
0100
1000
0000
,  // measure 32
1000
0100
0001
0010
0100
0010
0100
0010
,  // measure 33
0001
0100
0010
0000
0100
0001
1000
0000
,  // measure 34
1000
0100
0010
0001
0100
1000
0001
0100
,  // measure 35
0010
0100
0001
0000
1000
0100
0010
0000
,  // measure 36
1000
0010
0100
0001
0100
0100
0010
0010
,  // measure 37
2010
0010
0010
3010
,  // measure 38
0002
0203
0320
0030
,  // measure 39
0102
0100
0100
0103
,  // measure 40
2000
3020
2030
3010
,  // measure 41
1002
0100
0010
1000
,  // measure 42
2003
0100
0010
0001
,  // measure 43
3020
0032
0203
2300
,  // measure 44
3200
0000
0320
0000
0031
0010
0100
1000
,  // measure 45
0001
0010
0100
0000
0200
0000
0301
0000
,  // measure 46
1000
0100
0010
0000
0001
0010
0100
1000
,  // measure 47
1000
0100
0010
0000
0002
0000
0103
0000
,  // measure 48
0001
1000
0100
1000
0001
0100
0001
0000
,  // measure 49
2000
3010
0200
0301
,  // measure 50
0001
0010
1000
0010
0001
0100
1000
0100
,  // measure 51
0002
0103
2000
3010
,  // measure 52
0001
0000
0010
0000
0001
0000
1000
0000
0010
0000
0000
1000
0010
0000
0100
0000
,  // measure 53
0010
0000
0001
0010
0100
1000
0010
1000
,  // measure 54
0100
0000
1000
0001
0100
0000
0010
0100
,  // measure 55
0001
0010
0100
1000
0010
0000
0100
0010
,  // measure 56
1000
0001
0012
0000
2003
0000
3010
0100
,  // measure 57
0001
0100
0010
1000
0001
0000
0010
0100
,  // measure 58
1000
0100
0010
0001
0100
0000
0010
0100
,  // measure 59
0001
1000
0100
0010
0001
0000
1000
0100
,  // measure 60
0001
0100
1000
0001
0100
1000
2002
0000
,  // measure 61
0000
0000
0000
0000
,  // measure 62
0000
0000
3003
0000
;
