#TITLE:Oui mais...non;
#SUBTITLE:;
#ARTIST:Mylène Farmer;
#TITLETRANSLIT:;
#SUBTITLETRANSLIT:;
#ARTISTTRANSLIT:Mylene Farmer;
#CREDIT:Chewi☆;
#BANNER:Oui mais non.png;
#BACKGROUND:Oui mais non-bg.png;
#LYRICSPATH:;
#CDTITLE:;
#MUSIC:Oui mais non.mp3;
#OFFSET:-1.801;
#SAMPLESTART:55.120;
#SAMPLELENGTH:15.000;
#SELECTABLE:YES;
#DISPLAYBPM:135.000;
#BPMS:0.000=135.000;
#STOPS:;
#BGCHANGES:;
#MENUCOLOR:;
#METERTYPE:DDR X;

//---------------dance-single - Chewi----------------
#NOTES:
     dance-single:
     Chewi:
     Hard:
     9:
     0.379,0.440,0.298,0.176,0.320:
0000
0000
0000
0000
,
0000
0000
0000
0000
,
0000
0000
0000
0000
,
0000
0000
0000
0000
,
2200
0000
0000
0300
,
0002
0000
0000
3003
,
1000
0000
1000
0010
0000
0010
0100
0000
0100
0001
0000
0001
,
0020
0000
0000
0030
,
0001
0000
0001
0010
0000
0010
0100
0000
0100
1000
0000
1000
,
0200
0000
0000
0300
,
1000
0000
1000
0010
0000
0010
0100
0000
0100
0001
0000
0001
,
0200
0000
0000
0300
,
0010
0000
0010
1000
0000
1000
0001
0000
0001
0010
0000
0010
,
0200
0000
0000
0300
,
0011
0000
0000
0100
0000
0000
0010
0000
0000
0100
0000
0010
,
0100
0000
0000
1010
0000
0000
0100
0000
0000
0010
0000
0100
,
0010
0000
0000
0001
0000
0100
0001
0000
0000
1000
0000
0100
,
1000
0000
0000
0001
0000
1000
0001
0000
0001
1000
0000
1000
,
0001
0000
0000
0010
0000
0100
1000
0000
0000
0010
0000
0100
,
0001
0000
0000
1000
0000
0001
0100
0000
0000
0001
0000
1000
,
0100
0000
0000
1000
0000
0001
0010
0000
1000
0010
0000
0001
,
0010
0000
0000
0100
0000
0001
0100
0000
1000
0100
0000
0001
,
0200
0000
0010
0000
,
1000
0000
0010
0001
,
0302
0000
1000
0000
,
0010
0100
1000
0010
,
2003
0000
0100
0000
,
0001
0100
0010
0001
,
3200
0000
1000
0000
,
0001
1000
0010
0310
,
0001
0000
0010
0100
0000
0000
1000
0000
0010
0100
0000
0000
,
0001
0101
1010
0011
,
1000
0000
0100
1000
0000
0000
0001
0000
0100
0001
0000
0000
,
1000
0110
1001
0110
,
0001
0000
0010
0100
0000
0000
1000
0000
0010
0100
0000
0000
,
0001
0000
0100
0001
0000
0000
0101
0000
0000
1001
0000
0000
,
1010
0000
0010
1000
0000
0000
0100
0000
0010
0001
0000
0000
,
0011
0011
1100
1100
,
1001
0000
0100
0010
0000
0100
0020
0000
0000
0030
0000
0000
,
1010
0101
0022
0033
,
0011
0000
0000
1100
0000
0000
1001
0000
0000
1000
0000
0100
,
0001
0000
0100
1000
0000
0100
0001
0000
0100
1000
0000
0000
,
1001
0000
0000
0100
0000
1000
0001
0000
0000
0010
0000
0001
,
0010
0000
0010
0100
0000
0100
1000
0000
0100
0010
0000
0001
,
1000
0000
1000
0001
0000
0000
0101
0000
0000
1100
0000
0000
,
0001
0000
1000
0001
0000
1000
0001
0000
1000
0001
0000
0000
,
2002
0000
0000
0000
,
3003
0000
0000
0000
;

//---------------dance-single - Chewi----------------
#NOTES:
     dance-single:
     Chewi:
     Medium:
     7:
     0.276,0.363,0.254,0.121,0.000:
0000
0000
0000
0000
,
0000
0000
0000
0000
,
0000
0000
0000
0000
,
0000
0000
0000
0000
,
0220
0000
0000
0000
,
0000
0000
0330
0000
,
0010
0000
1000
0000
0100
0000
0001
0100
,
1000
0000
0000
0000
,
0010
0000
0001
0000
0100
0000
1000
0100
,
0001
0000
0000
0000
,
0010
0000
0100
0000
0001
0000
1000
0100
,
0010
0000
0000
0000
,
0010
0000
0100
0000
1000
0000
0010
0100
,
0001
0000
0000
1000
,
1100
0000
0001
0000
0101
0000
0100
0010
,
0100
0010
1010
0010
,
0011
0000
0010
0000
1010
0000
0010
0100
,
0010
0100
0101
0100
,
1100
0000
0010
0000
0011
0000
0100
0001
,
0100
0010
1010
0100
,
1100
0000
0010
0000
0011
0000
0100
0001
,
0100
0010
1000
0001
,
2002
0000
0000
0000
,
0000
0000
0000
3000
,
0200
0000
0000
0003
,
0010
0010
0010
0010
,
0020
0000
0000
0300
,
2000
0000
0000
0030
,
0002
0000
0000
3000
,
0010
0010
0010
0013
,
0100
0010
0001
0100
,
0010
0000
1000
0000
0100
0010
0100
0000
,
1000
0100
0010
1000
,
0100
0000
0010
0000
0001
0000
0100
0010
,
0100
0001
0010
0100
,
1000
0000
0010
0000
0100
0000
0010
1000
,
0100
0010
0001
0100
,
0101
1100
1010
0011
,
0100
0000
0100
0000
0200
0000
0000
0300
,
0010
0100
0010
0000
0020
0000
0000
0030
,
0001
0010
0001
0000
0001
0000
1000
0000
,
1010
0101
1001
0110
,
0010
0000
0000
0100
0010
0000
0000
0010
,
0100
0000
0000
0010
0001
0000
0100
0000
,
1000
0000
1000
0000
,
1000
1100
0101
0001
,
2000
0000
0000
0000
,
3000
0000
0000
0000
;

//---------------dance-single - Chewi----------------
#NOTES:
     dance-single:
     Chewi:
     Easy:
     3:
     0.186,0.233,0.033,0.077,0.000:
0000
0000
0000
0000
,
0000
0000
0000
0000
,
0000
0000
0000
0000
,
0000
0000
0000
0000
,
2002
0000
0000
0000
,
0000
0000
3003
0000
,
1000
0100
1000
0100
,
1000
0000
0000
0000
,
1000
0010
1000
0010
,
1000
0000
0000
0000
,
0001
0010
0001
0010
,
0001
0000
0000
0000
,
0001
0100
0001
0100
,
0001
0000
0000
0010
,
1000
0100
0010
1000
,
0100
0001
1000
0100
,
0001
1000
0100
0001
,
1000
0100
0001
0010
,
0001
0100
0010
0001
,
0100
0010
0001
0100
,
1000
0001
0100
1000
,
0010
1000
0100
0001
,
0200
0000
0000
0000
,
0000
0000
0000
0300
,
0020
0000
0000
0000
,
0000
0000
0000
0030
,
2000
0000
0000
0000
,
0000
0000
0000
3000
,
0002
0000
0000
0000
,
0000
0000
0000
0003
,
1001
0000
0100
0000
,
0100
0001
0100
1000
,
0010
0000
0010
0000
,
0010
0001
0010
1000
,
0010
0000
0010
0000
,
0010
0001
0100
1000
,
0100
0000
0100
0000
,
0100
1000
0010
0001
,
0010
0010
0110
0000
,
1000
0001
1000
0000
,
0001
1000
0001
0010
,
0100
0100
0100
0100
,
0100
0000
0010
0000
,
0001
0000
0100
0010
,
0001
0000
0100
0000
,
0100
0010
1000
0010
,
0020
0000
0000
0000
,
0030
0000
0000
0000
;

//---------------dance-single - Chewi----------------
#NOTES:
     dance-single:
     Chewi:
     Beginner:
     2:
     0.123,0.177,0.033,0.000,0.000:
0000
0000
0000
0000
,
0000
0000
0000
0000
,
0000
0000
0000
0000
,
0000
0000
0000
0000
,
1000
0000
0000
0000
,
1000
0000
0000
0000
,
0001
0000
0010
0000
,
1000
0000
0000
0000
,
1000
0000
0010
0000
,
0001
0000
0000
0000
,
0001
0000
0100
0000
,
1000
0000
0000
0000
,
1000
0000
0100
0000
,
0001
0000
0000
0000
,
1000
0000
0010
0000
,
1000
0000
0010
0000
,
0001
0000
0010
0000
,
0001
0000
0010
0000
,
0001
0000
1000
0000
,
0001
0000
1000
0000
,
1000
0000
0001
0000
,
1000
0000
0001
0000
,
1001
0000
0000
0000
,
0100
0000
0000
0000
,
0010
0000
0000
0000
,
0100
0000
0000
0000
,
0110
0000
0000
0000
,
1000
0000
0000
0000
,
0001
0000
0000
0000
,
1000
0000
0000
0000
,
0001
0000
0001
0000
,
1000
0000
1000
0000
,
0010
0000
0010
0000
,
0100
0000
0100
0000
,
1000
0000
1000
0000
,
0001
0000
0001
0000
,
0010
0000
0010
0000
,
0100
0000
0100
0000
,
0100
0000
0100
0000
,
0010
0010
0010
0000
,
0010
0010
0010
0000
,
0010
0000
0010
0000
,
1001
0000
1000
0000
,
0001
0000
0100
0000
,
0100
0000
0010
0000
,
0010
0010
0010
0010
,
0010
0000
0000
0000
;

//---------------dance-double - Chewi----------------
#NOTES:
     dance-double:
     Chewi:
     Easy:
     3:
     0.189,0.259,0.055,0.154,0.000: // measure 1
00000000
00000000
00000000
00000000
,  // measure 2
00000000
00000000
00000000
00000000
,  // measure 3
00000000
00000000
00000000
00000000
,  // measure 4
00000000
00000000
00000000
00000000
,  // measure 5
02200000
00000000
00000000
00000000
,  // measure 6
00000000
00000000
00000000
03300000
,  // measure 7
10000000
01000000
00010000
00000000
,  // measure 8
00010000
00001000
00010000
00000000
,  // measure 9
00001000
00000010
00000001
00000000
,  // measure 10
00000001
00001000
00000001
00000000
,  // measure 11
00000100
00000010
00000100
00000000
,  // measure 12
00001000
00010000
01000000
00000000
,  // measure 13
01000000
00100000
01000000
00000000
,  // measure 14
00010000
00100000
00010000
00000000
,  // measure 15
00100000
00000000
00010000
00000000
,  // measure 16
00001000
00000000
00000010
00000000
,  // measure 17
00000001
00000000
00000100
00000000
,  // measure 18
00001000
00000000
00000010
00000000
,  // measure 19
00001000
00000000
00010000
00000000
,  // measure 20
10000000
00000000
01000000
00000000
,  // measure 21
00100000
00000000
10000000
00000000
,  // measure 22
01000000
00000000
00010000
00000000
,  // measure 23
00022000
00000000
00000000
00000000
,  // measure 24
00000000
00000000
00000000
00033000
,  // measure 25
00000020
00000000
00000000
00000000
,  // measure 26
00000000
00000000
00000000
00000030
,  // measure 27
00000200
00000000
00000000
00000000
,  // measure 28
00000000
00000000
00000000
00000300
,  // measure 29
00002002
00000000
00000000
00000000
,  // measure 30
00000000
00000000
00000000
00003003
,  // measure 31
00000001
00000001
00001000
00001000
,  // measure 32
00000100
00000100
00000010
00000010
,  // measure 33
00000100
00010000
01000000
10000000
,  // measure 34
00100000
00010000
00100000
10000000
,  // measure 35
01000000
01000000
10000000
10000000
,  // measure 36
00100000
00100000
01000000
01000000
,  // measure 37
00010000
00001000
00000010
00000001
,  // measure 38
00000100
00001000
00000100
00000001
,  // measure 39
00002002
00000000
00000000
00003003
,  // measure 40
00000001
00000100
00001000
00000000
,  // measure 41
00001000
00010000
01000000
00000000
,  // measure 42
10000000
01000000
00010000
01000000
,  // measure 43
20000000
00000000
00010000
00000000
,  // measure 44
30020000
00000000
10000000
00000000
,  // measure 45
00130000
01000000
00100000
01000000
,  // measure 46
00010000
10000000
00010000
10000000
,  // measure 47
20020000
00000000
00000000
00000000
,  // measure 48
30030000
00000000
00000000
00000000
;

//---------------dance-double - Chewi----------------
#NOTES:
     dance-double:
     Chewi:
     Medium:
     7:
     0.265,0.363,0.198,0.121,0.000: // measure 1
00000000
00000000
00000000
00000000
,  // measure 2
00000000
00000000
00000000
00000000
,  // measure 3
00000000
00000000
00000000
00000000
,  // measure 4
00000000
00000000
00000000
00000000
,  // measure 5
20020000
00000000
00000000
00000000
,  // measure 6
00000000
00000000
00000000
30030000
,  // measure 7
10000000
00000000
01000000
00000000
00010000
00000000
00100000
00010000
,  // measure 8
01000000
00000000
00000000
00000000
,  // measure 9
01000000
00000000
00010000
00000000
00001000
00000000
00000010
00000001
,  // measure 10
00000100
00000000
00000000
00000000
,  // measure 11
00001000
00000000
00000100
00000000
00000010
00000000
00001000
00000100
,  // measure 12
00010000
00000000
00000000
00000000
,  // measure 13
00001000
00000000
00010000
00000000
01000000
00000000
10000000
00100000
,  // measure 14
00010000
00000000
00000000
00000000
,  // measure 15
00100000
01100000
10000000
10010000
,  // measure 16
01000000
00100000
01000000
00000000
00010000
00000000
00110000
00000000
,  // measure 17
01000000
11000000
00100000
01010000
,  // measure 18
00010000
00100000
00010000
00000000
00001000
00000000
00010000
00000000
,  // measure 19
00001000
00000000
00000010
00000000
00001000
00000010
00000100
00000000
,  // measure 20
00000010
00000100
00000001
00000010
,  // measure 21
00000100
00000000
00001000
00000000
00000010
00001000
00000010
00000000
,  // measure 22
00000100
00000010
00001000
00000100
,  // measure 23
00020200
00000000
00000000
00000000
,  // measure 24
00000000
00000000
00000000
00000300
,  // measure 25
00002000
00000000
00000000
00030000
,  // measure 26
00200000
00000000
00000000
00003000
,  // measure 27
02000000
00000000
00000000
00300000
,  // measure 28
20000000
00000000
00000000
03000000
,  // measure 29
00200000
00000000
00000000
30000000
,  // measure 30
01000000
10000000
01000000
00010000
,  // measure 31
01300000
00010000
00100000
01000000
,  // measure 32
10000000
00000000
01000000
00000000
00100000
00010000
01000000
00000000
,  // measure 33
00010000
00100000
00001000
00010000
,  // measure 34
00000100
00000110
00001001
00000110
,  // measure 35
00000010
00001000
00000001
00000100
,  // measure 36
00001000
00000100
00000001
00000011
,  // measure 37
00000100
00000000
00001000
00000000
00000010
00001000
00000010
00000000
,  // measure 38
00000100
00000101
00001100
00000101
,  // measure 39
00001100
00010000
01000000
00000000
,  // measure 40
10000000
01000000
10000000
01000000
10000000
00000000
00000000
00000000
,  // measure 41
01000000
00100000
00010000
01000000
,  // measure 42
01100000
10010000
00100000
01000000
,  // measure 43
00100000
00010000
00001000
00000100
,  // measure 44
00000001
00000100
00000010
00000100
,  // measure 45
00000010
00000000
00001000
00000000
00000100
00001000
00000010
00000000
,  // measure 46
00000100
00001000
00010000
01000000
,  // measure 47
02020000
00000000
00000000
00000000
,  // measure 48
03030000
00000000
00000000
00000000
;

//---------------dance-double - Chewi----------------
#NOTES:
     dance-double:
     Chewi:
     Hard:
     9:
     0.386,0.440,0.044,0.154,0.490: // measure 1
00000000
00000000
00000000
00000000
,  // measure 2
00000000
00000000
00000000
00000000
,  // measure 3
00000000
00000000
00000000
00000000
,  // measure 4
00000000
00000000
00000000
00000000
,  // measure 5
22000000
00000000
00000000
03000000
,  // measure 6
00020000
00000000
00000000
30030000
,  // measure 7
10000000
00000000
10000000
00100000
00000000
00100000
01000000
00000000
01000000
00010000
00000000
00010000
,  // measure 8
00200000
00000000
00000000
00300000
,  // measure 9
00100000
00000000
00100000
00010000
00000000
00010000
00001000
00000000
00001000
00000010
00000000
00000010
,  // measure 10
00000200
00000000
00000000
00000300
,  // measure 11
00000010
00000000
00000010
00001000
00000000
00001000
00000001
00000000
00000001
00000010
00000000
00000010
,  // measure 12
00000200
00000000
00000000
00000300
,  // measure 13
00000100
00000000
00000100
00001000
00000000
00001000
00010000
00000000
00010000
01000000
00000000
01000000
,  // measure 14
00200000
00000000
00000000
00300000
,  // measure 15
00100000
00000000
00000000
10000000
00000000
00000000
00010000
00000000
00100000
00010000
00000000
01000000
,  // measure 16
00010000
00000000
00000000
00100000
00000000
00000000
01000000
00000000
10000000
00100000
00000000
10000000
,  // measure 17
01000000
00000000
00000000
00100000
00000000
00010000
01000000
00000000
00010000
00100000
00000000
00001000
,  // measure 18
00010000
00000000
00000000
00000100
00000000
00001000
00000000
00000000
00000001
00000100
00000000
00000010
,  // measure 19
00000100
00000000
00000000
00000001
00000000
00000010
00000001
00000000
00000100
00000001
00000000
00000010
,  // measure 20
00000001
00000000
00000000
00000100
00000000
00000010
00001000
00000000
00000100
00001000
00000000
00000010
,  // measure 21
00001000
00000000
00000000
00000100
00000000
00010000
00001000
00000000
00100000
00010000
00000000
01000000
,  // measure 22
00010000
00000000
00000000
00100000
00000000
01000000
00100000
00000000
00010000
10000000
00000000
00100000
,  // measure 23
20000000
00000000
00100000
00000000
,  // measure 24
30010000
00000000
10000000
01000000
,  // measure 25
00200000
00000000
00001000
00000000
,  // measure 26
00010000
00010000
00310000
00010000
,  // measure 27
00002000
00000000
00000010
00000000
,  // measure 28
00000100
00000000
00000010
00003010
,  // measure 29
00000010
00000000
00000000
00000000
00000000
00000100
00000010
00000000
00000000
00000000
00000000
00000000
,  // measure 30
00000100
00000000
00000010
00000100
00000000
00000001
00001000
00000000
00000100
00000010
00000000
00000000
,  // measure 31
00000001
00000000
00000001
00000010
00000000
00000000
00000100
00000000
00000100
00001000
00000000
00000000
,  // measure 32
00000010
00000000
00000010
00001000
00000000
00001000
00000100
00000000
00000100
00010000
00000000
00010000
,  // measure 33
00001000
00000000
00001000
00010000
00000000
00000000
00010000
00000000
00010000
01000000
00000000
00000000
,  // measure 34
10000000
00000000
10000000
01000000
00000000
01000000
00100000
00000000
00100000
00010000
00000000
00010000
,  // measure 35
10000000
00000000
10000000
00100000
00000000
00000000
00010000
00000000
00010000
00100000
00000000
00000000
,  // measure 36
10000000
00000000
10000000
01000000
00000000
00000000
00010000
00000000
00010000
01000000
00000000
01000000
,  // measure 37
00010000
00000000
00010000
00100000
00000000
00100000
00001000
00000000
00001000
00010000
00000000
00010000
,  // measure 38
00000100
00000000
00000100
00000010
00000000
00000010
00000001
00000000
00000001
00000100
00000000
00000100
,  // measure 39
00000020
00001000
00000002
00000033
,  // measure 40
00001000
00000000
00000100
00001000
00000000
00000000
00001010
00000000
00000000
00000000
00000000
00000000
,  // measure 41
00000001
00000000
00000100
00000001
00000000
00000000
00000011
00000000
00000000
00000100
00000000
00001000
,  // measure 42
00000010
00000000
00001000
00000100
00000000
00010000
00001000
00000000
00100000
00010000
00000000
01000000
,  // measure 43
00010000
00000000
00100000
01000000
00000000
10000000
00100000
00000000
01000000
00010000
00000000
01000000
,  // measure 44
00100000
00000000
10000000
00010000
00000000
00100000
01000000
00000000
10000000
01000000
00000000
00100000
,  // measure 45
00010000
00000000
01000000
00010000
00000000
00100000
00001000
00000000
00010000
00000100
00000000
00001000
,  // measure 46
00000001
00000000
00000100
00000010
00000000
00001000
00000001
00000000
00000010
00000100
00000000
00000000
,  // measure 47
00002002
00000000
00000000
00000000
,  // measure 48
00003003
00000000
00000000
00000000
;
