#TITLE:Only Girl (In The World);
#SUBTITLE:;
#ARTIST:Rihanna;
#TITLETRANSLIT:;
#SUBTITLETRANSLIT:;
#ARTISTTRANSLIT:;
#GENRE:;
#CREDIT:Chewi☆;
#MENUCOLOR:#FFFF00;
#METERTYPE:DDR X;
#BANNER:Only Girl (In The World).png;
#BACKGROUND:Only Girl (In The World)-bg.png;
#LYRICSPATH:;
#CDTITLE:;
#MUSIC:Only Girl (In The World).mp3;
#OFFSET:-0.525;
#SAMPLESTART:68.352;
#SAMPLELENGTH:15.000;
#SELECTABLE:YES;
#LISTSORT:;
#BPMS:0.000=126.000;
#STOPS:;
#BGCHANGES:;
#ATTACKS:;

//---------------dance-single - Chewi----------------
#NOTES:
     dance-single:
     Chewi:
     Hard:
     9:
     0.318,0.376,0.117,0.017,0.000: // measure 1
0000
0000
0000
0000
,  // measure 2
0000
0000
0000
0000
,  // measure 3
0000
0000
0000
0000
,  // measure 4
0000
0000
0000
0000
1000
0100
0010
0001
,  // measure 5
0100
0010
0000
0000
0000
0000
0000
0000
,  // measure 6
0000
0010
1000
0001
1000
0000
0001
0000
,  // measure 7
0000
0000
0000
0000
,  // measure 8
0000
0000
0000
0000
0000
1000
0100
0010
,  // measure 9
0001
0010
0000
0000
0000
0000
0000
0000
,  // measure 10
0000
0000
0010
0100
0010
0001
0100
0000
,  // measure 11
0000
0000
0000
0000
,  // measure 12
0000
0000
0000
0000
0000
0010
1000
0100
,  // measure 13
1000
0010
0100
0001
0010
0000
0100
0010
,  // measure 14
0001
1000
0010
0100
0001
0000
0100
0001
,  // measure 15
0000
0000
0000
0000
,  // measure 16
0000
0000
0000
0000
0000
0001
0010
0100
,  // measure 17
1000
0010
1000
0000
0100
0000
0000
0010
,  // measure 18
0100
1000
0001
0100
0010
0100
0001
1000
,  // measure 19
0000
0000
0000
0000
0000
0000
0000
0001
,  // measure 20
0000
0000
0000
0000
0000
0001
0010
0100
,  // measure 21
1100
0000
1010
0000
1100
0000
0000
1000
,  // measure 22
0010
0100
0001
0100
0010
1000
0001
0010
,  // measure 23
0000
0000
0000
0000
0000
0010
0100
0010
,  // measure 24
0001
0010
0100
1000
0010
1000
0100
0010
,  // measure 25
0000
0000
0000
0000
0000
0010
0001
0100
,  // measure 26
0001
0010
0100
1000
0010
0100
0010
1000
,  // measure 27
0001
1000
0001
0000
,  // measure 28
0101
0000
0110
0000
1010
0010
1000
0100
,  // measure 29
0010
0000
0000
0000
0000
0001
0010
0100
,  // measure 30
1000
0010
0100
0010
1000
0000
0001
1000
,  // measure 31
0000
0000
0000
0000
0000
0001
0010
0100
,  // measure 32
1000
0010
1000
0100
0010
0000
0100
0010
,  // measure 33
0000
0000
0000
0000
0000
0000
0001
0100
,  // measure 34
1000
0010
0001
0000
0010
0000
0100
1000
,  // measure 35
0000
0000
0010
0000
0000
0000
0000
1010
,  // measure 36
0000
0000
0101
0000
0000
0001
1000
0010
,  // measure 37
0110
0000
1010
0000
0110
0000
0000
0010
,  // measure 38
1000
0100
0010
0001
0010
0100
1000
0010
,  // measure 39
0000
0000
0000
0000
0000
1000
0100
0010
,  // measure 40
0001
0100
0010
0100
0001
0010
0100
1000
,  // measure 41
0000
0000
0000
0000
0000
1000
0010
0100
,  // measure 42
0001
0100
0010
1000
0001
0000
1000
0100
,  // measure 43
0000
0000
0010
0000
0001
0000
0000
0100
,  // measure 44
0000
0000
0010
0000
0100
0010
1000
0001
,  // measure 45
0010
0000
0000
0000
0000
0100
0100
0010
,  // measure 46
0010
0001
1000
0010
0100
0000
0001
0100
,  // measure 47
0000
0000
0000
0000
0000
0010
0100
0001
,  // measure 48
1000
0100
0010
0001
1000
0000
0001
1000
,  // measure 49
0000
0000
0000
0000
0000
0000
0001
0100
,  // measure 50
0010
1000
0001
0100
0010
0000
1000
0010
,  // measure 51
0000
0000
1001
0000
0000
0000
0000
0011
,  // measure 52
0000
0000
1100
0000
1000
0001
0100
0010
,  // measure 53
1000
0000
1000
0000
1000
0100
0010
0001
,  // measure 54
0010
0100
1000
0000
0010
0000
0100
0000
,  // measure 55
0001
0000
0001
0000
0001
0100
0010
1000
,  // measure 56
0010
0100
0001
0000
0100
0000
1000
0000
,  // measure 57
0010
0000
0010
0000
1000
0100
0010
0100
,  // measure 58
1000
0010
0100
0000
0001
0000
0100
0000
,  // measure 59
0020
0000
0000
0000
0000
1000
0000
0200
,  // measure 60
0000
0000
0000
0000
,  // measure 61
0330
0000
0000
0000
;

//---------------dance-single - Chewi----------------
#NOTES:
     dance-single:
     Chewi:
     Medium:
     7:
     0.306,0.326,0.025,0.251,0.000: // measure 1
0000
0000
0000
0000
,  // measure 2
0000
0000
0000
0000
,  // measure 3
0000
0000
0000
0000
,  // measure 4
0000
0000
0000
0000
,  // measure 5
2000
3100
0002
0103
,  // measure 6
2000
3100
0002
0103
,  // measure 7
2000
3010
0002
0013
,  // measure 8
2000
3010
0002
0013
,  // measure 9
0001
1000
0010
1010
,  // measure 10
1000
0010
0100
0001
,  // measure 11
0001
0010
0001
0011
,  // measure 12
0001
0010
0100
1000
,  // measure 13
0100
1000
0010
0100
,  // measure 14
1000
0010
1000
0010
,  // measure 15
0001
0100
0010
0001
,  // measure 16
0100
0001
0100
0001
,  // measure 17
0100
0010
1000
0001
,  // measure 18
0010
0100
1000
0001
,  // measure 19
1000
0100
0001
0100
,  // measure 20
0110
0000
0000
0000
0000
0010
0100
0010
,  // measure 21
0010
0000
0000
0000
0000
0010
0000
0010
,  // measure 22
0000
1000
0000
1000
0000
0001
0001
0001
,  // measure 23
0001
0000
0000
0000
0000
0001
0000
0001
,  // measure 24
0000
0010
0000
0010
0000
0100
0100
1000
,  // measure 25
0100
0000
0000
0000
0000
1000
0000
1000
,  // measure 26
0000
0001
0000
0001
0000
0100
0100
0100
,  // measure 27
0100
0000
0010
0000
1000
0000
0000
0010
,  // measure 28
0000
0000
0100
0000
0001
0000
0010
0001
,  // measure 29
0002
1000
0010
0100
,  // measure 30
1000
1000
1000
0000
1000
0000
1003
0000
,  // measure 31
2000
0001
0100
0001
,  // measure 32
0010
0010
0010
0000
0001
0000
3001
0000
,  // measure 33
0002
0100
0010
1000
,  // measure 34
0100
0100
0100
0000
0010
0000
1003
0000
,  // measure 35
2000
0010
0100
0010
,  // measure 36
0001
0001
0001
0000
0100
0000
3001
0000
,  // measure 37
0002
0103
2000
3010
,  // measure 38
0001
1000
0100
0010
,  // measure 39
0002
0013
2000
3100
,  // measure 40
0001
0100
0010
1000
,  // measure 41
2000
3100
2000
3010
,  // measure 42
0100
0001
0010
0100
,  // measure 43
0020
0031
0002
0103
,  // measure 44
0010
1000
0001
1000
,  // measure 45
0200
0301
0200
1300
,  // measure 46
0010
0100
0001
1000
,  // measure 47
2000
3100
2000
3010
,  // measure 48
0100
0001
0010
0100
,  // measure 49
0020
0031
0020
0031
,  // measure 50
0100
0010
1000
0001
,  // measure 51
2000
3100
0002
0103
,  // measure 52
0010
1000
0100
0001
,  // measure 53
0010
0010
0010
0010
,  // measure 54
0100
0010
0001
0100
,  // measure 55
0010
0010
0010
0010
,  // measure 56
0100
0010
1000
0100
,  // measure 57
1000
0001
1000
0001
,  // measure 58
0100
0010
1000
0001
,  // measure 59
2000
0000
0000
0000
0000
0001
0000
0020
,  // measure 60
0000
0000
0000
0000
,  // measure 61
3030
0000
0000
0000
;

//---------------dance-single - Chewi----------------
#NOTES:
     dance-single:
     Chewi:
     Beginner:
     1:
     0.074,0.125,0.042,0.000,0.000: // measure 1
0000
0000
0000
0000
,  // measure 2
0000
0000
0000
0000
,  // measure 3
0000
0000
0000
0000
,  // measure 4
0000
0000
0000
0000
,  // measure 5
1000
0000
0000
0000
,  // measure 6
0100
0000
0000
0000
,  // measure 7
0010
0000
0000
0000
,  // measure 8
0001
0000
0000
0000
,  // measure 9
1000
0000
0000
0000
,  // measure 10
0010
0000
0000
0000
,  // measure 11
0100
0000
0000
0000
,  // measure 12
0001
0000
0000
0000
,  // measure 13
0001
0000
0000
0000
,  // measure 14
0010
0000
0000
0000
,  // measure 15
1000
0000
0000
0000
,  // measure 16
0010
0000
0000
0000
,  // measure 17
0100
0000
0000
0000
,  // measure 18
1000
0000
0000
0000
,  // measure 19
0001
0000
0000
0000
,  // measure 20
0100
0000
0000
0000
,  // measure 21
1001
0000
0000
0000
,  // measure 22
1000
0000
0000
0000
,  // measure 23
1000
0000
0000
0000
,  // measure 24
0001
0000
0000
0000
,  // measure 25
1000
0000
0000
0000
,  // measure 26
0010
0000
0000
0000
,  // measure 27
0100
0000
0000
0000
,  // measure 28
1000
0000
0000
0000
,  // measure 29
0001
0000
0000
0000
,  // measure 30
1000
0000
0000
0000
,  // measure 31
0010
0000
0000
0000
,  // measure 32
0100
0000
0000
0000
,  // measure 33
0010
0000
0000
0000
,  // measure 34
1000
0000
0000
0000
,  // measure 35
0001
0000
0000
0000
,  // measure 36
0010
0000
0000
0000
,  // measure 37
0001
0000
0000
0000
,  // measure 38
1000
0000
0000
0000
,  // measure 39
1000
0000
0000
0000
,  // measure 40
0010
0000
0000
0000
,  // measure 41
0100
0000
0000
0000
,  // measure 42
1000
0000
0000
0000
,  // measure 43
0100
0000
0000
0000
,  // measure 44
0001
0000
0000
0000
,  // measure 45
0001
0000
0000
0000
,  // measure 46
1000
0000
0000
0000
,  // measure 47
1000
0000
0000
0000
,  // measure 48
0100
0000
0000
0000
,  // measure 49
1000
0000
0000
0000
,  // measure 50
0001
0000
0000
0000
,  // measure 51
1000
0000
0000
0000
,  // measure 52
1000
0000
0000
0000
,  // measure 53
1001
0000
0000
0000
,  // measure 54
0010
0000
0000
0000
,  // measure 55
0110
0000
0000
0000
,  // measure 56
0010
0000
0000
0000
,  // measure 57
1001
0000
0000
0000
,  // measure 58
1000
0000
0000
0000
,  // measure 59
0110
0000
0000
0000
,  // measure 60
0100
0000
0000
0000
,  // measure 61
0010
0000
0000
0000
;

//---------------dance-single - Chewi----------------
#NOTES:
     dance-single:
     Chewi:
     Easy:
     3:
     0.185,0.226,0.050,0.276,0.000: // measure 1
0000
0000
0000
0000
,  // measure 2
0000
0000
0000
0000
,  // measure 3
0000
0000
0000
0000
,  // measure 4
0000
0000
0000
0000
,  // measure 5
2000
0000
0000
3000
,  // measure 6
0200
0000
0000
0300
,  // measure 7
0020
0000
0000
0030
,  // measure 8
0002
0000
0000
0003
,  // measure 9
2000
0000
0000
3000
,  // measure 10
0020
0000
0000
0030
,  // measure 11
0200
0000
0000
0300
,  // measure 12
0002
0000
0000
0003
,  // measure 13
0002
0000
0013
0000
,  // measure 14
0010
0100
1000
0000
,  // measure 15
2000
0000
3010
0000
,  // measure 16
0010
0100
0001
0000
,  // measure 17
0200
0000
0310
0000
,  // measure 18
1000
0001
0010
0000
,  // measure 19
0002
0000
1003
0000
,  // measure 20
0100
1000
0010
0000
,  // measure 21
2002
0000
0000
3003
,  // measure 22
1000
1000
1000
0001
,  // measure 23
1000
0000
0000
0001
,  // measure 24
0001
0001
1000
0001
,  // measure 25
1000
0000
0000
0010
,  // measure 26
0010
0010
0100
0010
,  // measure 27
0100
0000
0000
0000
,  // measure 28
1000
0100
0010
0001
,  // measure 29
0002
0000
0000
0003
,  // measure 30
2000
0000
0000
3000
,  // measure 31
0020
0000
0000
0030
,  // measure 32
0200
0000
0000
0300
,  // measure 33
0020
0000
0000
0030
,  // measure 34
2000
0000
0000
3000
,  // measure 35
0002
0000
0000
0003
,  // measure 36
0020
0000
0000
0030
,  // measure 37
0001
0010
0100
0000
,  // measure 38
2000
0000
3100
0000
,  // measure 39
1000
0001
0100
0000
,  // measure 40
0020
0000
0130
0000
,  // measure 41
0100
0010
1000
0000
,  // measure 42
2000
0000
3100
0000
,  // measure 43
0100
0010
0001
0000
,  // measure 44
0002
0000
1003
0000
,  // measure 45
0001
0100
1000
0000
,  // measure 46
2000
0000
3100
0000
,  // measure 47
1000
0010
0100
0000
,  // measure 48
0200
0000
0310
0000
,  // measure 49
1000
0100
0010
0000
,  // measure 50
0002
0000
0013
0000
,  // measure 51
1000
0100
0010
0001
,  // measure 52
1000
0000
1001
0000
,  // measure 53
0020
0000
0000
0030
,  // measure 54
0010
0100
0110
0000
,  // measure 55
0200
0000
0000
0300
,  // measure 56
0010
0100
0110
0000
,  // measure 57
2000
0000
0000
3000
,  // measure 58
1000
0001
1001
0000
,  // measure 59
0002
0000
0000
0003
,  // measure 60
1000
0001
1001
0000
,  // measure 61
0100
0000
0000
0000
;
