#TITLE:One Love;
#SUBTITLE:;
#ARTIST:David Guetta feat. Estelle;
#TITLETRANSLIT:;
#SUBTITLETRANSLIT:;
#ARTISTTRANSLIT:;
#GENRE:;
#CREDIT:Chewphoria~;
#MENUCOLOR:;
#METERTYPE:DDR;
#BANNER:One Love.PNG;
#BACKGROUND:One Love-bg.PNG;
#LYRICSPATH:;
#CDTITLE:;
#MUSIC:One Love.mp3;
#OFFSET:-7.667;
#SAMPLESTART:68.141;
#SAMPLELENGTH:12.000;
#SELECTABLE:YES;
#LISTSORT:;
#BPMS:0.000=126.010;
#STOPS:;
#BGCHANGES:;
#ATTACKS:;

//---------------dance-single - Chewphoria~----------------
#NOTES:
     dance-single:
     Chewphoria~:
     Hard:
     7:
     0.206,0.234,0.048,0.115,0.000: // measure 1
1000
0000
0000
0010
0000
0000
0000
0100
,  // measure 2
0000
0000
0001
2000
,  // measure 3
3000
0000
0000
0000
,  // measure 4
0000
0000
0000
0000
,  // measure 5
0001
0000
0000
0010
0000
0000
0000
0100
,  // measure 6
0000
0000
1000
0002
,  // measure 7
0003
0000
0000
0000
,  // measure 8
0000
0000
0000
0000
,  // measure 9
0010
0000
1000
0100
,  // measure 10
0000
0001
0100
0000
,  // measure 11
0010
0000
1000
0010
,  // measure 12
0000
0001
0010
0000
,  // measure 13
2000
0000
0001
3001
,  // measure 14
0000
0000
0000
0000
,  // measure 15
0020
0000
0001
0031
,  // measure 16
0000
0000
0000
0000
,  // measure 17
0001
0000
0000
0000
1000
0000
0001
0001
,  // measure 18
0100
0000
0010
1000
,  // measure 19
0001
0000
0000
0000
1000
1000
0100
0000
,  // measure 20
0011
0000
0000
0000
0001
0000
0010
0100
,  // measure 21
0100
0000
0000
0000
1000
0000
0001
1000
,  // measure 22
1000
0000
0010
0100
,  // measure 23
0001
1000
0100
0010
,  // measure 24
0001
0000
1000
0100
,  // measure 25
0010
0000
0100
0100
,  // measure 26
0100
0000
0010
0001
,  // measure 27
0100
0000
0010
0010
,  // measure 28
0010
0000
1000
0100
,  // measure 29
0010
0010
1000
1000
,  // measure 30
0010
0010
1000
1000
,  // measure 31
0200
0000
1000
0000
,  // measure 32
0001
0000
1300
0000
,  // measure 33
1000
1000
0010
0000
0100
0000
0000
0000
,  // measure 34
0102
0000
0103
0000
,  // measure 35
0001
0001
0100
0000
2100
0000
0000
0000
,  // measure 36
3100
0000
0100
0000
,  // measure 37
1000
1000
0100
0000
0012
0000
0000
0000
,  // measure 38
0013
0000
0010
0000
,  // measure 39
0010
0010
0001
0000
0102
0000
0000
0000
,  // measure 40
0103
0000
0100
0000
,  // measure 41
0010
0010
0010
0000
,  // measure 42
2000
0001
3001
0000
,  // measure 43
0100
0100
0100
0000
,  // measure 44
0002
1000
1003
0000
,  // measure 45
1000
1000
1000
0000
0001
0000
0010
0000
,  // measure 46
0100
1000
0100
0010
,  // measure 47
0001
0001
0001
0000
0100
0000
1000
0000
,  // measure 48
0010
0001
0010
0100
,  // measure 49
2000
0000
0000
0000
,  // measure 50
3000
0000
0000
0000
;

//---------------dance-single - Chewphoria~----------------
#NOTES:
     dance-single:
     Chewphoria~:
     Beginner:
     1:
     0.078,0.138,0.029,0.000,0.000: // measure 1
1000
0000
0000
0000
,  // measure 2
0001
0000
0000
0010
,  // measure 3
0000
0000
0000
0000
,  // measure 4
0000
0000
0000
0000
,  // measure 5
0100
0000
0000
0000
,  // measure 6
0100
0000
0000
0001
,  // measure 7
0000
0000
0000
0000
,  // measure 8
0000
0000
0000
0000
,  // measure 9
0001
0000
0000
0000
,  // measure 10
0100
0000
0000
0000
,  // measure 11
1000
0000
0000
0000
,  // measure 12
0010
0010
0000
0000
,  // measure 13
1001
0000
0000
0000
,  // measure 14
0100
0010
0000
0000
,  // measure 15
1001
0000
0000
0000
,  // measure 16
0010
0100
0000
0000
,  // measure 17
1000
0000
0000
0000
,  // measure 18
0001
0000
0000
0000
,  // measure 19
0100
0000
0000
0000
,  // measure 20
0010
0000
0000
0000
,  // measure 21
0100
0000
0000
0000
,  // measure 22
0001
0000
0000
0000
,  // measure 23
1000
0000
0000
0000
,  // measure 24
0100
0000
0000
0000
,  // measure 25
0010
0000
0000
0000
,  // measure 26
0100
0000
0000
0000
,  // measure 27
1000
0000
0000
0000
,  // measure 28
0001
0000
0000
0000
,  // measure 29
0100
0000
0000
0000
,  // measure 30
0010
0000
0000
0000
,  // measure 31
1000
0000
0000
0000
,  // measure 32
1001
0000
0000
0000
,  // measure 33
1000
0001
0000
0000
,  // measure 34
0000
0000
0000
0000
,  // measure 35
0001
1000
0000
0000
,  // measure 36
0000
0000
0000
0000
,  // measure 37
0100
0010
0000
0000
,  // measure 38
0000
0000
0000
0000
,  // measure 39
0010
0100
0000
0000
,  // measure 40
0000
0000
0000
0000
,  // measure 41
0100
0001
0100
0000
,  // measure 42
0000
0000
0000
0000
,  // measure 43
0100
1000
0100
0000
,  // measure 44
0000
0000
0000
0000
,  // measure 45
0010
0001
0010
0000
,  // measure 46
0000
0000
0000
0000
,  // measure 47
0100
0010
0001
0000
,  // measure 48
0000
0000
0000
0000
,  // measure 49
1000
0000
0000
0000
;

//---------------dance-single - Chewphoria~----------------
#NOTES:
     dance-single:
     Chewphoria~:
     Easy:
     3:
     0.128,0.164,0.038,0.124,0.000: // measure 1
1000
0000
0000
0000
,  // measure 2
0001
0000
0100
0010
,  // measure 3
0000
0000
0000
0000
,  // measure 4
0000
0000
0000
0000
,  // measure 5
0100
0000
0010
0000
,  // measure 6
0100
0000
1000
0001
,  // measure 7
0000
0000
0000
0000
,  // measure 8
0000
0000
0000
0000
,  // measure 9
1001
0000
0000
0000
,  // measure 10
0100
0100
0000
0000
,  // measure 11
1001
0000
0000
0000
,  // measure 12
0010
0010
0000
0000
,  // measure 13
1001
0000
0000
0000
,  // measure 14
0100
0010
0000
0000
,  // measure 15
1001
0000
0000
0000
,  // measure 16
0010
0100
0000
0000
,  // measure 17
2000
0000
0000
0001
,  // measure 18
3002
0000
0000
0100
,  // measure 19
0203
0000
0000
0010
,  // measure 20
0320
0000
0000
0100
,  // measure 21
0230
0000
0000
0001
,  // measure 22
0302
0000
0000
1000
,  // measure 23
2003
0000
0000
0100
,  // measure 24
3200
0000
0000
0000
,  // measure 25
0310
0010
0000
0000
,  // measure 26
0100
0100
0000
0000
,  // measure 27
1000
1000
0000
0000
,  // measure 28
0001
0001
0000
0000
,  // measure 29
0200
0000
0000
0000
,  // measure 30
0020
0000
0000
0300
,  // measure 31
2000
0000
0000
0030
,  // measure 32
0002
0000
0000
3003
,  // measure 33
1000
0100
0100
0000
,  // measure 34
0000
0000
0000
0000
,  // measure 35
0001
0010
0010
0000
,  // measure 36
0000
0000
0000
0000
,  // measure 37
0100
0010
0010
0000
,  // measure 38
0000
0000
0000
0000
,  // measure 39
1000
0001
0001
0000
,  // measure 40
0000
0000
0000
1000
,  // measure 41
0100
0001
0100
0000
,  // measure 42
0000
0000
0000
0001
,  // measure 43
0100
1000
0100
0000
,  // measure 44
0000
0000
0000
1000
,  // measure 45
0010
0001
0010
0000
,  // measure 46
0000
0000
0000
1000
,  // measure 47
0100
0010
0001
0000
,  // measure 48
0000
0000
0000
0000
,  // measure 49
2000
0000
0000
0000
,  // measure 50
3000
0000
0000
0000
;

//---------------dance-single - Chewphoria~----------------
#NOTES:
     dance-single:
     Chewphoria~:
     Medium:
     5:
     0.179,0.234,0.067,0.048,0.000: // measure 1
1000
0000
1000
0000
,  // measure 2
0001
1000
0010
0020
,  // measure 3
0030
0000
0000
0000
,  // measure 4
0000
0000
0000
0000
,  // measure 5
0100
0000
0000
0000
,  // measure 6
0100
0001
1000
0020
,  // measure 7
0030
0000
0000
0000
,  // measure 8
0000
0000
0000
0000
,  // measure 9
1000
0000
0100
0000
0001
0100
0001
0000
,  // measure 10
0000
0000
0000
0000
,  // measure 11
0001
0000
0100
0000
1000
0100
1000
0000
,  // measure 12
0000
0000
0000
0000
,  // measure 13
1000
0010
0100
0001
,  // measure 14
0000
0000
0000
0000
,  // measure 15
0001
1000
0001
0100
,  // measure 16
0010
0010
0010
0000
,  // measure 17
1000
0000
0010
0100
,  // measure 18
0010
0000
0000
0000
0100
0000
0001
0001
,  // measure 19
0001
0000
0000
0000
0100
0000
1000
1000
,  // measure 20
1000
0000
0000
0000
0010
0000
1000
1000
,  // measure 21
1000
0000
0000
0000
0010
0000
0001
0001
,  // measure 22
0001
0000
1000
1000
,  // measure 23
1000
0000
1001
1010
,  // measure 24
1001
0000
0001
0001
,  // measure 25
0001
0000
1001
0100
,  // measure 26
0010
0000
0001
0001
,  // measure 27
0001
0000
1001
0011
,  // measure 28
1001
0000
0000
0000
,  // measure 29
0100
0010
0100
0010
,  // measure 30
1000
0001
1000
0001
,  // measure 31
2000
0000
0000
0000
,  // measure 32
0002
0000
0000
3003
,  // measure 33
1000
0100
0010
0001
,  // measure 34
0000
0000
0000
0000
,  // measure 35
1000
0100
0010
0001
,  // measure 36
0000
0000
0000
0000
,  // measure 37
1000
0010
0100
0001
,  // measure 38
0000
0000
0000
0000
,  // measure 39
1000
0010
0100
0001
,  // measure 40
0000
0000
0000
0000
,  // measure 41
0010
0010
0010
0010
0010
0000
0000
0000
,  // measure 42
0000
0000
0000
0000
,  // measure 43
0100
0100
0100
0100
0100
0000
0000
0000
,  // measure 44
0000
0000
0000
0000
,  // measure 45
1000
0001
1000
0001
1000
0000
0000
0000
,  // measure 46
0000
0000
0000
0000
,  // measure 47
0001
1000
0001
1000
0001
0000
0000
0000
,  // measure 48
0000
0000
0000
0000
,  // measure 49
0020
1000
0000
1000
,  // measure 50
0030
0000
0000
0000
;
