#VERSION:0.82;
#TITLE:On the Floor (feat. Pitbull);
#SUBTITLE:;
#ARTIST:Jennifer Lopez;
#TITLETRANSLIT:;
#SUBTITLETRANSLIT:;
#ARTISTTRANSLIT:;
#GENRE:Dance;
#ORIGIN:;
#CREDIT:chewi;
#BANNER:On the Floor (feat. Pitbull).png;
#BACKGROUND:On the Floor (feat. Pitbull)-bg.png;
#PREVIEWVID:;
#JACKET:On the Floor (feat. Pitbull)-jacket.png;
#CDIMAGE:;
#DISCIMAGE:;
#LYRICSPATH:;
#CDTITLE:cdtitle.png;
#MUSIC:On the Floor (feat. Pitbull).ogg;
#OFFSET:-0.024000;
#SAMPLESTART:81.253998;
#SAMPLELENGTH:12.000000;
#SELECTABLE:YES;
#BPMS:0.000=130.000;
#STOPS:;
#DELAYS:;
#WARPS:;
#TIMESIGNATURES:0.000=4=4;
#TICKCOUNTS:0.000=4;
#COMBOS:0.000=1;
#SPEEDS:0.000=1.000=0.000=0;
#SCROLLS:0.000=1.000;
#FAKES:;
#LABELS:0.000=Song Start;
#BGCHANGES:0.000=On the Floor (feat. Pitbull).avi=1.000=1=0=0=StretchNoLoop==CrossFade==,
204.000=On the Floor (feat. Pitbull)-bg.png=1.000=1=0=1===CrossFade==,
99999=-nosongbg-=1.000=0=0=0 // don't automatically add -songbackground-
;
#KEYSOUNDS:;
#ATTACKS:
;

//---------------dance-single - ----------------
#NOTEDATA:;
#CHARTNAME:;
#STEPSTYPE:dance-single;
#DESCRIPTION:;
#CHARTSTYLE:;
#DIFFICULTY:Beginner;
#METER:1;
#RADARVALUES:0.112601,0.154609,0.040421,0.080842,0.000000,66.000000,4.000000,8.000000,0.000000,0.000000,0.000000,0.000000,0.000000,0.112601,0.154609,0.040421,0.080842,0.000000,66.000000,4.000000,8.000000,0.000000,0.000000,0.000000,0.000000,0.000000;
#CREDIT:;
#NOTES:
// measure 0
0000
0000
0000
0000
,  // measure 1
0000
0000
0000
0000
,  // measure 2
0000
0000
0000
0000
,  // measure 3
0000
0000
0000
0000
,  // measure 4
2000
0000
0000
3000
,  // measure 5
1000
0000
0000
0000
,  // measure 6
0002
0000
0000
0003
,  // measure 7
0001
0000
0000
0000
,  // measure 8
0020
0000
0000
0030
,  // measure 9
0010
0000
0000
0000
,  // measure 10
0200
0000
0000
0300
,  // measure 11
0100
0000
0000
0000
,  // measure 12
0110
0000
0000
0000
,  // measure 13
0010
0000
0000
0000
,  // measure 14
1000
0000
1000
0000
,  // measure 15
1000
0000
1000
0000
,  // measure 16
1000
0000
0001
0000
,  // measure 17
1000
0000
0001
0000
,  // measure 18
0001
0000
0001
0000
,  // measure 19
0001
0000
0001
0000
,  // measure 20
0100
0000
0100
0000
,  // measure 21
0010
0000
0010
0000
,  // measure 22
0010
0000
0000
0000
,  // measure 23
0100
0000
0000
0000
,  // measure 24
1000
0000
1000
0000
,  // measure 25
0001
0000
0001
0000
,  // measure 26
1000
0000
1000
0000
,  // measure 27
0001
0000
0001
0000
,  // measure 28
0100
0000
0100
0000
,  // measure 29
0010
0000
0010
0000
,  // measure 30
0010
0000
0000
0000
,  // measure 31
0010
0000
0000
0000
,  // measure 32
0100
0000
0000
0000
,  // measure 33
0100
0000
0000
0000
,  // measure 34
0200
0000
0000
0000
,  // measure 35
0000
0000
0000
0300
,  // measure 36
0100
0000
0000
0000
,  // measure 37
0100
0000
0000
0000
,  // measure 38
0020
0000
0000
0000
,  // measure 39
0000
0000
0000
0030
,  // measure 40
0010
0000
0000
0000
,  // measure 41
0010
0000
0000
0000
,  // measure 42
1001
0000
0000
0000
,  // measure 43
1000
0000
0000
0000
,  // measure 44
2000
0000
0000
3000
,  // measure 45
1000
1000
1000
1000
,  // measure 46
1000
0000
0000
0000
,  // measure 47
1001
0000
0000
0000
,  // measure 48
0002
0000
0000
0003
,  // measure 49
0001
0001
0001
0001
,  // measure 50
0001
0000
0000
0000
,  // measure 51
1001
0000
0000
0000
;

//---------------dance-single - ----------------
#NOTEDATA:;
#CHARTNAME:;
#STEPSTYPE:dance-single;
#DESCRIPTION:;
#CHARTSTYLE:;
#DIFFICULTY:Easy;
#METER:4;
#RADARVALUES:0.184781,0.206146,0.040421,0.191999,0.000000,105.000000,4.000000,19.000000,0.000000,0.000000,0.000000,0.000000,0.000000,0.184781,0.206146,0.040421,0.191999,0.000000,105.000000,4.000000,19.000000,0.000000,0.000000,0.000000,0.000000,0.000000;
#CREDIT:;
#NOTES:
0000
0000
0000
0000
,
0000
0000
0000
0000
,
0000
0000
0000
0000
,
0000
0000
0000
0000
,
1000
1000
0100
0000
,
0001
0001
0100
0000
,
1000
1000
0010
0000
,
0001
0001
0010
0000
,
0010
0100
0010
0000
,
0100
0010
0100
0000
,
0010
0001
0010
0000
,
0100
1000
0100
0000
,
2002
0000
0000
3000
,
0200
0000
0000
0303
,
0100
0100
0100
0100
,
0200
0000
0000
0300
,
0010
0010
0010
0010
,
0020
0000
0000
0030
,
1000
1000
1000
1000
,
2000
0000
0000
3000
,
0002
0000
0000
0003
,
1000
0001
1000
0000
,
2002
0000
0000
3000
,
0020
0000
0000
0033
,
0001
0010
0001
0010
,
0002
0000
0000
1003
,
1000
0100
1000
0100
,
2000
0000
0000
3001
,
0100
0010
0100
0010
,
2000
0000
0000
3010
,
0010
0000
0100
0000
,
0010
0000
0100
0000
,
0010
0100
0010
0100
,
0001
1000
0001
1000
,
2000
0000
0000
3000
,
0002
0000
0000
0000
,
0200
0000
0000
0303
,
0100
0000
0000
0000
,
0200
0000
0000
0300
,
0020
0000
0000
0000
,
2000
0000
0000
3030
,
1000
0000
0000
0000
,
0001
0000
0000
0000
,
1000
0000
0000
0000
,
0001
0010
1000
0000
,
0001
0001
1000
1000
,
0001
0000
0000
0000
,
1001
0000
0000
0000
,
1000
0100
0001
0000
,
1000
1000
0001
0001
,
1000
0000
0000
0000
,
1001
0000
0000
0000
;

//---------------dance-single - ----------------
#NOTEDATA:;
#CHARTNAME:;
#STEPSTYPE:dance-single;
#DESCRIPTION:;
#CHARTSTYLE:;
#DIFFICULTY:Medium;
#METER:6;
#RADARVALUES:0.248299,0.261472,0.080842,0.171788,0.035368,147.000000,8.000000,17.000000,0.000000,0.000000,0.000000,0.000000,0.000000,0.248299,0.261472,0.080842,0.171788,0.035368,147.000000,8.000000,17.000000,0.000000,0.000000,0.000000,0.000000,0.000000;
#CREDIT:;
#NOTES:
0000
0000
0000
0000
,
0000
0000
0000
0000
,
0000
0000
0000
0000
,
0000
0000
0000
0000
,
1000
1000
0100
0100
,
0010
0010
0001
0001
,
1000
1000
0010
0010
,
0100
0100
0001
0001
,
0100
0010
1000
0001
,
0010
0100
1000
0001
,
1000
0100
0010
0001
,
1000
0010
0100
0001
,
0202
0000
0000
0300
,
2000
0000
0000
3003
,
1000
1000
0001
0001
,
1000
0000
0000
1000
0000
0000
1000
0000
1000
0000
0000
0000
0000
0000
0000
0000
,
0100
0010
0100
0010
,
0001
0000
0000
0001
0000
0000
0001
0000
0001
0000
0000
0000
0000
0000
0000
0000
,
0001
0010
0100
1000
,
0100
0000
0000
0100
0000
0000
0100
0000
0100
0000
0000
0000
1000
0000
0000
0000
,
0001
1000
0001
0000
1000
0000
1000
0000
,
0001
1000
0001
0000
1001
0000
0000
0000
,
0120
0000
0000
0000
,
2000
0000
0000
3030
,
1000
0001
0010
0100
,
0010
0000
0000
0010
0000
0000
0010
0000
0010
0000
0000
0000
0000
0000
0000
0000
,
0001
0010
0100
1000
,
0001
0000
0000
0001
0000
0000
0001
0000
0001
0000
0000
0000
0000
0000
0000
0000
,
1000
0010
0100
0001
,
0100
0000
0000
0100
0000
0000
0100
0000
0100
0000
0000
0000
0000
0000
0000
0000
,
0010
0000
0110
0000
,
0100
0010
1001
0000
,
1000
0100
0010
0001
,
1000
0100
0010
0001
1000
0000
0000
0000
,
0002
0000
0000
0000
,
0203
0000
0000
0000
,
0020
0000
0000
0330
,
0110
0000
0000
0000
,
0020
0000
0000
0000
,
2030
0000
0000
0000
,
0002
0000
0000
3003
,
1001
0000
0000
0000
,
0010
0010
0010
0010
,
0100
0100
0100
0100
,
0020
0000
0032
0000
,
0013
0100
1000
0001
,
1000
0000
0001
1000
,
0010
0000
0000
0010
0000
0000
0010
0000
0010
0000
0000
0000
0000
0000
0000
0000
,
0200
0000
0320
0000
,
1030
0010
0100
0001
,
1000
0000
0001
0010
,
0220
0000
0000
0330
;

//---------------dance-single - ----------------
#NOTEDATA:;
#CHARTNAME:;
#STEPSTYPE:dance-single;
#DESCRIPTION:;
#CHARTSTYLE:;
#DIFFICULTY:Hard;
#METER:12;
#RADARVALUES:0.434523,0.401555,0.181894,0.232419,0.252630,260.000000,18.000000,23.000000,0.000000,7.000000,0.000000,0.000000,0.000000,0.434523,0.401555,0.181894,0.232419,0.252630,260.000000,18.000000,23.000000,0.000000,7.000000,0.000000,0.000000,0.000000;
#CREDIT:;
#OFFSET:-0.024000;
#BPMS:0.000000=130.000000
,136.000000=65.000000
,156.000000=130.000000
;
#STOPS:;
#DELAYS:;
#WARPS:;
#TIMESIGNATURES:0.000000=4=4
;
#TICKCOUNTS:0.000000=4
;
#COMBOS:0.000000=1
;
#SPEEDS:0.000000=1.000000=0.000000=0
;
#SCROLLS:0.000000=1.000000
;
#FAKES:;
#LABELS:0.000000=Song Start
;
#NOTES:
0000
0000
0000
0000
,
0000
0000
0000
0000
,
0000
0000
0000
0000
,
0000
0000
0000
0000
,
1000
0100
1000
0000
0100
0010
0100
0000
,
0010
0001
0010
0000
0001
0010
0100
1000
,
0100
1000
0100
0000
1000
0001
1000
0000
,
0001
0100
0001
0000
0100
0010
1000
0001
,
1000
0100
0010
0000
0001
1000
0100
0000
,
1000
0001
0010
0000
0100
0010
0100
0001
,
0100
1000
0100
0000
1000
0100
1000
0000
,
0001
0010
0001
0000
0010
0100
1000
0001
,
0001
0000
0000
1000
0000
0000
0010
0000
1000
0000
0000
0001
0000
0000
0010
0000
,
0200
0001
1000
0310
,
0001
0000
0000
0101
0000
0000
0100
0000
0010
0000
0000
1010
0000
0000
0001
0000
,
1000
0000
0000
0100
0000
0000
0020
0000
0002
0000
0000
0000
1033
0000
0000
0000
,
1000
0000
0000
1001
0000
0000
0010
0000
0100
0000
0000
1001
0000
0000
0001
0000
,
0100
0000
0000
0010
0000
0000
2000
0000
0002
0000
0000
0000
3103
0000
0000
0000
,
0100
0000
0000
0110
0000
0000
1000
0000
0001
0000
0000
0011
0000
0000
0100
0000
,
1000
0000
0000
0001
0000
0000
0100
0000
0001
0000
0000
0010
0000
0000
0100
0000
,
1000
0000
0000
0010
0000
0000
0100
0000
0001
0000
0000
0100
0000
0000
0010
0000
,
1010
0000
0000
1100
0000
0000
1000
0000
0101
0000
0000
0011
0000
0000
0001
0000
,
1000
0000
0000
1000
0000
0000
1000
0000
1000
0000
0000
1000
0000
0000
1000
0000
,
0001
0000
0000
0001
0000
0000
0001
0000
0001
0000
0000
0001
0000
0000
0001
0000
,
1000
0000
0000
1010
0000
0000
0010
0000
0100
0000
0000
0101
0000
0000
1000
0000
,
0001
0000
0000
0010
0000
0000
0200
0000
0020
0000
0000
0000
0331
0000
0000
0000
,
0001
0000
0000
1001
0000
0000
0100
0000
0010
0000
0000
1001
0000
0000
1000
0000
,
0010
0000
0000
0100
0000
0000
0002
0000
2000
0000
0000
0000
3103
0000
0000
0000
,
0010
0000
0000
0110
0000
0000
0001
0000
1000
0000
0000
1100
0000
0000
0010
0000
,
0001
0000
0000
1000
0000
0000
0010
0000
1000
0000
0000
0100
0000
0000
1000
0000
,
0100
0000
0000
0001
0010
1000
0000
0000
,
0100
0001
0010
0001
0100
1000
0000
0000
,
0010
0000
0100
0001
0100
0010
1000
0000
,
0001
1000
0100
0020
0002
1033
0000
0000
,
1000
0000
0000
0010
1000
0100
0010
0000
0001
0010
0100
1000
0001
0100
0010
0100
,
0200
0020
0000
0330
0000
0000
0000
0000
,
0001
0000
0000
0100
0001
0010
0100
0000
1000
0100
0010
0001
1000
0010
0100
0010
,
0020
0200
0000
0330
0000
0000
0000
0000
,
0001
0000
0000
0001
0000
0000
0001
0000
0000
0000
0001
0000
0000
0000
0000
0000
1000
0000
0000
1000
0000
0000
1000
0000
0000
0000
1000
0000
0000
0000
0000
0000
,
2002
0000
3003
0000
0100
0010
0100
0000
,
0010
1000
0001
0100
1000
0010
0001
0100
,
1000
0000
0000
0010
0100
0001
1000
0100
,
0010
0000
0000
0100
0000
0000
0020
0000
0002
0000
0000
0000
0133
0000
0000
0000
,
2002
0000
3003
0000
0010
0100
0010
0000
,
0100
0001
1000
0010
0001
0100
1000
0010
,
0001
0000
0000
0100
0010
1000
0001
0010
,
0100
0000
0000
0010
0000
0000
0200
0000
2000
0000
0000
0000
3301
0000
0000
0000
;
