#VERSION:0.83;
#TITLE:Ode to the Bouncer;
#SUBTITLE:;
#ARTIST:Studio Killers;
#TITLETRANSLIT:;
#SUBTITLETRANSLIT:;
#ARTISTTRANSLIT:;
#GENRE:Synthpop;
#ORIGIN:;
#CREDIT:chewi;
#BANNER:Ode to the Bouncer.png;
#BACKGROUND:Ode to the Bouncer-bg.png;
#PREVIEWVID:;
#JACKET:Ode to the Bouncer-jacket.png;
#CDIMAGE:;
#DISCIMAGE:;
#LYRICSPATH:;
#CDTITLE:cdtitle.png;
#MUSIC:Ode to the Bouncer.ogg;
#OFFSET:-0.038000;
#SAMPLESTART:35.160000;
#SAMPLELENGTH:15.000000;
#SELECTABLE:YES;
#BPMS:0.000=123.000;
#STOPS:;
#DELAYS:;
#WARPS:;
#TIMESIGNATURES:0.000=4=4;
#TICKCOUNTS:0.000=4;
#COMBOS:0.000=1;
#SPEEDS:0.000=1.000=0.000=0;
#SCROLLS:0.000=1.000;
#FAKES:;
#LABELS:0.000=Song Start;
#BGCHANGES:-0.200=Ode to the Bouncer.avi=1.000=1=0=0=StretchNoLoop==CrossFade==,
99999=-nosongbg-=1.000=0=0=0 // don't automatically add -songbackground-
;
#KEYSOUNDS:;
#ATTACKS:
;

//---------------dance-single - ----------------
#NOTEDATA:;
#CHARTNAME:;
#STEPSTYPE:dance-single;
#DESCRIPTION:;
#CHARTSTYLE:;
#DIFFICULTY:Beginner;
#METER:1;
#RADARVALUES:0.082586,0.150612,0.098886,0.045640,0.000000,76.000000,63.000000,13.000000,6.000000,0.000000,0.000000,0.000000,0.000000,0.000000,0.082586,0.150612,0.098886,0.045640,0.000000,76.000000,63.000000,13.000000,6.000000,0.000000,0.000000,0.000000,0.000000,0.000000;
#CREDIT:;
#NOTES:
// measure 0
0000
0000
0000
0000
,  // measure 1
0000
0000
0000
0000
,  // measure 2
1000
0000
0000
0000
,  // measure 3
0100
0000
0000
0000
,  // measure 4
0001
0000
0000
0000
,  // measure 5
0100
0000
0000
0000
,  // measure 6
1000
0000
0000
0000
,  // measure 7
0010
0000
0000
0000
,  // measure 8
0001
0000
0000
0000
,  // measure 9
0010
0000
0000
0000
,  // measure 10
0100
0000
0000
0000
,  // measure 11
0100
0000
0000
0000
,  // measure 12
0010
0000
0000
0000
,  // measure 13
0010
0000
0000
0000
,  // measure 14
0001
0000
0000
0000
,  // measure 15
0001
0000
0000
0000
,  // measure 16
1000
0000
0000
0000
,  // measure 17
1000
0000
0000
0000
,  // measure 18
2000
0000
0000
0000
,  // measure 19
0000
0000
0000
3000
,  // measure 20
1000
0000
0000
1000
,  // measure 21
1000
0000
0000
0000
,  // measure 22
0002
0000
0000
0000
,  // measure 23
0000
0000
0000
0003
,  // measure 24
0001
0001
0000
0000
,  // measure 25
0001
0000
0000
0000
,  // measure 26
1001
0000
0000
0000
,  // measure 27
0110
0000
0000
0000
,  // measure 28
1001
0000
0000
0000
,  // measure 29
0110
0000
0000
0000
,  // measure 30
1001
0000
0000
0000
,  // measure 31
1000
0000
0000
0000
,  // measure 32
0001
0000
0000
0000
,  // measure 33
0001
0000
0000
0000
,  // measure 34
0020
0000
0000
0000
,  // measure 35
0000
0000
0000
0030
,  // measure 36
0010
0010
0000
0000
,  // measure 37
0000
0000
0000
0000
,  // measure 38
0200
0000
0000
0000
,  // measure 39
0000
0000
0000
0300
,  // measure 40
0100
0100
0000
0000
,  // measure 41
0000
0000
0000
0000
,  // measure 42
1000
0000
0000
0000
,  // measure 43
0010
0000
0000
0000
,  // measure 44
0001
0000
0000
0000
,  // measure 45
0100
0000
0000
0000
,  // measure 46
1000
0000
0000
0000
,  // measure 47
0010
0000
0000
0000
,  // measure 48
0001
0000
0000
0000
,  // measure 49
0010
0000
0000
0000
,  // measure 50
0200
0000
0000
0000
,  // measure 51
0000
0000
0000
0300
,  // measure 52
0100
0100
0000
0000
,  // measure 53
0100
0000
0000
0000
,  // measure 54
0020
0000
0000
0000
,  // measure 55
0000
0000
0000
0030
,  // measure 56
0010
0010
0000
0000
,  // measure 57
0010
0000
0000
0000
,  // measure 58
1001
0000
0000
0000
,  // measure 59
1001
0000
0000
0000
,  // measure 60
0110
0000
0000
0000
,  // measure 61
0110
0000
0000
0000
,  // measure 62
1001
0000
0000
0000
,  // measure 63
0110
0000
0000
0000
,  // measure 64
1001
0000
0000
0000
,  // measure 65
0110
0000
0000
0000
,  // measure 66
1000
0000
0000
0000
;

//---------------dance-single - ----------------
#NOTEDATA:;
#CHARTNAME:;
#STEPSTYPE:dance-single;
#DESCRIPTION:;
#CHARTSTYLE:;
#DIFFICULTY:Easy;
#METER:4;
#RADARVALUES:0.116273,0.175713,0.068460,0.121706,0.000000,107.000000,98.000000,9.000000,16.000000,0.000000,0.000000,0.000000,0.000000,0.000000,0.116273,0.175713,0.068460,0.121706,0.000000,107.000000,98.000000,9.000000,16.000000,0.000000,0.000000,0.000000,0.000000,0.000000;
#CREDIT:;
#NOTES:
0000
0000
0000
0000
,
0000
0000
0000
0000
,
1000
0000
0000
0000
,
0001
0000
0000
0000
,
1000
0000
0000
0000
,
0001
0000
0001
0000
,
0010
0000
0000
0000
,
0100
0000
0000
0000
,
0010
0000
0000
0000
,
0100
0000
0100
0000
,
2000
0000
0000
3000
,
1000
1000
1000
0000
,
0002
0000
0000
0003
,
0001
0001
0001
0000
,
0200
0000
0000
0300
,
0100
0100
0100
0000
,
0020
0000
0000
0030
,
0010
0010
0010
0000
,
2000
0000
0000
0000
,
0100
0000
0000
0000
,
0010
0000
0000
0100
,
0200
0000
0000
3300
,
0002
0000
0000
0000
,
0010
0000
0000
0000
,
0100
0000
0000
0010
,
0020
0000
0000
0033
,
1001
0000
0000
0000
,
1000
1000
0000
0000
,
1001
0000
0000
0000
,
0001
0001
0001
0000
,
0110
0000
0000
0000
,
0100
0100
0000
0000
,
0110
0000
0000
0000
,
0010
0010
0010
0000
,
2000
0000
0000
0000
,
0001
0000
0000
0000
,
0010
0000
0000
0001
,
0002
0000
0000
3003
,
0002
0000
0000
0000
,
1000
0000
0000
0000
,
0010
0000
0000
1000
,
2000
0000
0000
3003
,
1001
0000
0000
0000
,
0001
0000
0100
0000
,
0100
0000
0000
0000
,
1000
0000
0100
0000
,
0100
0000
0000
0000
,
0001
0000
0010
0000
,
0010
0000
0000
0000
,
1000
0000
0010
0000
,
0020
0000
0000
0000
,
0100
0000
0000
0000
,
1000
0000
0000
0100
,
0200
0000
0000
0330
,
0200
0000
0000
0000
,
0010
0000
0000
0000
,
0001
0000
0000
0010
,
0020
0000
0000
0330
,
1001
0000
0000
0000
,
0001
0001
0000
0000
,
1001
0000
0000
0000
,
1000
1000
1000
0000
,
0110
0000
0000
0000
,
0100
0100
0000
0000
,
0110
0000
0000
0000
,
0010
0010
0010
0010
,
0010
0000
0000
0000
;

//---------------dance-single - ----------------
#NOTEDATA:;
#CHARTNAME:;
#STEPSTYPE:dance-single;
#DESCRIPTION:;
#CHARTSTYLE:;
#DIFFICULTY:Medium;
#METER:7;
#RADARVALUES:0.241239,0.301223,0.167346,0.076066,0.000000,222.000000,200.000000,22.000000,10.000000,0.000000,0.000000,0.000000,0.000000,0.000000,0.241239,0.301223,0.167346,0.076066,0.000000,222.000000,200.000000,22.000000,10.000000,0.000000,0.000000,0.000000,0.000000,0.000000;
#CREDIT:;
#NOTES:
0000
0000
0000
0000
,
0000
0000
0000
0000
,
1000
0000
0001
0010
,
0100
0000
1000
0010
,
0100
0001
0010
0100
,
1000
0001
0010
0100
,
1000
0000
0001
0010
,
0100
0000
1000
0010
,
0100
0000
0001
1000
,
0100
0010
0100
1000
,
0001
0000
0100
0010
,
1000
0000
0001
0100
,
0010
0000
1000
0001
,
0010
0100
0010
0001
,
1000
0100
1000
0000
,
0001
0100
0001
0000
,
0100
0010
0100
0000
,
0010
0000
0010
0000
0010
0000
0010
0100
,
0020
0000
0100
0000
1000
0000
1030
0001
,
2000
0001
0100
3001
,
1001
1000
0000
1001
,
0001
0000
0100
0000
,
0020
0000
0100
0000
0100
0000
0130
0001
,
2000
0010
0010
3100
,
0001
1000
0100
0000
0000
0000
0010
0000
,
0100
0000
0000
0100
1000
0000
0000
0000
,
1100
0000
0000
0000
,
1010
0000
0000
0000
,
0011
0000
0000
0000
,
0101
0100
0100
0100
,
0101
0000
0000
0000
,
0011
0000
0000
0000
,
1010
0000
0000
0000
,
1100
0100
0100
0100
,
2000
0000
0000
0000
0000
0000
3001
0010
,
0100
1000
0001
0100
,
0010
0100
0010
0000
0000
0000
0000
0000
,
0000
0000
0000
0000
,
0200
0000
0000
0000
0000
0310
1000
0001
,
1000
0001
0100
0001
,
1000
0001
1000
0000
0000
0000
0000
0000
,
0000
0000
0000
0000
,
1000
0100
0001
1000
,
0010
0000
0001
0000
1000
0001
1000
0000
,
0001
0100
1000
0001
,
0010
0000
1000
0000
0001
1000
0001
0000
,
1000
0100
0001
0010
,
1000
0000
0100
0000
0001
0100
1000
0000
,
0010
0001
0100
1000
,
0010
0000
0001
0000
0010
1000
0100
0000
,
2100
0001
0010
3001
,
0102
0100
0010
0013
,
0100
0001
0100
0000
0000
0000
1000
0000
,
0010
0000
0000
0100
0001
0000
0000
0000
,
0102
0010
1000
0103
,
2010
0001
0100
3001
,
0001
1000
0001
0000
0000
0000
1000
0000
,
0001
0000
0000
0010
0100
0000
0000
0000
,
1100
0000
0000
0000
,
0101
0000
0000
0000
,
0011
0000
0000
0000
,
1010
0010
0010
0010
,
0011
0000
0000
0000
,
0101
0000
0000
0000
,
1100
0000
0000
0000
,
1010
0010
0010
0010
,
0100
0000
0000
0000
;

//---------------dance-single - ----------------
#NOTEDATA:;
#CHARTNAME:;
#STEPSTYPE:dance-single;
#DESCRIPTION:;
#CHARTSTYLE:;
#DIFFICULTY:Hard;
#METER:11;
#RADARVALUES:0.405326,0.401631,0.197773,0.076066,0.083673,373.000000,347.000000,26.000000,10.000000,0.000000,0.000000,0.000000,0.000000,0.000000,0.405326,0.401631,0.197773,0.076066,0.083673,373.000000,347.000000,26.000000,10.000000,0.000000,0.000000,0.000000,0.000000,0.000000;
#CREDIT:;
#NOTES:
0000
0000
0000
0000
,
0000
0000
0000
0000
,
1000
0000
0000
1000
0001
0010
0100
1000
,
0001
0000
0000
0001
1000
0100
0010
0001
,
1000
0000
0000
0000
0001
0000
0100
0000
0010
0000
0000
0100
0000
0000
0001
0000
,
0010
0000
0000
0100
0000
0000
1000
0000
0010
0000
0000
1000
0000
0000
0100
0000
,
0010
0000
0000
0010
0100
1000
0001
0010
,
0100
0000
0000
0100
1000
0001
0100
0010
,
1000
0000
0000
0000
0000
0000
0000
1000
0001
0000
0100
0000
0010
0000
0100
0000
,
0001
0000
0000
1000
0000
0000
0000
0000
0001
0000
0000
1000
0100
0000
0010
0000
,
0001
0000
0000
0001
0000
0000
0001
0000
0010
0000
0100
0000
0010
0000
0001
0000
,
1000
0000
0000
1000
0000
0000
1000
0000
0100
0000
0010
0000
0100
0000
1000
0000
,
0010
0000
0000
0010
0000
0000
0010
0000
0100
0000
0001
0000
1000
0000
0010
0000
,
0100
0000
0000
0100
0000
0000
0100
0000
0010
0000
1000
0000
0100
0000
1000
0000
,
1000
0000
0000
1000
0000
0000
1000
0000
0001
0000
0010
0000
0100
0000
0010
0000
,
0001
0000
0000
0001
0000
0000
0001
0000
1000
0000
0100
0000
0010
0000
0001
0000
,
1000
0000
0000
1000
0000
0000
1000
0000
0010
0000
0100
0000
0010
0000
1000
0000
,
0010
0000
0000
0010
0000
0000
0010
0000
0100
0000
0001
0000
1000
0000
0001
0000
,
2001
0000
0100
0000
0001
0000
3010
0010
,
2001
0000
0010
0000
0001
0000
3100
0100
,
0110
0010
0001
1000
,
0001
0010
0100
1000
0001
0010
0001
0010
,
0012
0000
0100
0000
1000
0000
0013
0010
,
0012
0010
1000
0103
,
1001
0010
0100
0001
,
1000
0100
0010
0001
0100
0001
0100
0001
,
1000
0000
1001
0000
0000
0000
0000
0001
,
1000
1001
0000
0000
,
0100
0110
0000
0000
,
0110
1001
0110
1001
,
0100
1000
0100
0010
0100
1000
0100
0000
,
0010
0100
0010
0001
0010
0100
0010
0000
,
0001
1000
0010
1000
0001
0010
0001
0000
,
1000
0001
0010
0001
1000
0010
0001
0100
,
2000
0000
0000
0000
0000
0000
3001
0010
,
0100
1000
0010
0001
,
0100
1000
0010
0000
0000
0000
0000
0000
,
0000
0000
0000
0000
,
0200
0000
0000
0000
0000
0000
0301
1000
,
0001
0010
1000
0100
,
0001
0010
1000
0000
0000
0000
0000
0000
,
0000
0000
0000
0000
,
1000
0000
0000
1000
0000
0000
1000
0000
0100
0000
0010
0000
0100
0000
1000
0000
,
0001
0000
0000
0001
0000
0000
0001
0000
0010
0000
0100
0000
0010
0000
0001
0000
,
0100
0000
0000
0100
0000
0000
0100
0000
0010
0000
1000
0000
0001
0000
0100
0000
,
0010
0000
0000
0010
0000
0000
0010
0000
0100
0000
0001
0000
0010
0000
0001
0000
,
0001
0000
0000
0001
0000
0000
0001
0000
1000
0000
0100
0000
0010
0000
0100
0000
,
1000
0000
0000
1000
0000
0000
1000
0000
0001
0000
0010
0000
0100
0000
1000
0000
,
0001
0000
0000
0001
0000
0000
0001
0000
0100
0000
0010
0000
0100
0000
0001
0000
,
0100
0000
0000
0100
0000
0000
0100
0000
0010
0000
1000
0000
0001
0000
1000
0000
,
1002
0000
0010
0000
1000
0000
0103
0100
,
1002
0000
0100
0000
1000
0000
0013
0010
,
0110
0100
1000
0001
,
1000
0100
0010
0001
1000
0100
1000
0100
,
2100
0000
0010
0000
0001
0000
3100
0100
,
2100
0100
0001
3010
,
1001
0100
0010
1000
,
0001
0010
0100
1000
0010
1000
0010
1000
,
0001
0000
1001
0000
0000
0000
0000
1000
,
0001
1001
0000
0000
,
0010
0110
0000
0000
,
0110
1001
0110
1001
,
0010
0001
0010
0100
0010
0001
0010
0000
,
0100
0010
0100
1000
0100
0010
0100
0000
,
1000
0001
0100
0001
1000
0100
1000
0000
,
0001
1000
0100
1000
0001
0100
0001
0100
,
0100
0000
0000
0000
;
