#VERSION:0.83;
#TITLE:Ocean Blue Sky Orange;
#SUBTITLE:;
#ARTIST:capsule;
#TITLETRANSLIT:;
#SUBTITLETRANSLIT:;
#ARTISTTRANSLIT:;
#GENRE:;
#ORIGIN:;
#CREDIT:;
#BANNER:Ocean Blue Sky Orange.png;
#BACKGROUND:Ocean Blue Sky Orange-bg.png;
#PREVIEWVID:;
#JACKET:Ocean Blue Sky Orange-jacket.png;
#CDIMAGE:;
#DISCIMAGE:;
#LYRICSPATH:;
#CDTITLE:cdtitle.png;
#MUSIC:Ocean Blue Sky Orange.ogg;
#OFFSET:-0.492000;
#SAMPLESTART:25.573999;
#SAMPLELENGTH:12.000000;
#SELECTABLE:YES;
#BPMS:0.000=122.000;
#STOPS:;
#DELAYS:;
#WARPS:;
#TIMESIGNATURES:0.000=4=4;
#TICKCOUNTS:0.000=4;
#COMBOS:0.000=1;
#SPEEDS:0.000=1.000=0.000=0;
#SCROLLS:0.000=1.000;
#FAKES:;
#LABELS:0.000=Song Start;
#BGCHANGES:;
#KEYSOUNDS:;
#ATTACKS:
;

//---------------dance-single - ----------------
#NOTEDATA:;
#CHARTNAME:;
#STEPSTYPE:dance-single;
#DESCRIPTION:;
#CHARTSTYLE:;
#DIFFICULTY:Hard;
#METER:9;
#RADARVALUES:0.312264,0.388878,0.101667,0.127084,0.000000,172.000000,164.000000,8.000000,10.000000,0.000000,0.000000,0.000000,0.000000,0.000000,0.312264,0.388878,0.101667,0.127084,0.000000,172.000000,164.000000,8.000000,10.000000,0.000000,0.000000,0.000000,0.000000,0.000000;
#CREDIT:chewi;
#NOTES:
0000
0000
0000
0000
,
0000
0000
0000
0000
,
0000
0000
0000
0000
,
0000
0000
0000
0000
,
0000
0000
0000
1000
,
0100
0001
0100
1000
,
0010
0001
0010
0100
,
0100
0033
3001
1000
0010
0000
1000
0000
,
0100
0030
0001
1000
0001
0000
0010
0000
,
0001
0010
1000
0100
,
0001
0100
1000
0100
,
0100
0000
1000
0010
0100
0000
0001
0100
,
0001
0100
0010
1000
0010
1000
0102
0000
,
0010
0000
1000
0000
0103
0001
2001
0000
,
0010
0000
0001
0000
3100
1000
0100
0000
,
1000
0000
0010
0010
0100
0000
0001
0000
,
0010
0000
0100
0100
1000
0000
2100
0000
,
0100
0000
0001
0000
3010
1000
1002
0000
,
0100
0000
1000
0000
0013
0001
0010
0000
,
0100
0000
1000
1000
0100
0000
0100
0000
,
1000
0000
0010
0010
1000
1000
2010
0000
,
0100
0000
0001
0000
3010
1000
1002
0000
,
0100
0000
1000
0000
0013
0001
0010
0000
,
0001
0000
0100
0100
0010
0000
1000
0000
,
0100
0000
0010
0010
0001
0000
0012
0000
,
0010
0000
1000
0000
0103
0001
2001
0000
,
0010
0000
0001
0000
3100
1000
0100
0000
,
0010
0000
0001
0001
0010
0000
1000
1000
,
0010
0000
0100
0010
0100
0010
0100
0000
,
0001
0000
1000
0000
0010
0000
1000
0100
,
0010
0000
0100
0010
0001
0000
0100
0000
,
0010
0000
0001
0000
0010
0000
0100
0001
,
0100
0000
0001
0100
0001
0000
0100
0000
,
0010
0000
1000
0000
0001
0000
0001
0010
,
0100
0000
0010
0100
1000
0000
0100
0000
,
1000
0000
0010
0000
1000
0000
0010
0100
,
0001
0000
0001
0100
0010
2000
0002
0000
,
0000
0000
0000
0000
,
0000
3003
0000
0000
;

//---------------dance-single - ----------------
#NOTEDATA:;
#CHARTNAME:;
#STEPSTYPE:dance-single;
#DESCRIPTION:;
#CHARTSTYLE:;
#DIFFICULTY:Medium;
#METER:7;
#RADARVALUES:0.274139,0.291658,0.012708,0.076251,0.050834,151.000000,150.000000,1.000000,6.000000,0.000000,0.000000,0.000000,0.000000,0.000000,0.274139,0.291658,0.012708,0.076251,0.050834,151.000000,150.000000,1.000000,6.000000,0.000000,0.000000,0.000000,0.000000,0.000000;
#CREDIT:chewi;
#NOTES:
// measure 0
0000
0000
0000
0000
,  // measure 1
0000
0000
0000
0000
,  // measure 2
0000
0000
0000
0000
,  // measure 3
0000
0000
0000
0000
,  // measure 4
0000
0000
0000
1000
,  // measure 5
0310
0100
0001
0001
,  // measure 6
0010
0000
0100
0000
1000
0000
1000
0010
,  // measure 7
2000
0000
0010
0000
3010
0000
0100
0001
,  // measure 8
0200
0001
0301
0010
,  // measure 9
3001
1000
0100
0100
,  // measure 10
1000
0000
0001
0000
0010
0000
0010
0001
,  // measure 11
0020
0000
0001
0000
0031
0000
0100
1000
,  // measure 12
0200
0000
0000
0000
1000
0000
0000
0000
1300
0000
0000
0000
1000
0000
0000
1000
,  // measure 13
0010
0000
0000
0000
0100
0000
0000
0000
0001
0000
0000
0000
0100
0000
0000
0100
,  // measure 14
0001
0100
0010
1000
,  // measure 15
0100
0000
1000
0100
1000
0000
0010
0000
,  // measure 16
0001
0000
0000
0000
0010
0000
0001
0000
0010
0000
0000
0000
1000
0000
0000
1000
,  // measure 17
0100
0000
0000
0000
0010
0000
0000
0000
0100
0000
0000
0000
1000
0000
0000
1000
,  // measure 18
0010
0100
0001
1000
,  // measure 19
0100
0000
1000
0010
1000
0000
0001
0000
,  // measure 20
0010
0000
0000
0000
1000
0000
0010
0000
1000
0000
0000
0000
0001
0000
0000
0001
,  // measure 21
0100
0000
0000
0000
0010
0000
0000
0000
1000
0000
0000
0000
0010
0000
0000
0010
,  // measure 22
1000
0010
0100
0001
,  // measure 23
0010
0000
0001
0010
0001
0000
0100
0000
,  // measure 24
1000
0000
0000
0000
0100
0000
1000
0000
0100
0000
0000
0000
0001
0000
0000
0001
,  // measure 25
0010
0000
0000
0000
0100
0000
0000
0000
0010
0000
0000
0000
0001
0000
0000
0001
,  // measure 26
0100
0010
1000
0001
,  // measure 27
0010
0000
0001
0100
0001
0000
1000
0000
,  // measure 28
0100
0000
0001
0100
0001
0100
1000
0000
,  // measure 29
0010
0001
0010
0100
,  // measure 30
0001
0100
0001
0001
,  // measure 31
0010
1000
0010
0100
,  // measure 32
1000
0100
1000
0001
,  // measure 33
0010
0100
1000
1000
,  // measure 34
0010
0100
0001
0001
,  // measure 35
1000
0100
0010
0010
,  // measure 36
0010
0100
0100
2002
,  // measure 37
0000
0000
0000
0000
,  // measure 38
0000
3003
0000
0000
;

//---------------dance-single - ----------------
#NOTEDATA:;
#CHARTNAME:;
#STEPSTYPE:dance-single;
#DESCRIPTION:;
#CHARTSTYLE:;
#DIFFICULTY:Easy;
#METER:4;
#RADARVALUES:0.161578,0.218744,0.038125,0.076251,0.000000,89.000000,86.000000,3.000000,6.000000,0.000000,0.000000,0.000000,0.000000,0.000000,0.161578,0.218744,0.038125,0.076251,0.000000,89.000000,86.000000,3.000000,6.000000,0.000000,0.000000,0.000000,0.000000,0.000000;
#CREDIT:chewi;
#NOTES:
0000
0000
0000
0000
,
0000
0000
0000
0000
,
0000
0000
0000
0000
,
0000
0000
0000
0000
,
0000
0000
0000
1000
,
0000
0100
0000
0001
,
0000
0100
0000
0010
,
0010
0010
0000
0100
,
0100
0100
0000
1000
,
0000
0010
0000
0001
,
0000
0010
0000
0100
,
0100
0100
0000
0010
,
0010
0010
0000
2000
,
0100
0000
3100
0200
,
1000
0000
1300
0100
,
0000
0010
0000
0100
,
0000
1000
0000
0002
,
0100
0000
0103
0200
,
0001
0000
0301
0001
,
0000
0010
0000
0100
,
0000
1000
0001
1001
,
0000
0010
0000
0001
,
0000
0100
0000
0010
,
0000
1000
0000
0001
,
0000
1000
0001
1001
,
0000
0001
0000
0001
,
0100
0001
0000
0100
,
0000
0100
0000
0100
,
0010
0100
0000
0010
,
1000
0100
1000
0010
,
0000
1000
0000
0010
,
0100
0001
0100
0010
,
0000
1000
0000
0001
,
0010
0100
0010
0001
,
0000
1000
0000
0010
,
0100
0001
0100
0010
,
0000
1000
0001
2002
,
0000
0000
0000
0000
,
0000
3003
0000
0000
;

//---------------dance-single - ----------------
#NOTEDATA:;
#CHARTNAME:;
#STEPSTYPE:dance-single;
#DESCRIPTION:;
#CHARTSTYLE:;
#DIFFICULTY:Beginner;
#METER:1;
#RADARVALUES:0.070804,0.145829,0.012708,0.076251,0.000000,39.000000,38.000000,1.000000,6.000000,0.000000,0.000000,0.000000,0.000000,0.000000,0.070804,0.145829,0.012708,0.076251,0.000000,39.000000,38.000000,1.000000,6.000000,0.000000,0.000000,0.000000,0.000000,0.000000;
#CREDIT:chewi;
#NOTES:
0000
0000
0000
0000
,
0000
0000
0000
0000
,
0000
0000
0000
0000
,
0000
0000
0000
0000
,
0000
0000
0000
1000
,
0000
0000
0000
0001
,
0000
0000
0000
0010
,
0000
0000
0000
0100
,
0000
0000
0000
1000
,
0000
0000
0000
0001
,
0000
0000
0000
0100
,
0000
0000
0000
0010
,
0000
0000
0000
2000
,
0000
0000
3000
0002
,
0000
0000
0303
0100
,
0000
0000
0000
0010
,
0000
0000
0000
2000
,
0000
0000
3003
0002
,
0000
0000
3303
0010
,
0000
0000
0000
0100
,
0000
0000
0000
1000
,
0000
0000
0000
0001
,
0000
0000
0000
0010
,
0000
0000
0000
0001
,
0000
0000
0000
1000
,
0000
0000
0000
0100
,
0000
0000
0000
1000
,
0000
0000
0000
0010
,
0000
0000
0000
0010
,
0000
0010
0000
0010
,
0000
0000
0000
0100
,
0000
0100
0000
0100
,
0000
0000
0000
0001
,
0000
0001
0000
0001
,
0000
0000
0000
1000
,
0000
1000
0000
1000
,
0000
0001
0000
2002
,
0000
0000
0000
0000
,
0000
3003
0000
0000
;
