#TITLE:想色コーディネート;
#SUBTITLE:;
#ARTIST:九州男;
#TITLETRANSLIT:OMOIRO KOUDINEETO;
#SUBTITLETRANSLIT:;
#ARTISTTRANSLIT:KUSUO;
#GENRE:;
#CREDIT:Chewi☆;
#MENUCOLOR:#FFFF00;
#METERTYPE:DDR X;
#BANNER:OMOIRO KOUDINEETO.png;
#BACKGROUND:OMOIRO KOUDINEETO-bg.png;
#LYRICSPATH:;
#CDTITLE:;
#MUSIC:OMOIRO KOUDINEETO.mp3;
#OFFSET:-0.973;
#SAMPLESTART:7.761;
#SAMPLELENGTH:15.000;
#SELECTABLE:YES;
#LISTSORT:;
#BPMS:0.000=128.000;
#STOPS:;
#BGCHANGES:;
#ATTACKS:;

//---------------dance-single - Chewi----------------
#NOTES:
     dance-single:
     Chewi:
     Hard:
     10:
     0.508,0.436,0.168,0.227,0.017: // measure 1
0000
0000
0000
0000
,  // measure 2
0000
0000
0000
0000
,  // measure 3
0000
0000
0000
0000
,  // measure 4
0000
0000
0000
0000
0000
0010
0100
1000
,  // measure 5
0020
0000
0130
0010
1000
0001
0010
0100
,  // measure 6
1000
0001
0200
0000
0310
0000
2000
0000
,  // measure 7
3010
0000
1000
0100
0020
0000
0031
0010
,  // measure 8
0001
0020
0000
0130
2000
0000
3001
0010
,  // measure 9
0100
1000
0010
1000
0200
0000
0310
0002
,  // measure 10
0000
0103
0010
0100
0002
0000
0013
0200
,  // measure 11
0000
1300
0010
1000
0100
0010
0001
1000
,  // measure 12
0020
1030
2000
3001
,  // measure 13
0001
1000
0010
1000
0000
1000
0100
0010
,  // measure 14
0000
0011
0000
1100
0000
0001
1000
0010
,  // measure 15
0100
0001
0100
0010
0000
1000
0010
0100
,  // measure 16
0000
0101
0000
1010
0000
0001
0010
0100
,  // measure 17
1000
0010
1000
0100
0000
0010
0001
0100
,  // measure 18
0000
0110
0000
1010
0000
1000
0010
0100
,  // measure 19
0001
0010
0100
0010
0000
0001
0100
0010
,  // measure 20
0000
1010
0000
0101
0010
0100
1000
0010
,  // measure 21
2000
0000
3100
0000
0010
0001
0101
0000
,  // measure 22
0002
0000
0103
0000
0010
0100
0010
0000
,  // measure 23
0020
0000
1030
0000
0100
1000
1100
0000
,  // measure 24
2000
0000
3100
0000
0010
0001
0100
0000
,  // measure 25
0010
0100
0001
1000
0100
0100
0100
0000
,  // measure 26
0100
0010
0100
1000
0001
0001
0001
0000
,  // measure 27
0100
0010
1000
0100
0010
0010
0010
0000
,  // measure 28
0010
0100
1000
0001
1000
1000
1000
0000
,  // measure 29
1000
0010
0110
0000
0100
0001
0100
0000
,  // measure 30
0001
0010
0100
1000
0010
1000
0100
0000
,  // measure 31
1000
0010
1010
0000
0010
0100
0001
0000
,  // measure 32
0001
0100
0010
1000
0001
0010
0100
0000
,  // measure 33
1000
0100
0010
0100
1000
0001
1000
0000
,  // measure 34
0001
0100
0010
0100
0001
1000
0001
0000
,  // measure 35
1000
0001
0010
0100
1000
0001
1000
0000
,  // measure 36
1000
0001
0010
0100
1000
0010
0010
0000
,  // measure 37
1010
0100
0001
0010
0100
1000
0010
0000
,  // measure 38
1000
0100
1000
0010
1000
0100
0010
0000
,  // measure 39
0011
0010
0100
1000
0010
0100
0001
0000
,  // measure 40
0100
0010
0100
0001
0010
0100
1000
0000
,  // measure 41
1010
1000
0001
0010
0100
1000
0001
0000
,  // measure 42
0100
0010
0100
0001
0010
0100
1000
0000
,  // measure 43
1010
0100
0010
0100
0010
1000
0010
0000
,  // measure 44
0001
0010
0100
1000
0010
1000
0100
0010
,  // measure 45
0002
0000
0013
0100
1000
0010
0100
0001
,  // measure 46
0100
0010
2000
0000
3002
0000
1003
0100
,  // measure 47
0020
0000
0031
0010
2000
0000
3001
0001
,  // measure 48
0001
0200
0000
0310
1000
0001
0010
0100
,  // measure 49
1000
0010
1000
0100
0020
0000
0031
0020
,  // measure 50
0000
0130
1000
0010
0200
0000
0301
0100
,  // measure 51
0000
0010
1000
0001
0010
0100
1000
0020
,  // measure 52
0000
2030
0000
3100
0010
0001
0010
0100
,  // measure 53
1100
0011
1001
0110
,  // measure 54
0010
0000
0100
0000
0001
0000
1000
0000
0100
0000
0000
0100
0000
0000
0100
0000
,  // measure 55
0010
0100
1000
0010
0100
0001
0010
0100
,  // measure 56
0010
0000
0001
0000
0010
0000
0100
0000
1000
0000
0000
1000
0000
0000
1000
0000
,  // measure 57
1000
0100
0010
0001
0100
0010
1000
0001
,  // measure 58
0010
0000
0100
0000
1000
0000
0010
0000
0100
0000
0000
0100
0000
0000
0100
0000
,  // measure 59
0010
1000
0001
0010
0100
1000
0010
1000
,  // measure 60
0100
0000
0010
0000
0001
0000
1000
0000
0001
0000
0000
0001
0000
0000
0001
0000
,  // measure 61
1000
0010
0100
0001
0100
0010
1000
0001
,  // measure 62
0010
0000
0000
0000
;

//---------------dance-single - Chewi----------------
#NOTES:
     dance-single:
     Chewi:
     Medium:
     7:
     0.304,0.359,0.143,0.017,0.017:
0000
0000
0000
0000
,
0000
0000
0000
0000
,
0000
0000
0000
0000
,
0000
0000
0000
0000
,
1000
0100
0010
0001
,
1000
0100
1000
0000
1100
0000
0000
0000
,
0001
0100
0010
1000
,
0010
0000
0001
0100
0001
0000
0101
0000
,
1000
0100
0010
0000
,
0001
0010
0100
0000
,
1000
0001
0100
0010
,
1010
0101
0011
1100
,
0000
0100
0000
0100
0000
0010
0000
0010
,
0000
0001
0000
0010
0000
0100
0000
1000
,
0000
0001
0000
0001
0000
1000
0000
1000
,
0000
0010
0000
0100
0000
0001
0000
1000
,
0000
0100
0000
0100
0000
0010
0000
0010
,
0000
0001
0000
0010
0000
0100
0000
1000
,
0000
0001
0000
0001
0000
0100
0000
0100
,
0000
0010
0000
1000
0001
0000
1001
0000
,
1000
0100
0010
0001
,
1000
0100
0010
0001
,
1000
0010
0001
0100
,
1000
0010
0001
0100
,
1000
0010
0100
0001
,
1000
0100
0010
0001
,
0001
0010
1000
0100
,
0001
0010
1000
0100
,
0000
0000
0100
0000
0010
0100
0010
0000
,
0100
0010
1000
0100
,
0010
0000
0100
0000
1000
0010
1000
0000
,
0100
0010
0001
0100
,
0010
0100
0001
1100
,
0010
0100
1000
0101
,
0100
0010
1000
0001
,
1000
0100
0010
0001
,
1000
0000
0100
0000
1000
0010
0100
0000
,
0001
0100
0010
1000
,
0001
0000
0010
0000
0100
0010
0001
0000
,
0100
0010
1000
0001
,
1000
0100
0010
0011
,
0001
0100
0010
1010
,
1000
0000
0100
0000
0000
0000
0001
1000
,
0002
0010
2000
3003
,
1001
1000
1100
1000
,
0001
1000
0001
0000
1001
0000
0010
0000
,
1001
0001
0101
0100
,
0010
0000
1000
0000
0010
1000
0010
0000
,
1000
0100
0010
0000
,
0001
0010
0100
0000
,
1000
0001
0100
0010
,
1000
1000
0010
0010
,
0100
0001
0010
1000
,
0100
0000
0000
0000
0010
0000
0000
0000
0100
0000
0000
0100
0000
0000
0100
0000
,
1000
0001
0100
0010
,
0100
0000
0000
0000
0001
0000
0000
0000
0010
0000
0000
0010
0000
0000
0010
0000
,
0001
0010
0100
1000
,
0010
0000
0000
0000
0100
0000
0000
0000
0010
0000
0000
0010
0000
0000
0010
0000
,
1000
0100
0010
0001
,
0010
0000
0000
0000
0100
0000
0000
0000
1000
0000
0000
1000
0000
0000
1000
0000
,
0001
0100
0010
1000
,
1001
0000
0000
0000
;

//---------------dance-single - Chewi----------------
#NOTES:
     dance-single:
     Chewi:
     Beginner:
     2:
     0.091,0.154,0.034,0.042,0.000:
0000
0000
0000
0000
,
0000
0000
0000
0000
,
0000
0000
0000
0000
,
0000
0000
0000
0000
,
1000
0000
0000
0000
,
0001
0000
0000
0000
,
0001
0000
0000
0000
,
1000
0000
0000
0000
,
1000
0000
0000
0000
,
0001
0000
0000
0000
,
1000
0000
0000
0000
,
1000
0000
0000
0000
,
0002
0000
0000
0003
,
0001
0000
0000
0000
,
2000
0000
0000
3000
,
1000
0000
0002
0003
,
0020
0000
0000
0030
,
0010
0000
0000
0000
,
0200
0000
0000
0300
,
0100
0000
0000
0000
,
1000
0000
0000
0000
,
0001
0000
0000
0000
,
1000
0000
0000
0000
,
0001
0000
0000
0000
,
1000
0000
0000
0000
,
0100
0000
0000
0000
,
0010
0000
0000
0000
,
0010
0000
0000
0000
,
1000
0000
0000
0000
,
0001
0000
0000
0000
,
0100
0000
0000
0000
,
0010
0000
0000
0000
,
0010
0000
0000
0000
,
1000
0000
0000
0000
,
0100
0000
0000
0000
,
1000
0000
0000
0000
,
0010
0000
0000
0000
,
1000
0000
0000
0000
,
0001
0000
0000
0000
,
0001
0000
0000
0000
,
1000
0000
0000
0000
,
1000
0000
0000
0000
,
0010
0000
0000
0000
,
0001
0000
0000
0000
,
1001
0000
0000
0000
,
0010
0000
0000
0000
,
0110
0000
0000
0000
,
0100
0000
0000
0000
,
1000
0000
0000
0000
,
0100
0000
0000
0000
,
1000
0000
0000
0000
,
1000
0000
0000
0000
,
1001
0000
0000
0000
,
0001
0000
0000
0000
,
1000
1000
1000
0000
,
1000
0000
0000
0000
,
0010
0010
0010
0000
,
0010
0000
0000
0000
,
0100
0100
0100
0000
,
0010
0000
0000
0000
,
0100
0100
0100
0000
,
1001
0000
0000
0000
;

//---------------dance-single - Chewi----------------
#NOTES:
     dance-single:
     Chewi:
     Easy:
     4:
     0.206,0.256,0.050,0.084,0.000:
0000
0000
0000
0000
,
0000
0000
0000
0000
,
0000
0000
0000
0000
,
0000
0000
0000
0000
,
1000
0100
0010
0000
,
0001
0001
0001
0000
,
0001
0100
0010
0000
,
1000
1000
1000
0000
,
1000
0001
1000
0000
,
0001
0010
0100
0000
,
1000
0100
1000
0000
,
1000
0010
0100
0000
,
0002
0000
0000
0003
,
1000
0001
1000
0000
,
2000
0000
0000
3000
,
0001
1000
0001
0000
,
0020
0000
0000
0030
,
0100
0010
0100
0000
,
0200
0000
0000
0300
,
1000
0100
1000
0000
,
1000
0010
0001
0000
,
0001
0100
1000
0000
,
1000
0010
0100
0000
,
0001
0100
0010
0000
,
1000
0001
1000
0000
,
0100
0010
0100
0000
,
0010
0001
0100
0000
,
0010
1000
0100
0000
,
1000
1000
1000
0000
,
0001
0100
0001
0000
,
0100
0100
0100
0000
,
0010
0100
0010
0000
,
0010
0010
0010
0000
,
1000
0100
0010
0000
,
0100
0100
0100
0000
,
1000
0001
0100
0000
,
0010
0100
0010
0000
,
1000
0010
0001
0000
,
0001
0010
0001
0000
,
0001
0100
1000
0000
,
1000
0100
1000
0000
,
1000
0010
1000
0000
,
0010
0100
0001
0000
,
0001
0100
0001
0000
,
1001
0000
1001
0000
,
0010
0100
0010
0000
,
0110
0000
0110
0000
,
0100
0010
0100
0000
,
1000
0000
0001
0000
,
0100
0000
0010
0000
,
1000
0100
0010
0001
,
1000
0100
0010
0001
,
2002
0000
0000
3003
,
0002
0000
0013
0000
,
1000
0100
1000
0000
,
2000
0000
3100
0000
,
0010
1000
0010
0000
,
0020
0000
0130
0000
,
1000
0100
0010
0000
,
0020
0000
0031
0000
,
0100
0010
0001
0000
,
1001
0000
0000
0000
;
