#TITLE:Nyan Cat;
#SUBTITLE:;
#ARTIST:daniwellP;
#TITLETRANSLIT:;
#SUBTITLETRANSLIT:;
#ARTISTTRANSLIT:;
#GENRE:;
#CREDIT:Chewi☆;
#BANNER:Nyan Cat.png;
#BACKGROUND:Nyan Cat-bg.png;
#LYRICSPATH:;
#CDTITLE:;
#MUSIC:Nyan Cat.mp3;
#OFFSET:-0.525;
#SAMPLESTART:3.905;
#SAMPLELENGTH:15.000;
#SELECTABLE:YES;
#BPMS:0.000=142.000
;
#STOPS:
;
#BGCHANGES:;
#KEYSOUNDS:;
#ATTACKS:;

//---------------dance-single - Chewi----------------
#NOTES:
     dance-single:
     Chewi:
     Hard:
     11:
     0.455,0.329,0.011,0.000,0.000,289.000,1.000,0.000,0.000,0.000,0.000,0.455,0.329,0.011,0.000,0.000,289.000,1.000,0.000,0.000,0.000,0.000:
0000
0000
0000
0000
,
0000
0000
0000
0000
,
1000
0100
0010
0001
,
1000
0100
0010
0001
1000
0100
0010
0001
,
0001
0100
0010
1000
,
0001
0100
0010
1000
0001
0100
0010
1000
,
1000
0001
0010
0100
,
1000
0001
0010
0100
1000
0001
0010
0100
,
1000
0001
0100
0010
,
1000
0001
0100
0010
1000
0001
0100
0010
,
1000
0100
1000
0000
0100
0001
0100
0000
,
0001
0010
0001
0000
0010
1000
0010
0000
,
1000
0100
1000
0000
0100
0001
0100
0000
,
0001
0010
0001
0000
0010
1000
0010
0000
,
1000
0100
0010
0000
0100
0010
0001
0000
,
1000
0100
0010
0000
0001
0100
0010
0000
,
1000
0001
0100
0000
0001
1000
0100
0000
,
0010
0100
1000
0000
0010
0100
0001
0000
,
0100
0010
1000
0001
,
0100
0010
1000
0001
0100
0010
1000
0001
,
0010
0100
1000
0001
,
0010
0100
1000
0001
0010
0100
1000
0001
,
1000
0010
0100
0001
,
1000
0010
0100
0001
1000
0010
0100
0001
,
1000
0100
0010
0001
,
1000
0100
0010
0001
1000
0100
0010
0001
,
0010
0001
0010
0000
0001
0100
0001
0000
,
0100
1000
0100
0000
1000
0010
1000
0000
,
0010
0001
0010
0000
0001
0100
0001
0000
,
0100
1000
0100
0000
1000
0010
1000
0000
,
0010
0100
0001
0000
1000
0100
0010
0000
,
0001
1000
0100
0000
1000
0001
0100
0000
,
0010
0100
0001
0000
1000
0010
0100
0000
,
0001
1000
0100
0000
0010
0100
0010
0000
,
1000
0100
0010
0001
,
1000
0100
0010
0001
1000
0100
0010
0001
,
0001
0100
0010
1000
,
0001
0100
0010
1000
0001
0100
0010
1000
,
1000
0001
0010
0100
,
1000
0001
0010
0100
1000
0001
0010
0100
,
1000
0001
0100
0010
,
1000
0001
0100
0010
1000
0001
0100
0010
,
1000
0100
1000
0000
0100
0001
0100
0000
,
0001
0010
0001
0000
0010
1000
0010
0000
,
1000
0100
1000
0000
0100
0001
0100
0000
,
0001
0010
0001
0000
0010
1000
0010
0000
,
1000
0100
0010
0000
0100
0010
0001
0000
,
1000
0100
0010
0000
0001
0100
0010
0000
,
1000
0001
0100
0000
0001
1000
0100
0000
,
0010
0100
1000
0000
0010
0100
0001
0000
,
1001
0000
0000
0000
;

//---------------dance-single - Chewi----------------
#NOTES:
     dance-single:
     Chewi:
     Medium:
     7:
     0.466,0.411,0.066,0.878,0.000,211.000,6.000,80.000,0.000,0.000,0.000,0.466,0.411,0.066,0.878,0.000,211.000,6.000,80.000,0.000,0.000,0.000: // measure 0
0000
0000
0000
0000
,  // measure 1
0000
0000
0000
0000
,  // measure 2
1000
0100
0001
0010
,  // measure 3
2000
3200
0320
0032
,  // measure 4
1003
0010
0001
0100
,  // measure 5
2000
3020
0230
0302
,  // measure 6
1003
0100
0001
0010
,  // measure 7
2000
3200
0320
0032
,  // measure 8
1003
0100
0001
0010
,  // measure 9
2000
3200
0320
0230
,  // measure 10
2300
0000
3002
0000
1003
0001
0100
0000
,  // measure 11
0020
0230
0302
2003
,  // measure 12
3002
0000
0023
0000
0031
0010
0100
0000
,  // measure 13
2000
3020
0230
0302
,  // measure 14
2003
0000
3002
0000
0103
0010
0100
0000
,  // measure 15
0002
0023
0230
2300
,  // measure 16
3020
0000
2030
0000
3100
0010
0100
0000
,  // measure 17
2000
3020
0230
0302
,  // measure 18
1003
0001
0010
0100
,  // measure 19
1000
0100
1000
0000
0001
0100
0001
0000
,  // measure 20
1000
0010
0100
0001
,  // measure 21
1000
0010
1000
0000
0001
0100
0001
0000
,  // measure 22
1000
0100
0010
0001
,  // measure 23
1000
0100
1000
0000
0001
0010
0001
0000
,  // measure 24
1000
0010
0100
0001
,  // measure 25
1000
0010
1000
0000
0001
0100
0001
0000
,  // measure 26
1001
0000
0010
0000
0100
0010
0100
0000
,  // measure 27
0010
0001
0100
1000
,  // measure 28
0010
0101
0010
1100
,  // measure 29
0001
0010
0100
1000
,  // measure 30
1010
0000
0001
0000
1000
0001
0100
0000
,  // measure 31
0010
0001
0100
1000
,  // measure 32
0010
0101
0010
1100
,  // measure 33
1000
0100
0010
0001
,  // measure 34
1000
0100
0001
0010
,  // measure 35
2000
3200
0320
0032
,  // measure 36
1003
0010
0001
0100
,  // measure 37
2000
3020
0230
0302
,  // measure 38
1003
0100
0001
0010
,  // measure 39
2000
3200
0320
0032
,  // measure 40
1003
0100
0001
0010
,  // measure 41
2000
3200
0320
0230
,  // measure 42
2300
0000
3002
0000
1003
0001
0100
0000
,  // measure 43
0020
0230
0302
2003
,  // measure 44
3002
0000
0023
0000
0031
0010
0100
0000
,  // measure 45
2000
3020
0230
0302
,  // measure 46
2003
0000
3002
0000
0103
0010
0100
0000
,  // measure 47
0002
0023
0230
2300
,  // measure 48
3020
0000
2030
0000
3100
0010
0100
0000
,  // measure 49
2000
3020
0230
0302
,  // measure 50
1003
0000
0000
0000
;

//---------------dance-single - Chewi----------------
#NOTES:
     dance-single:
     Chewi:
     Easy:
     4:
     0.191,0.165,0.143,0.000,0.000,109.000,13.000,0.000,0.000,0.000,0.000,0.191,0.165,0.143,0.000,0.000,109.000,13.000,0.000,0.000,0.000,0.000:
0000
0000
0000
0000
,
0000
0000
0000
0000
,
1000
0000
0100
0000
,
0010
0000
0001
0000
,
1000
0000
0100
0000
,
0010
0000
0001
0000
,
1000
0000
0010
0000
,
0100
0000
0001
0000
,
1000
0000
0010
0000
,
0100
0000
0001
0000
,
1001
0000
1000
0000
,
0001
1000
0001
0000
,
1001
0000
1000
0000
,
0001
1000
0001
0000
,
0110
0000
0010
0000
,
0100
0010
0100
0000
,
0110
0000
0100
0000
,
0010
0100
0010
0000
,
0001
0000
0010
0000
,
0100
0000
1000
0000
,
0001
0000
0010
0000
,
0100
0000
1000
0000
,
0001
0000
0100
0000
,
0010
0000
1000
0000
,
0001
0000
0100
0000
,
0010
0000
1000
0000
,
1001
0000
0001
0000
,
1000
0001
1000
0000
,
1001
0000
1000
0000
,
0001
1000
0001
0000
,
0110
0000
0100
0000
,
0010
0100
0010
0000
,
0110
0000
0010
0000
,
0100
0010
0100
0000
,
1000
0000
0100
0000
,
0010
0000
0001
0000
,
1000
0000
0100
0000
,
0010
0000
0001
0000
,
1000
0000
0010
0000
,
0100
0000
0001
0000
,
1000
0000
0010
0000
,
0100
0000
0001
0000
,
1001
0000
1000
0000
,
0001
1000
0001
0000
,
1001
0000
1000
0000
,
0001
1000
0001
0000
,
0110
0000
0010
0000
,
0100
0010
0100
0000
,
0110
0000
0100
0000
,
0010
0100
0010
0000
,
0110
0000
0000
0000
;

//---------------dance-single - Chewi----------------
#NOTES:
     dance-single:
     Chewi:
     Beginner:
     1:
     0.097,0.082,0.143,0.000,0.000,49.000,13.000,0.000,0.000,0.000,0.000,0.097,0.082,0.143,0.000,0.000,49.000,13.000,0.000,0.000,0.000,0.000:
0000
0000
0000
0000
,
0000
0000
0000
0000
,
1000
0000
0000
0000
,
0010
0000
0000
0000
,
1000
0000
0000
0000
,
0010
0000
0000
0000
,
1000
0000
0000
0000
,
0100
0000
0000
0000
,
1000
0000
0000
0000
,
0100
0000
0000
0000
,
1001
0000
0000
0000
,
0001
0000
0000
0000
,
1001
0000
0000
0000
,
0001
0000
0000
0000
,
0110
0000
0000
0000
,
0100
0000
0000
0000
,
0110
0000
0000
0000
,
0010
0000
0000
0000
,
0001
0000
0000
0000
,
0100
0000
0000
0000
,
0001
0000
0000
0000
,
0100
0000
0000
0000
,
0001
0000
0000
0000
,
0010
0000
0000
0000
,
0001
0000
0000
0000
,
0010
0000
0000
0000
,
1001
0000
0000
0000
,
1000
0000
0000
0000
,
1001
0000
0000
0000
,
0001
0000
0000
0000
,
0110
0000
0000
0000
,
0010
0000
0000
0000
,
0110
0000
0000
0000
,
0100
0000
0000
0000
,
1000
0000
0000
0000
,
0010
0000
0000
0000
,
1000
0000
0000
0000
,
0010
0000
0000
0000
,
1000
0000
0000
0000
,
0100
0000
0000
0000
,
1000
0000
0000
0000
,
0100
0000
0000
0000
,
1001
0000
0000
0000
,
0001
0000
0000
0000
,
1001
0000
0000
0000
,
0001
0000
0000
0000
,
0110
0000
0000
0000
,
0100
0000
0000
0000
,
0110
0000
0000
0000
,
0010
0000
0000
0000
,
0110
0000
0000
0000
;
