#TITLE:Nyan Cat (Alex S. Dubstep Remix);
#SUBTITLE:;
#ARTIST:daniwellP;
#TITLETRANSLIT:;
#SUBTITLETRANSLIT:;
#ARTISTTRANSLIT:;
#GENRE:;
#CREDIT:Chewi☆;
#BANNER:Nyan Cat (Alex S. Dubstep Remix).png;
#BACKGROUND:Nyan Cat (Alex S. Dubstep Remix)-bg.png;
#LYRICSPATH:;
#CDTITLE:;
#MUSIC:Nyan Cat (Alex S. Dubstep Remix).mp3;
#OFFSET:-1.319;
#SAMPLESTART:55.404;
#SAMPLELENGTH:15.000;
#SELECTABLE:YES;
#BPMS:0.000=71.000
,32.000=142.000
;
#STOPS:
;
#BGCHANGES:;
#KEYSOUNDS:;
#ATTACKS:;

//---------------dance-single - Chewi----------------
#NOTES:
     dance-single:
     Chewi:
     Beginner:
     2:
     0.121,0.132,0.000,0.000,0.000,77.000,0.000,0.000,0.000,0.000,0.000,0.121,0.132,0.000,0.000,0.000,77.000,0.000,0.000,0.000,0.000,0.000: // measure 0
0000
0000
0000
0000
,  // measure 1
0000
0000
0000
0000
,  // measure 2
0000
0000
0000
0000
,  // measure 3
0000
0000
0000
0000
,  // measure 4
0001
0001
0000
0000
,  // measure 5
1000
1000
0000
0000
,  // measure 6
0100
0100
0000
0000
,  // measure 7
0010
0010
0000
0000
,  // measure 8
0001
0000
0001
0000
,  // measure 9
0001
0000
1000
0000
,  // measure 10
0010
0000
0010
0000
,  // measure 11
0010
0000
0100
0000
,  // measure 12
0001
0000
0010
0000
,  // measure 13
0001
0000
1000
0000
,  // measure 14
0001
0000
0100
0000
,  // measure 15
0100
0000
0001
0000
,  // measure 16
1000
1000
1000
0000
,  // measure 17
0001
0001
0001
0000
,  // measure 18
1000
1000
1000
0000
,  // measure 19
0001
0001
0001
0000
,  // measure 20
1000
0000
0001
0000
,  // measure 21
1000
0000
1000
0000
,  // measure 22
0100
0000
0001
0000
,  // measure 23
0010
0000
0010
0000
,  // measure 24
0010
0000
0010
0000
,  // measure 25
0010
0000
0100
0000
,  // measure 26
0100
0000
1000
0000
,  // measure 27
1000
0000
1000
0000
,  // measure 28
0100
0000
0100
0000
,  // measure 29
0100
0000
0100
0000
,  // measure 30
1000
0000
0001
0000
,  // measure 31
1000
0000
0010
0000
,  // measure 32
1000
0000
0100
0000
,  // measure 33
0100
0000
0100
0000
,  // measure 34
0001
0000
1000
0000
,  // measure 35
1000
0000
0100
0000
,  // measure 36
0100
0000
0010
0000
,  // measure 37
0010
0000
0001
0000
,  // measure 38
0100
0000
0100
0000
,  // measure 39
0100
0000
0001
0000
,  // measure 40
0001
0000
0000
0000
;

//---------------dance-single - Chewi----------------
#NOTES:
     dance-single:
     Chewi:
     Easy:
     5:
     0.213,0.197,0.044,0.077,0.000,125.000,4.000,7.000,0.000,0.000,0.000,0.213,0.197,0.044,0.077,0.000,125.000,4.000,7.000,0.000,0.000,0.000: // measure 0
0000
0000
0000
0000
,  // measure 1
0000
0000
0000
0000
,  // measure 2
0000
0000
0000
0000
,  // measure 3
0000
0000
0000
0000
,  // measure 4
0001
1001
0000
1000
,  // measure 5
0001
1001
0000
0010
,  // measure 6
0100
0110
0000
0100
,  // measure 7
0010
1001
0000
0000
,  // measure 8
0001
0010
0001
0010
,  // measure 9
0002
0000
2003
0000
,  // measure 10
3010
1000
0010
1000
,  // measure 11
0020
0000
0230
0000
,  // measure 12
0301
0100
0010
0100
,  // measure 13
0002
0000
2003
0000
,  // measure 14
3001
0010
0100
1000
,  // measure 15
0100
0010
0002
1000
,  // measure 16
1003
1000
1000
1000
,  // measure 17
0010
0010
0010
0010
,  // measure 18
0001
0001
0001
0001
,  // measure 19
0100
0100
0100
0100
,  // measure 20
1000
1000
0001
0001
,  // measure 21
1000
0010
1000
0010
,  // measure 22
0100
0100
0001
0001
,  // measure 23
0010
0001
0010
0100
,  // measure 24
0010
0000
0010
0010
,  // measure 25
0010
0000
0100
0010
,  // measure 26
0100
0000
1000
1000
,  // measure 27
1000
0001
1000
0001
,  // measure 28
0100
0000
0100
0100
,  // measure 29
0100
0010
0100
0001
,  // measure 30
1000
0000
0001
0001
,  // measure 31
1000
0100
0010
0001
,  // measure 32
1000
0000
0100
0100
,  // measure 33
0100
0010
0100
1000
,  // measure 34
0001
0000
1000
1000
,  // measure 35
1000
0010
0100
0001
,  // measure 36
0100
0000
0010
0010
,  // measure 37
0010
1000
0001
1000
,  // measure 38
0100
0000
0100
0100
,  // measure 39
0100
0010
0001
0010
,  // measure 40
0001
0000
0000
0000
;

//---------------dance-single - Chewi----------------
#NOTES:
     dance-single:
     Chewi:
     Medium:
     7:
     0.266,0.241,0.165,0.000,0.000,155.000,15.000,0.000,0.000,0.000,0.000,0.266,0.241,0.165,0.000,0.000,155.000,15.000,0.000,0.000,0.000,0.000: // measure 0
0000
0000
0000
0000
,  // measure 1
0000
0000
0000
0000
,  // measure 2
0000
0000
0000
0000
,  // measure 3
0000
0000
0000
0000
,  // measure 4
1000
1100
0000
0001
,  // measure 5
0001
0101
0000
1000
,  // measure 6
0010
0110
0000
0100
,  // measure 7
0001
0101
0000
0000
,  // measure 8
0001
0010
0100
1000
,  // measure 9
0010
0001
0100
1000
,  // measure 10
0010
0100
0001
1000
,  // measure 11
0100
0001
0010
1000
,  // measure 12
0100
0010
0001
1000
,  // measure 13
0100
0001
0010
1000
,  // measure 14
0100
0010
0001
1000
,  // measure 15
0100
0000
1000
0000
0001
1000
0001
1000
,  // measure 16
0001
0000
0001
0000
0001
0000
0001
1000
,  // measure 17
0010
0000
0010
0000
0010
0000
0010
0100
,  // measure 18
0001
0000
0001
0000
0001
0000
0001
0100
,  // measure 19
0010
0000
0010
0000
0010
0000
0010
1000
,  // measure 20
0001
0010
0100
1000
,  // measure 21
0001
0100
0010
1000
,  // measure 22
0001
1000
0010
0100
,  // measure 23
0001
0010
0100
1000
0100
0000
1100
0000
,  // measure 24
1000
0000
0001
1001
,  // measure 25
0100
0000
0010
0000
0100
0001
0100
0000
,  // measure 26
0011
0000
0010
0110
,  // measure 27
0010
0100
1000
0000
0010
1000
0100
0000
,  // measure 28
1000
0000
0001
1001
,  // measure 29
1000
0001
0100
0000
0010
0000
0100
0000
,  // measure 30
0001
0000
0100
0101
,  // measure 31
0001
1000
0001
0000
1000
0001
1000
0001
,  // measure 32
1000
0000
1000
1001
,  // measure 33
1000
0100
0010
0000
0010
0001
0010
0000
,  // measure 34
1100
0000
0010
0101
,  // measure 35
0100
0010
1000
0000
1000
0001
0010
0000
,  // measure 36
0001
0000
1000
1001
,  // measure 37
0001
1000
0010
0000
0100
0000
0010
0000
,  // measure 38
1000
0000
0010
1010
,  // measure 39
1000
0001
1000
0000
0001
1000
0001
1000
,  // measure 40
0001
0000
0000
0000
;

//---------------dance-single - Chewi----------------
#NOTES:
     dance-single:
     Chewi:
     Hard:
     12:
     0.418,0.439,0.186,0.088,0.203,242.000,17.000,8.000,0.000,0.000,0.000,0.418,0.439,0.186,0.088,0.203,242.000,17.000,8.000,0.000,0.000,0.000: // measure 0
0000
0000
0000
0000
,  // measure 1
0000
0000
0000
0000
,  // measure 2
0000
0000
0000
0000
,  // measure 3
0000
0000
0000
0000
,  // measure 4
1000
0000
1100
0000
0000
0001
0010
0000
,  // measure 5
0001
0000
0000
0000
0101
0000
0000
0000
0000
0000
0000
1000
0010
0000
0000
0000
,  // measure 6
0010
0000
0110
0000
0000
0100
0010
0000
,  // measure 7
1000
1100
0000
0000
,  // measure 8
1000
0100
1000
0100
0010
0001
0010
0001
,  // measure 9
1000
0100
0001
0100
1000
0100
0001
0100
,  // measure 10
1000
0010
1000
0010
0100
0001
0100
0001
,  // measure 11
1000
0010
0001
0010
1000
0010
0001
0010
,  // measure 12
0100
0010
0100
0010
0001
0010
0001
0010
,  // measure 13
0100
1000
0010
1000
0100
1000
0010
1000
,  // measure 14
0100
0010
0100
0010
0001
0010
0001
0010
,  // measure 15
0001
0000
0100
0000
0010
0000
1000
0000
0001
1000
0001
1000
0001
0000
1000
0000
,  // measure 16
1001
0000
1000
0000
0001
0000
1000
0001
,  // measure 17
0010
0000
0100
0000
1000
0000
0010
1000
,  // measure 18
0100
1000
0000
0000
0010
0000
0000
0000
0100
0000
0000
0000
0001
0000
1000
0000
,  // measure 19
0010
0000
1000
0100
0010
0000
0000
0000
0001
0000
0000
0000
0010
0000
0010
0000
,  // measure 20
0001
0010
0100
1000
,  // measure 21
0001
1000
0010
0100
,  // measure 22
0001
0000
0100
0000
0001
0000
0100
0000
0010
0100
0010
0100
0010
0100
0010
0100
,  // measure 23
0001
0010
0100
1000
0010
0100
0110
0000
,  // measure 24
0002
0000
0013
0100
1000
0000
0011
0000
,  // measure 25
1001
0000
0000
0000
0100
0000
0000
0000
0001
0000
1000
0010
0100
0000
0001
0100
,  // measure 26
0002
0000
0013
0010
0100
0000
1100
0000
,  // measure 27
1000
0000
0000
0000
0100
0000
0000
0000
0010
0000
0000
0000
0001
0000
0000
0000
0000
0000
0000
0000
0000
0000
0000
0000
0011
0000
0000
0000
0000
0000
0000
0000
0000
0000
0000
0000
1000
0000
0000
0001
0000
0000
1000
0000
0000
0001
0000
0000
,  // measure 28
2000
0000
3010
0100
0001
0000
0011
0000
,  // measure 29
0001
0000
0000
0000
0010
0000
0000
0000
0100
0000
0000
0000
1000
0000
0000
0000
0000
0000
0000
0000
0000
0000
0000
0000
0010
0000
0000
0000
0000
0000
0100
0000
0000
0001
0000
0000
0010
0000
0000
0000
0000
0000
0100
0000
0000
1000
0000
0000
,  // measure 30
0200
0000
0310
0001
0100
0000
0101
0000
,  // measure 31
1000
0001
1000
0001
0000
0000
0000
0000
0010
0000
0010
0000
0010
0000
0010
0000
,  // measure 32
2000
0000
3100
0010
0001
0000
1100
0000
,  // measure 33
1000
0000
0000
0000
0001
0000
0000
0000
1000
0000
0000
0000
0001
0000
0000
0000
0000
0000
0000
0000
0000
0000
0000
0000
1000
0000
0000
0000
0000
0000
0001
0000
0000
0100
0000
0000
0010
0000
0000
0000
0000
0000
1000
0000
0000
0010
0000
0000
,  // measure 34
2000
0000
3100
0100
0010
0000
0011
0000
,  // measure 35
0001
0000
0000
0000
0010
0000
0000
0000
0100
0000
0000
0000
1000
0000
0000
0000
0000
0000
0000
0000
0000
0000
0000
0000
1100
0000
0000
0000
0000
0000
0000
0000
0000
0000
0000
0000
0001
0000
0000
1000
0000
0000
0001
0000
0000
1000
0000
0000
,  // measure 36
0002
0000
0103
0010
1000
0000
1100
0000
,  // measure 37
1000
0100
0010
0001
1000
0000
0000
0000
0100
0000
0010
0001
0100
0000
0010
1000
,  // measure 38
0020
0000
0130
0100
0010
0000
1010
0000
,  // measure 39
0001
0000
0000
0000
0000
0000
0000
0000
0000
1000
0000
0000
0000
0000
0000
0000
0000
0000
0000
0000
0000
0010
0000
0000
0000
0000
0000
0000
0000
0000
0000
0000
0000
0000
0000
0000
0100
0000
0000
0000
0010
0000
0000
0000
0100
0000
0000
0000
,  // measure 40
0010
0000
0000
0000
;
