#TITLE:Nothing in This World;
#SUBTITLE:;
#ARTIST:Paris Hilton;
#TITLETRANSLIT:;
#SUBTITLETRANSLIT:;
#ARTISTTRANSLIT:;
#GENRE:;
#CREDIT:Chewi☆;
#MENUCOLOR:#FFFF00;
#METERTYPE:DDR X;
#BANNER:Nothing in This World.png;
#BACKGROUND:Nothing in This World-bg.png;
#LYRICSPATH:;
#CDTITLE:;
#MUSIC:Nothing in This World.mp3;
#OFFSET:-0.525;
#SAMPLESTART:30.063;
#SAMPLELENGTH:15.000;
#SELECTABLE:YES;
#LISTSORT:;
#DISPLAYBPM:130.000;
#BPMS:0.000=130.000;
#STOPS:;
#BGCHANGES:;
#ATTACKS:;

//---------------dance-single - Chewi----------------
#NOTES:
     dance-single:
     Chewi:
     Beginner:
     2:
     0.080,0.105,0.061,0.000,0.000:
0000
0000
0000
0000
,
0000
0000
0000
0000
,
0000
0000
0000
0000
,
0000
0000
0000
0000
,
1000
0000
0000
0000
,
1000
0000
0000
0000
,
0001
0000
0000
0000
,
0001
0000
0000
0000
,
0010
0000
0000
0000
,
0001
0000
0000
0000
,
0100
0000
0000
0000
,
0001
0000
0000
0000
,
0001
0000
0000
0000
,
0100
0000
0000
0000
,
1000
0000
0000
0000
,
0010
0000
0000
0000
,
1001
0000
0000
0000
,
0100
0000
0000
0000
,
0010
0000
0000
0000
,
0001
0000
0000
0000
,
1001
0000
0000
0000
,
0001
0000
0000
0000
,
0100
0000
0000
0000
,
1000
0000
0000
0000
,
1001
0000
0000
0000
,
0001
0000
0000
0000
,
0100
0000
0000
0000
,
0001
0000
0000
0000
,
0110
0000
0000
0000
,
1000
0000
0000
0000
,
0001
0000
0000
0000
,
0001
0000
0000
0000
,
1001
0000
0000
0000
,
0010
0000
0000
0000
,
1000
0000
0000
0000
,
0010
0000
0000
0000
,
0001
0000
0000
0000
,
0010
0000
0000
0000
,
1000
0000
0000
0000
,
0010
0000
0000
0000
,
0001
0000
0000
0000
,
0100
0000
0000
0000
,
0100
0000
0000
0000
,
0010
0000
0000
0000
,
0100
0000
0000
0000
,
0001
0000
0000
0000
,
0100
0000
0000
0000
,
0100
0000
0000
0000
,
1000
0000
0000
0000
,
0100
0000
0000
0000
,
0001
0000
0000
0000
,
0100
0000
0000
0000
,
0110
0000
0000
0000
;

//---------------dance-single - Chewi----------------
#NOTES:
     dance-single:
     Chewi:
     Easy:
     4:
     0.197,0.264,0.112,0.152,0.000:
0000
0000
0000
0000
,
0000
0000
0000
0000
,
0000
0000
0000
0000
,
0000
0000
0000
0000
,
2000
0000
0000
3000
,
1000
0100
1000
0000
,
0002
0000
0000
0003
,
0001
0100
0001
0000
,
0010
0000
0110
0000
,
0001
0000
1001
0000
,
0100
0000
0110
0000
,
0001
0000
1001
0000
,
0002
0000
0000
0000
,
0203
0000
0000
0000
,
2300
0000
0000
0000
,
3010
1000
0010
0001
,
1002
0000
0000
0000
,
0200
0000
0000
0303
,
0010
0010
1000
1000
,
0001
0010
0100
1000
,
2001
0000
0000
0000
,
3002
0000
0000
0000
,
0103
0100
0010
0010
,
1000
0100
0010
0001
,
2001
0000
0000
0000
,
3002
0000
0000
0000
,
0103
0100
0010
0010
,
0001
0010
0100
1000
,
0210
0000
0000
0000
,
2300
0000
0000
0000
,
3001
0001
0100
0100
,
0001
0100
0010
1000
,
1001
0000
0000
0000
,
0010
0000
0100
0000
,
1000
0000
0000
0000
,
0010
0000
0100
0000
,
0001
0000
0000
0000
,
0010
0000
0100
0000
,
1000
0000
0000
0000
,
0010
0000
0110
0000
,
0001
0000
0010
0000
,
0100
0010
1000
0001
,
0100
0000
0100
0000
,
0010
0100
0001
1000
,
0100
0000
0100
0000
,
0001
0010
0100
1000
,
0100
0000
0100
0000
,
0100
0010
1000
0001
,
2000
0000
0010
0000
,
0100
0100
3100
0000
,
0002
0000
0010
0000
,
0100
0100
0103
0000
,
0110
0000
0000
0000
;

//---------------dance-single - Chewi----------------
#NOTES:
     dance-single:
     Chewi:
     Medium:
     6:
     0.264,0.290,0.122,0.071,0.000:
0000
0000
0000
0000
,
0000
0000
0000
0000
,
0000
0000
0000
0000
,
0000
0000
0000
0000
,
1000
0000
1100
0000
,
0001
0010
1000
0000
,
1000
0000
1010
0000
,
0001
0100
1000
0000
,
0001
1000
0100
0010
,
0001
1000
0010
0000
,
0100
0010
1000
0001
,
0010
0100
1000
0000
,
2100
0000
0000
0000
,
3002
0000
0000
0000
,
0203
0000
0000
0000
,
0310
0100
0010
0100
,
0010
1000
0001
0010
,
0100
0100
0100
0000
0100
0000
0000
0000
,
0010
0001
0010
1000
,
0100
0001
0010
0100
,
0100
0100
0100
0000
0100
0000
0010
0000
,
0001
1000
0010
0000
,
1001
0000
0110
0000
,
0001
0100
1000
0100
,
0010
0010
0010
0000
0001
0000
1000
0000
,
0010
0100
0001
0000
,
0001
0001
0001
0000
0001
0000
0010
0000
,
1000
0100
0001
1000
,
0100
0100
0100
0000
0010
0000
0100
0000
,
1000
0001
1001
0000
,
1100
0100
0010
0000
,
0100
0001
0010
0100
,
0120
0001
0100
0000
,
0001
0001
1000
1030
,
1020
0100
0001
0000
,
0100
0100
1000
1030
,
2100
0100
0001
0000
,
0010
0100
0010
3100
,
0102
0100
1000
0000
,
0010
0100
0010
0103
,
1000
0100
0001
0010
,
0100
0000
0000
0100
0000
0000
0100
0000
,
0010
0001
0100
1000
,
0010
0000
0000
0010
0000
0000
0010
0000
,
0100
0010
1000
0001
,
1000
0000
0000
0100
0000
0000
0010
0000
,
0001
0010
0100
1000
,
0100
0000
0000
0010
0000
0000
0100
0000
,
1001
0000
0100
0000
0100
0000
0000
0010
,
0000
0010
0000
0000
0100
0000
0010
0000
,
0000
0000
1000
0000
1000
0000
0000
0001
,
0000
0001
0000
0000
0010
0000
0100
0000
,
0001
0000
0000
0000
;

//---------------dance-single - Chewi----------------
#NOTES:
     dance-single:
     Chewi:
     Hard:
     10:
     0.437,0.448,0.101,0.041,0.000:
0000
0000
0000
0000
,
0000
0000
0000
0000
,
0000
0000
0000
0000
,
0000
0000
0000
0000
,
1000
0100
0010
0000
0001
0000
0100
0000
,
1000
0101
0001
1100
,
1000
0000
0001
0000
1000
0010
0100
0000
,
0001
0000
1000
0000
0100
0010
0100
0000
,
0010
0000
0001
0000
1000
0000
0100
0010
,
0001
0000
0100
1000
0000
0100
0000
0000
,
0000
0001
0010
0100
1000
0010
0000
0100
,
0000
0000
0000
0000
0000
0100
0001
0010
,
0000
0000
0000
0000
0000
0100
1000
0010
,
0000
0000
0000
0000
0000
1000
0001
0100
,
0000
0000
0000
0000
0000
0001
1000
0100
,
0000
0010
0000
0110
0000
0011
0000
0000
,
0001
0010
0100
1000
0001
0010
0100
1000
,
0001
0101
1000
1100
,
1000
0001
0100
0010
1000
0001
0010
0100
,
1000
0001
0100
1000
0001
0100
1000
0001
,
0100
1000
0010
0100
0001
0010
0100
1000
,
0001
1000
0100
0010
0001
0100
0010
0100
,
0001
0000
0010
0100
0000
1000
0001
1000
,
0000
0100
0000
0011
0000
0000
0000
0000
,
1000
0100
0010
0001
1000
0100
0010
0001
,
1000
0010
0001
0010
1000
0010
0001
0010
,
0001
0010
0100
1000
0001
0010
0100
1000
,
0001
0100
1000
0100
0001
0100
1000
0100
,
1000
0100
0010
0001
1000
0100
0010
0001
,
1000
0010
0001
0010
1000
0010
0001
0010
,
0000
0000
0001
0100
0000
0000
1000
0100
,
0000
1000
0000
1010
0000
0000
0100
0100
,
0020
1000
0100
1000
,
1030
0100
0010
0001
1000
0100
0010
0001
,
0020
0001
0100
1000
,
0130
0010
0001
1000
0010
0100
0001
0100
,
0020
0100
1000
0100
,
1030
0100
0010
0001
1000
0100
0010
0001
,
0200
0001
0010
0001
,
0301
0010
0100
1000
0001
0010
0100
1000
,
0001
1000
0100
1000
0001
1000
0100
1000
,
0001
0100
0001
0100
1000
0100
1000
0100
,
1000
0001
1000
0010
1000
0001
1000
0010
,
0001
0010
0001
0010
1000
0010
1000
0010
,
1000
0010
0001
0010
1000
0010
0001
0010
,
1000
0100
0001
0100
1000
0100
0001
0100
,
1000
0001
0100
0010
1000
0001
0010
0100
,
1000
0001
0100
0001
1000
0100
1000
0100
,
0010
0000
0001
0000
0101
0000
0000
1000
,
0000
0100
0000
0001
0010
0100
1000
0000
,
0000
0000
0010
0000
0110
0000
0000
0001
,
0000
1000
0000
0001
0010
0100
1000
0100
,
0010
0000
0000
0000
;

//---------------dance-double - Chewi----------------
#NOTES:
     dance-double:
     Chewi:
     Easy:
     3:
     0.188,0.237,0.030,0.081,0.000: // measure 1
00000000
00000000
00000000
00000000
,  // measure 2
00000000
00000000
00000000
00000000
,  // measure 3
00000000
00000000
00000000
00000000
,  // measure 4
00000000
00000000
00000000
00000000
,  // measure 5
10000000
00000000
00100000
00000000
,  // measure 6
00100000
00000000
00100000
00000000
,  // measure 7
00010000
00000000
00100000
00000000
,  // measure 8
00100000
00000000
00100000
00000000
,  // measure 9
00010000
00000000
00001000
00000000
,  // measure 10
00000010
00000000
00001000
00000000
,  // measure 11
00000010
00000000
00000100
00000000
,  // measure 12
00000001
00000000
00001000
00000000
,  // measure 13
00000002
00000000
00000000
00000003
,  // measure 14
00002000
00000000
00000000
00003000
,  // measure 15
00020000
00000000
00000000
00030000
,  // measure 16
00002000
00000000
00000000
00003000
,  // measure 17
00010000
01000000
10000000
00000000
,  // measure 18
01000000
01000000
01000000
00000000
,  // measure 19
10000000
01000000
00010000
00000000
,  // measure 20
00010000
00001000
00010000
00000000
,  // measure 21
00001000
00000010
00000001
00000000
,  // measure 22
00000010
00000010
00000010
00000000
,  // measure 23
00000001
00000100
00001000
00000000
,  // measure 24
00000100
00000100
00000100
00000000
,  // measure 25
00001000
00000001
00000100
00000000
,  // measure 26
00000010
00000010
00000010
00000000
,  // measure 27
00001000
00010000
00001000
00000000
,  // measure 28
00010000
01000000
10000000
00000000
,  // measure 29
10000000
01000000
00100000
00000000
,  // measure 30
00010000
00010000
00010000
00000000
,  // measure 31
10000000
00100000
01000000
00000000
,  // measure 32
00010000
01000000
00100000
00000000
,  // measure 33
00010000
00010000
00010000
00000000
,  // measure 34
00010000
00001000
00010000
00000000
,  // measure 35
00001000
00001000
00001000
00000000
,  // measure 36
00000001
00001000
00000001
00000000
,  // measure 37
00000010
00001000
00000100
00000000
,  // measure 38
00000100
00010000
00001000
00000000
,  // measure 39
00001000
00010000
01000000
00000000
,  // measure 40
10000000
00100000
00010000
00000000
,  // measure 41
00200000
00000000
00000000
00300000
,  // measure 42
02000000
00000000
00000000
03000000
,  // measure 43
00010000
10000000
00000000
10000000
,  // measure 44
00000000
00010000
00000000
00010000
,  // measure 45
00020000
00000000
00000000
00030000
,  // measure 46
00002000
00000000
00000000
00003000
,  // measure 47
00000010
00001000
00000000
00000010
,  // measure 48
00000000
00000100
00000000
00000001
,  // measure 49
00001000
00001000
00001000
00000000
,  // measure 50
00001000
00010000
00011000
00000000
,  // measure 51
00010000
00010000
00010000
00000000
,  // measure 52
00001000
00010000
00011000
00000000
,  // measure 53
00011000
00000000
00000000
00000000
;

//---------------dance-double - Chewi----------------
#NOTES:
     dance-double:
     Chewi:
     Medium:
     6:
     0.342,0.395,0.030,0.304,0.000: // measure 1
00000000
00000000
00000000
00000000
,  // measure 2
00000000
00000000
00000000
00000000
,  // measure 3
00000000
00000000
00000000
00000000
,  // measure 4
00000000
00000000
00000000
00000000
,  // measure 5
00100000
01000000
00010000
10000000
,  // measure 6
01000000
00100000
00010000
00001000
,  // measure 7
00000000
00000100
00000001
00001000
,  // measure 8
00000100
00000010
00000001
00000010
,  // measure 9
00000100
00001000
00000010
00001000
,  // measure 10
00010000
00100000
10000000
01000000
,  // measure 11
00010000
01000000
00100000
10000000
,  // measure 12
00010000
00000000
00000000
00000000
,  // measure 13
21000000
00100000
00000000
30100000
,  // measure 14
01020000
00100000
00000000
00130000
,  // measure 15
00100000
00010000
00001000
00000100
,  // measure 16
00000010
00000010
00000100
00000100
,  // measure 17
00000001
00001000
00000001
00000000
00001000
00000001
00001000
00000000
,  // measure 18
00000002
00002003
00003020
00000230
,  // measure 19
00000310
00000100
00000010
00000000
00000100
00000010
00000100
00000000
,  // measure 20
00000200
00000000
00002300
00000000
00023000
00030000
02000000
00000000
,  // measure 21
03100000
01000000
00100000
00000000
10000000
00010000
10000000
00000000
,  // measure 22
20000000
32000000
03200000
00320000
,  // measure 23
00130000
01000000
00100000
00000000
00010000
10000000
00010000
00000000
,  // measure 24
00200000
00320000
00032000
00003020
,  // measure 25
00000130
00000001
00000010
00000000
00000100
00001000
00000010
00000000
,  // measure 26
00002000
00003002
00002003
00003002
,  // measure 27
00000103
00000100
00000100
00000000
00000010
00000010
00000010
00000000
,  // measure 28
00000020
00002030
00023000
02030000
,  // measure 29
03100000
01000000
00100000
00000000
01000000
00100000
01000000
00000000
,  // measure 30
20000000
30020000
00230000
02300000
,  // measure 31
03100000
00000000
00000000
00010000
00000000
00000000
00000000
00001000
,  // measure 32
00000000
00010000
00000000
00001000
00000000
00000000
00000010
00000000
,  // measure 33
00000100
00000001
00000010
00001000
,  // measure 34
00000100
00000100
00001000
00001000
,  // measure 35
00000100
01010000
00001000
00100000
,  // measure 36
01000000
01000000
10000000
10000000
,  // measure 37
10000000
00100000
01000000
00010000
,  // measure 38
01000000
01000000
00100000
00100000
,  // measure 39
01000000
00010000
00100000
00010000
,  // measure 40
00001000
00000010
00000001
00000100
,  // measure 41
00001000
00000000
00000010
00000000
00001000
00000001
00001000
00000000
,  // measure 42
00000001
00000000
00000100
00000000
00000000
00000100
00000100
00000000
,  // measure 43
00000010
00000000
00001000
00000000
00000100
00010000
00001000
00000000
,  // measure 44
00100000
00000000
01000000
00000000
00000000
00100000
00100000
00000000
,  // measure 45
00010000
00000000
01000000
00000000
10000000
00100000
00010000
00000000
,  // measure 46
00100000
00000000
01000000
00000000
00000000
00100000
00100000
00000000
,  // measure 47
00100000
00000000
00001000
00000000
00010000
00001000
00000010
00000000
,  // measure 48
00000100
00000000
00000001
00000000
00000000
00000010
00000010
00000000
,  // measure 49
00000100
00000100
00001000
00000100
,  // measure 50
00010000
00001000
00010000
01000000
,  // measure 51
01000000
01000000
00010000
00100000
,  // measure 52
00010000
00001000
00010000
00001000
,  // measure 53
00000010
00000000
00000000
00000000
;

//---------------dance-double - Chewi----------------
#NOTES:
     dance-double:
     Chewi:
     Hard:
     9:
     0.372,0.369,0.061,0.152,0.000:
00000000
00000000
00000000
00000000
,
00000000
00000000
00000000
00000000
,
00000000
00000000
00000000
00000000
,
00000000
00000000
00000000
00000000
,
10000000
00100000
01000000
00010000
,
00100000
00001000
00100000
00000000
00010000
00001000
00010000
00000000
,
00010000
00001000
00000010
00000100
,
00000100
00000001
00000100
00000000
00000100
00001000
00000100
00000000
,
00001000
00000000
00000010
00000000
00001000
00000100
00010000
00000000
,
00001000
00000000
00010000
00000000
00001000
00010000
01000000
00000000
,
00100000
10010000
01000000
10010000
,
10000000
10000000
10000000
00000000
00010000
00010000
00100000
00010000
,
00020000
00000000
01000000
10030000
,
20000000
00000000
00100000
30010000
,
00002000
00000000
00100000
00013000
,
00020000
00000000
00001000
00030010
,
00000010
00000000
00001000
00000000
00000100
00000010
00000001
00000000
,
00000100
00000000
00000010
00000000
00001000
00001000
00000001
00000001
,
00001000
00000000
00000100
00000000
00001000
00000010
00000100
00000000
,
00000010
00000000
00001000
00000000
00000100
00000100
00010000
00010000
,
00001000
00000000
00100000
00000000
00010000
01000000
10000000
00000000
,
00100000
00000000
10000000
00000000
01000000
00010000
00100000
00000000
,
01000000
00100000
01000000
00000000
00010000
00000000
10010000
00000000
,
10000000
00010000
10000000
00000000
00010000
00000000
10010000
00000000
,
20000000
00000000
31000000
00000000
00100000
00010000
01000000
00000000
,
01000000
01000000
00010000
00010000
00001000
00000010
00001000
00000000
,
00000020
00000000
00001030
00000000
00001000
00000001
00000010
00000000
,
00000100
00000100
00000010
00000010
00000001
00001000
00000010
00000000
,
00000200
00000000
00001300
00000000
00000010
00001000
00000100
00000000
,
00001000
00001000
00010000
00010000
00100000
01000000
10000000
00000000
,
01000000
10000000
00100000
00000000
01000000
00010000
00100000
00000000
,
01000000
00100000
01000000
00000000
00010000
10000000
00010000
01000000
,
00200000
01000000
10000000
01300000
,
20000000
01000000
00100000
31000000
,
00020000
01000000
00100000
01030000
,
00200000
00001000
00010000
00310000
,
00020000
00001000
00000010
00031000
,
00000020
00000100
00001000
00000130
,
00002000
00000001
00000100
00003001
,
00000020
00000100
00001000
00000130
,
00000100
00000000
00000010
00000000
00001000
00000001
00000100
00000000
,
00000010
00000000
00001000
00000010
00000000
00000010
00001000
00000000
,
00000001
00000000
00000010
00000000
00000100
00001000
00000010
00000000
,
00001000
00000000
00000100
00010000
00000000
00010000
00001000
00000000
,
00001000
00000000
00010000
00000000
00001000
00010000
01000000
00000000
,
00100000
00000000
01000000
00010000
00000000
00010000
01000000
00000000
,
00100000
00000000
10000000
00000000
00010000
00100000
01000000
00000000
,
10000000
01000000
00000000
01000000
10000000
00100000
01000000
00010000
,
00100000
00100000
01000000
00000000
00110000
00000000
00000000
01000000
,
00000000
00010000
00000000
00100000
00001000
00000000
00001000
00000000
,
00000000
00000000
00010000
00001000
00000010
00000000
00000000
00001000
,
00000000
00000010
00000000
00000100
00000001
00000000
00000001
00000000
,
00001001
00000000
00000000
00000000
;
