#TITLE:Nothin' On You;
#SUBTITLE:;
#ARTIST:B.o.B. feat. Bruno Mars;
#TITLETRANSLIT:;
#SUBTITLETRANSLIT:;
#ARTISTTRANSLIT:;
#CREDIT:Chewphoria~;
#BANNER:Nothin' On You.png;
#BACKGROUND:Nothin' On You-bg.png;
#LYRICSPATH:;
#CDTITLE:;
#MUSIC:Nothin' On You.mp3;
#OFFSET:-1.852;
#SAMPLESTART:56.071;
#SAMPLELENGTH:15.000;
#SELECTABLE:YES;
#BPMS:0.000=104.000;
#STOPS:;
#BGCHANGES:-3.704=Nothin' On You.avi=1.000=1=0=0,
144.000=Nothin' On You-bg.png=1.000=1=0=1,
99999=-nosongbg-=1.000=0=0=0 // don't automatically add -songbackground-
;

//---------------dance-single - Chewphoria~----------------
#NOTES:
     dance-single:
     Chewphoria~:
     Beginner:
     1:
     0.115,0.143,0.034,0.091,0.000: // measure 1
0000
0000
0000
0000
,  // measure 2
0000
0000
0000
0000
,  // measure 3
0000
0000
0000
0000
,  // measure 4
0000
0000
0000
0000
,  // measure 5
0100
0000
0010
0000
,  // measure 6
0100
0000
0000
0000
,  // measure 7
0001
0000
1000
0000
,  // measure 8
0001
0000
0000
0000
,  // measure 9
1001
0000
0001
0000
,  // measure 10
1000
0000
0001
0000
,  // measure 11
0110
0000
0010
0000
,  // measure 12
0100
0000
0010
0000
,  // measure 13
1000
0000
0001
0000
,  // measure 14
0100
0000
0010
0000
,  // measure 15
1000
0000
0001
0000
,  // measure 16
0010
0000
0100
0000
,  // measure 17
0200
0000
0000
0300
,  // measure 18
0100
0100
0000
0000
,  // measure 19
0020
0000
0000
0030
,  // measure 20
0010
0010
0000
0000
,  // measure 21
2000
0000
3000
1000
,  // measure 22
2000
0000
3000
0001
,  // measure 23
0002
0000
0003
0001
,  // measure 24
0002
0000
0000
0003
,  // measure 25
1000
0000
0100
0000
,  // measure 26
0010
0000
0001
0000
,  // measure 27
0001
0000
0100
0000
,  // measure 28
0010
0000
1000
0000
,  // measure 29
2000
0000
0000
3000
,  // measure 30
1000
0001
1000
0000
,  // measure 31
0002
0000
0000
0003
,  // measure 32
0001
1000
0001
0000
,  // measure 33
0110
0000
1000
0000
,  // measure 34
0001
0000
0001
0000
,  // measure 35
0100
0000
0100
0000
,  // measure 36
1000
0000
1000
0000
,  // measure 37
0010
0000
0000
0000
;

//---------------dance-single - Chewphoria~----------------
#NOTES:
     dance-single:
     Chewphoria~:
     Easy:
     2:
     0.157,0.183,0.068,0.079,0.000: // measure 1
0000
0000
0000
0000
,  // measure 2
0000
0000
0000
0000
,  // measure 3
0000
0000
0000
0000
,  // measure 4
0000
0000
0000
0000
,  // measure 5
0020
0000
0000
0030
,  // measure 6
1000
0000
0000
0000
,  // measure 7
0200
0000
0000
0300
,  // measure 8
0001
0000
0000
0000
,  // measure 9
0010
0000
0110
0000
,  // measure 10
1000
0000
1001
0000
,  // measure 11
0001
0000
1001
0000
,  // measure 12
0010
1000
0100
0000
,  // measure 13
0010
0000
0110
0000
,  // measure 14
1000
0000
1001
0000
,  // measure 15
0001
0000
1001
0000
,  // measure 16
0010
1000
0100
0000
,  // measure 17
0020
0000
0001
0000
,  // measure 18
0031
0001
0001
0000
,  // measure 19
0002
0000
0100
0000
,  // measure 20
0103
0100
0100
0000
,  // measure 21
1000
0010
1000
0000
,  // measure 22
0001
0010
0001
0000
,  // measure 23
1000
0001
0100
0010
,  // measure 24
0020
0000
0000
0030
,  // measure 25
0010
0010
1000
1000
,  // measure 26
0010
0010
1000
1000
,  // measure 27
0001
0001
0100
0100
,  // measure 28
0001
0001
0100
0100
,  // measure 29
0020
0000
1000
0001
,  // measure 30
1030
0000
0000
0000
,  // measure 31
0200
0000
0001
1000
,  // measure 32
0301
0000
0000
0000
,  // measure 33
0001
0001
0010
0010
,  // measure 34
1000
1000
0010
0010
,  // measure 35
0100
0100
0001
0001
,  // measure 36
1000
1000
0100
0100
,  // measure 37
0100
0000
0000
0000
;

//---------------dance-single - Chewphoria~----------------
#NOTES:
     dance-single:
     Chewphoria~:
     Medium:
     3:
     0.194,0.224,0.102,0.045,0.000: // measure 1
0000
0000
0000
0000
,  // measure 2
0000
0000
0000
0000
,  // measure 3
0000
0000
0000
0000
,  // measure 4
0000
0000
0000
0000
,  // measure 5
2000
0000
0100
0001
,  // measure 6
3010
0000
0000
0000
,  // measure 7
0002
0000
0100
1000
,  // measure 8
0013
0000
0000
0000
,  // measure 9
1000
0000
0100
1000
0001
0000
0000
0000
,  // measure 10
0001
0000
0100
0001
1000
0000
0000
0000
,  // measure 11
0010
0000
0100
0100
0100
0000
0000
0000
,  // measure 12
0100
0000
0010
0010
0010
0000
0000
0000
,  // measure 13
1000
0100
0001
0010
,  // measure 14
1000
0010
0001
0100
,  // measure 15
1000
0010
0100
1000
,  // measure 16
0010
0001
0100
0010
,  // measure 17
0001
0000
1001
0000
,  // measure 18
1000
0000
1001
0000
,  // measure 19
0100
0000
0110
0000
,  // measure 20
0010
0000
0110
0000
,  // measure 21
0010
0000
1000
1000
0000
0000
0000
0000
,  // measure 22
1000
0000
0001
0001
0000
0000
0000
0000
,  // measure 23
0001
0000
0100
0100
0000
0000
0010
0000
,  // measure 24
0220
0000
0000
0330
,  // measure 25
0010
1000
0001
0000
,  // measure 26
0010
0001
1000
0000
,  // measure 27
0010
0100
0010
0000
1000
0001
1000
0000
,  // measure 28
0001
0010
1000
0100
,  // measure 29
0001
0000
1000
1010
,  // measure 30
0001
0000
0001
1000
,  // measure 31
0001
0000
0001
0011
,  // measure 32
1000
0000
0000
0000
1000
0001
0100
0000
,  // measure 33
0010
0110
1000
0100
,  // measure 34
0001
1001
0010
0100
,  // measure 35
0001
1000
0100
0010
,  // measure 36
0001
0000
1000
0001
1000
0001
0100
0000
,  // measure 37
0010
0000
0000
0000
;

//---------------dance-single - Chewphoria~----------------
#NOTES:
     dance-single:
     Chewphoria~:
     Hard:
     6:
     0.288,0.346,0.068,0.136,0.028: // measure 1
0000
0000
0000
0000
,  // measure 2
0000
0000
0000
0000
,  // measure 3
0000
0000
0000
0000
,  // measure 4
0000
0000
0000
0000
,  // measure 5
0020
0000
1000
0100
,  // measure 6
0031
0000
0000
0000
,  // measure 7
0200
0000
1000
0010
,  // measure 8
0301
0000
0000
0000
0000
0000
0000
0000
0000
0000
1000
0001
1000
0000
0000
0000
,  // measure 9
0001
0000
0100
1000
0010
0000
0100
0000
,  // measure 10
0010
0000
0100
0001
0010
0000
0100
0000
,  // measure 11
1000
0000
0010
1000
0100
0000
0010
0000
,  // measure 12
0001
0100
1000
0010
0001
0000
0100
0010
,  // measure 13
0002
0000
0103
0010
2000
0000
3001
0010
,  // measure 14
0200
0000
0310
0001
0200
0000
0310
1000
,  // measure 15
0002
0000
0013
0001
2000
0000
3010
0010
,  // measure 16
0110
0000
0100
0100
0110
0000
0000
0000
,  // measure 17
1000
0000
0000
0100
0000
0000
0000
0000
0001
0000
0000
0100
0000
0000
0000
0000
,  // measure 18
0100
0010
1000
0001
0000
0000
0000
0000
,  // measure 19
0010
0000
0000
0001
0000
0000
0000
0000
0010
0000
0000
1000
0000
0000
0000
0000
,  // measure 20
1000
0010
0100
0001
0000
0000
1000
0100
,  // measure 21
0010
0001
0100
0010
0000
0000
0001
0100
,  // measure 22
0010
1000
0100
0010
0000
0000
0001
1000
,  // measure 23
0010
0100
0001
1000
0100
0010
0001
0100
,  // measure 24
0220
0000
0000
0330
,  // measure 25
0010
0000
1000
0000
0010
1000
0100
0000
,  // measure 26
0010
0000
0001
0000
0010
0001
0100
0000
,  // measure 27
1000
0100
0010
0000
0001
0100
0010
0000
,  // measure 28
1000
0001
0010
0100
1000
0010
0100
0001
,  // measure 29
0200
0000
0010
1000
,  // measure 30
0301
0000
0000
0000
0100
1000
0010
0001
,  // measure 31
0200
0000
0010
0001
,  // measure 32
1300
0000
0000
0000
0100
1000
0001
0100
,  // measure 33
0010
0000
1010
0000
0100
0001
0010
0100
,  // measure 34
1000
0000
1100
0000
0001
1000
0010
0100
,  // measure 35
0001
0000
0101
0000
1000
0001
0010
0100
,  // measure 36
1000
0000
0010
0010
1000
1000
0001
0001
,  // measure 37
1000
0000
0000
0000
;
