#TITLE:Not Tonight (Ladies Night Remix);
#SUBTITLE:(feat. Da Brat, Angie Martinez, Missy Elliott & Lisa "Left Eye" Lopes);
#ARTIST:Lil' Kim;
#TITLETRANSLIT:;
#SUBTITLETRANSLIT:;
#ARTISTTRANSLIT:;
#GENRE:Hip-Hop/Rap;
#CREDIT:chewi;
#BANNER:Not Tonight (Ladies Night Remix).png;
#BACKGROUND:Not Tonight (Ladies Night Remix)-bg.png;
#LYRICSPATH:;
#CDTITLE:cdtitle.png;
#MUSIC:Not Tonight (Ladies Night Remix).ogg;
#OFFSET:-0.442000;
#SAMPLESTART:67.400002;
#SAMPLELENGTH:15.000000;
#SELECTABLE:YES;
#DISPLAYBPM:100.000000;
#BPMS:0.000000=99.500000
;
#STOPS:
;
#BGCHANGES:;
#KEYSOUNDS:;
#ATTACKS:;

//---------------dance-single - ----------------
#NOTES:
     dance-single:
     :
     Beginner:
     2:
     0.087947,0.116646,0.000000,0.000000,0.000000,57.000000,57.000000,0.000000,0.000000,0.000000,0.000000,0.087947,0.116646,0.000000,0.000000,0.000000,57.000000,57.000000,0.000000,0.000000,0.000000,0.000000:
// measure 0
0000
0000
0000
0000
,  // measure 1
0000
0000
0000
0000
,  // measure 2
0000
0000
0000
0000
,  // measure 3
0000
0000
0000
0000
,  // measure 4
1000
0000
0000
0000
,  // measure 5
0001
0000
0000
0000
,  // measure 6
0100
0000
0000
0000
,  // measure 7
0010
0000
0000
0000
,  // measure 8
0000
1000
0000
0000
,  // measure 9
0001
0000
0000
0000
,  // measure 10
0010
0000
0000
0000
,  // measure 11
0100
0000
0000
0000
,  // measure 12
1000
0000
0100
0000
,  // measure 13
1000
0000
0100
0000
,  // measure 14
0001
0000
0100
0000
,  // measure 15
0001
0000
0100
0000
,  // measure 16
0100
0000
0010
0000
,  // measure 17
0100
0000
0010
0000
,  // measure 18
1000
0000
0001
0000
,  // measure 19
1000
0000
0001
0000
,  // measure 20
1000
0000
0100
0000
,  // measure 21
0001
0000
0010
0000
,  // measure 22
1000
0000
0010
0000
,  // measure 23
0001
0000
0100
0000
,  // measure 24
1000
0000
0001
0000
,  // measure 25
0010
0000
0010
0000
,  // measure 26
0001
0000
1000
0000
,  // measure 27
0010
0000
0010
0000
,  // measure 28
1000
1000
1000
0000
,  // measure 29
1000
0000
0000
0000
,  // measure 30
0100
0100
0100
0000
,  // measure 31
0100
0000
0000
0000
,  // measure 32
0010
0010
0010
0000
,  // measure 33
0010
0000
0000
0000
,  // measure 34
0001
0001
0001
0000
,  // measure 35
0001
0000
0000
0000
,  // measure 36
0010
0000
0000
0000
;

//---------------dance-single - ----------------
#NOTES:
     dance-single:
     :
     Hard:
     8:
     0.325559,0.349937,0.248412,0.064803,0.000000,211.000000,188.000000,23.000000,6.000000,2.000000,0.000000,0.325559,0.349937,0.248412,0.064803,0.000000,211.000000,188.000000,23.000000,6.000000,2.000000,0.000000:
// measure 0
0000
0000
0000
0000
,  // measure 1
0000
0000
0000
0000
,  // measure 2
0000
0000
0000
0000
,  // measure 3
0000
0000
0000
0000
,  // measure 4
1002
0000
0103
0000
0100
0010
1001
0000
,  // measure 5
2001
0000
3100
0000
0010
0100
1001
0000
,  // measure 6
1000
0100
1000
0000
0001
0100
0001
0000
,  // measure 7
1000
0010
0100
0001
1000
0001
1000
0001
,  // measure 8
0000
0000
1001
0000
0010
0100
1000
0000
,  // measure 9
0001
0000
0101
0000
0100
0010
1000
0000
,  // measure 10
0001
0010
0001
0000
1000
0100
1000
0000
,  // measure 11
0000
0000
0000
0000
,  // measure 12
0010
0100
0010
0100
1000
0001
1000
0001
,  // measure 13
0010
0100
0010
0100
1000
0001
1001
M00M
,  // measure 14
0100
0001
0100
0001
1000
0001
1000
0001
,  // measure 15
1000
0100
1000
0100
0010
0000
0011
0000
,  // measure 16
1000
0001
1000
0001
0100
0010
0100
0010
,  // measure 17
1000
0001
1000
0001
0010
0100
0110
0000
,  // measure 18
0001
0100
0001
1000
0100
1000
0001
0000
,  // measure 19
1000
0000
0010
0000
0100
0010
0110
0000
,  // measure 20
0010
1000
0001
0010
0001
0010
0100
0000
,  // measure 21
1000
0000
0001
0000
1000
0001
0101
0000
,  // measure 22
1000
0010
1000
0001
0010
0001
1000
0000
,  // measure 23
0001
0000
0100
0000
0010
0100
0110
0000
,  // measure 24
0100
0001
1000
0100
1000
0100
0010
0000
,  // measure 25
0001
0000
1000
0000
0001
1000
1010
0000
,  // measure 26
1000
1100
0001
0101
,  // measure 27
1000
0010
0100
0001
0100
0010
1000
1000
,  // measure 28
0020
0000
0130
0000
0001
0010
0100
0000
,  // measure 29
1100
1000
0001
0000
0101
0001
1000
0010
,  // measure 30
0200
0000
0310
0000
1000
0001
0010
0000
,  // measure 31
0001
1000
0010
0000
0110
0000
1001
0000
,  // measure 32
0200
0000
0310
0000
1000
0100
0010
0000
,  // measure 33
0011
0001
1000
0000
1010
1000
0001
0100
,  // measure 34
0020
0000
0130
0000
0001
1000
0100
0000
,  // measure 35
1000
0001
0100
0000
0110
0000
1001
0000
,  // measure 36
0010
0000
0000
0000
;

//---------------dance-single - ----------------
#NOTES:
     dance-single:
     :
     Easy:
     4:
     0.132692,0.155528,0.000000,0.000000,0.000000,86.000000,86.000000,0.000000,0.000000,0.000000,0.000000,0.132692,0.155528,0.000000,0.000000,0.000000,86.000000,86.000000,0.000000,0.000000,0.000000,0.000000:
// measure 0
0000
0000
0000
0000
,  // measure 1
0000
0000
0000
0000
,  // measure 2
0000
0000
0000
0000
,  // measure 3
0000
0000
0000
0000
,  // measure 4
1000
0000
0010
0000
,  // measure 5
0001
0000
0010
0000
,  // measure 6
1000
0000
0010
0000
,  // measure 7
0001
0000
0010
0000
,  // measure 8
0000
0001
0000
1000
,  // measure 9
0000
0010
0000
0100
,  // measure 10
0000
0010
0000
1000
,  // measure 11
0000
0000
0000
0000
,  // measure 12
1000
0100
0001
0000
,  // measure 13
0010
0000
0010
0000
,  // measure 14
1000
0100
0001
0000
,  // measure 15
0100
0000
0100
0000
,  // measure 16
1000
0010
0001
0000
,  // measure 17
0100
0000
0100
0000
,  // measure 18
1000
0100
0001
0000
,  // measure 19
0010
0000
0010
0000
,  // measure 20
0010
0010
0010
0000
,  // measure 21
0100
0001
1000
0000
,  // measure 22
1000
1000
1000
0000
,  // measure 23
0100
0010
0100
0000
,  // measure 24
0100
0100
0100
0000
,  // measure 25
0010
0001
1000
0000
,  // measure 26
0001
0001
0001
0000
,  // measure 27
0001
0010
0100
1000
,  // measure 28
0100
0001
0010
0000
,  // measure 29
1000
0100
0001
0000
,  // measure 30
0010
1000
0100
0000
,  // measure 31
0001
0010
1000
0010
,  // measure 32
0001
0100
1000
0000
,  // measure 33
0010
0001
0100
0000
,  // measure 34
1000
0010
0001
0000
,  // measure 35
0100
1000
0010
0001
,  // measure 36
0010
0000
0000
0000
;

//---------------dance-single - ----------------
#NOTES:
     dance-single:
     :
     Medium:
     6:
     0.226811,0.311055,0.162008,0.237612,0.000000,147.000000,132.000000,15.000000,22.000000,0.000000,0.000000,0.226811,0.311055,0.162008,0.237612,0.000000,147.000000,132.000000,15.000000,22.000000,0.000000,0.000000:
// measure 0
0000
0000
0000
0000
,  // measure 1
0000
0000
0000
0000
,  // measure 2
0000
0000
0000
0000
,  // measure 3
0000
0000
0000
0000
,  // measure 4
1000
0100
0010
0001
,  // measure 5
2000
3002
0203
0320
,  // measure 6
0130
0010
1000
0010
,  // measure 7
2000
3200
0320
0032
,  // measure 8
0003
0001
1000
0001
,  // measure 9
0200
0320
0230
0302
,  // measure 10
1003
0100
0010
0001
,  // measure 11
2002
0000
0000
3003
,  // measure 12
1000
1100
0001
0101
,  // measure 13
1100
1100
0101
0101
,  // measure 14
1000
1010
0001
0011
,  // measure 15
1010
1010
0011
0011
,  // measure 16
0010
0100
2000
3001
,  // measure 17
0100
0010
0200
0310
,  // measure 18
1000
0010
2000
3010
,  // measure 19
0001
0010
0002
0013
,  // measure 20
0001
0010
1000
0001
,  // measure 21
0100
1000
0100
0100
,  // measure 22
1000
0100
0001
1000
,  // measure 23
0010
0001
0010
0010
,  // measure 24
0001
0010
0100
0001
,  // measure 25
0010
1000
0100
0010
,  // measure 26
1000
0100
0001
0100
,  // measure 27
1000
0010
0001
0010
,  // measure 28
0011
0000
0001
0000
0010
0001
0010
0000
,  // measure 29
1000
0000
0100
0000
1000
0100
1000
0000
,  // measure 30
0001
0000
1000
0000
0001
1000
0001
0000
,  // measure 31
2000
3020
0230
0302
,  // measure 32
1003
0000
0001
0000
1000
0001
1000
0000
,  // measure 33
0001
0000
0100
0000
0001
0100
0001
0000
,  // measure 34
0100
0000
0010
0000
0100
0010
0100
0000
,  // measure 35
0010
0000
1000
0000
0010
1000
0010
0000
,  // measure 36
1001
0000
0000
0000
;
