#TITLE:沒理由;
#SUBTITLE:;
#ARTIST:By2;
#TITLETRANSLIT:No Reason;
#SUBTITLETRANSLIT:;
#ARTISTTRANSLIT:;
#GENRE:;
#CREDIT:chewi;
#BANNER:No Reason.png;
#BACKGROUND:No Reason-bg.png;
#LYRICSPATH:;
#CDTITLE:cdtitle.png;
#MUSIC:No Reason.mp3;
#OFFSET:-0.154000;
#SAMPLESTART:59.230000;
#SAMPLELENGTH:15.000000;
#SELECTABLE:YES;
#DISPLAYBPM:130.000000;
#BPMS:0.000000=130.000000
;
#STOPS:
;
#BGCHANGES:-0.500=No Reason.avi=1.000=0=0=1=====,
99999=-nosongbg-=1.000=0=0=0 // don't automatically add -songbackground-
;
#KEYSOUNDS:;
#ATTACKS:;

//---------------dance-single - ----------------
#NOTES:
     dance-single:
     :
     Beginner:
     1:
     0.095838,0.106919,0.000000,0.083858,0.000000,56.000000,0.000000,8.000000,0.000000,0.000000,0.000000,0.095838,0.106919,0.000000,0.083858,0.000000,56.000000,0.000000,8.000000,0.000000,0.000000,0.000000:
// measure 0
0000
0000
0000
0000
,  // measure 1
0000
0000
0000
0000
,  // measure 2
0000
0000
0000
0000
,  // measure 3
0000
0000
0000
0000
,  // measure 4
0020
0000
0000
0000
,  // measure 5
0000
0000
0000
0030
,  // measure 6
0200
0000
0000
0000
,  // measure 7
0000
0000
0000
0300
,  // measure 8
0100
0000
0000
0000
,  // measure 9
0100
0000
0000
0000
,  // measure 10
0010
0000
0000
0000
,  // measure 11
0010
0000
0000
0000
,  // measure 12
1000
0000
0000
0000
,  // measure 13
1000
0000
0000
0000
,  // measure 14
0001
0000
0000
0000
,  // measure 15
0001
0000
0000
0000
,  // measure 16
0001
0000
0001
0000
,  // measure 17
0001
0000
0001
0000
,  // measure 18
1000
0000
1000
0000
,  // measure 19
1000
0000
1000
0000
,  // measure 20
0010
0000
0010
0000
,  // measure 21
0010
0000
0010
0000
,  // measure 22
0100
0000
0100
0000
,  // measure 23
0100
0000
0100
0000
,  // measure 24
0200
0000
0000
0300
,  // measure 25
0100
0000
0000
0000
,  // measure 26
0020
0000
0000
0030
,  // measure 27
0010
0000
0000
0000
,  // measure 28
0002
0000
0000
0003
,  // measure 29
0001
0000
0000
0000
,  // measure 30
2000
0000
0000
3000
,  // measure 31
1000
0000
0000
0000
,  // measure 32
1000
0000
0000
0000
,  // measure 33
0100
0000
0000
0000
,  // measure 34
0001
0000
0000
0000
,  // measure 35
0010
0000
0000
0000
,  // measure 36
0001
0000
0000
0000
,  // measure 37
0100
0000
0000
0000
,  // measure 38
1000
0000
0000
0000
,  // measure 39
0010
0000
0000
0000
,  // measure 40
0001
0000
1000
0000
,  // measure 41
1000
0000
0000
0000
,  // measure 42
1000
0000
0001
0000
,  // measure 43
0001
0000
0000
0000
,  // measure 44
0100
0000
0010
0000
,  // measure 45
0010
0000
0000
0000
,  // measure 46
0010
0000
0100
0000
,  // measure 47
0100
0000
0000
0000
,  // measure 48
0020
0000
0000
0000
,  // measure 49
0000
0000
0000
0030
,  // measure 50
0200
0000
0000
0000
,  // measure 51
0300
0000
0000
0000
;

//---------------dance-single - ----------------
#NOTES:
     dance-single:
     :
     Easy:
     3:
     0.169214,0.213839,0.020965,0.125787,0.000000,99.000000,2.000000,12.000000,0.000000,0.000000,0.000000,0.169214,0.213839,0.020965,0.125787,0.000000,99.000000,2.000000,12.000000,0.000000,0.000000,0.000000:
0000
0000
0000
0000
,
0000
0000
0000
0000
,
0000
0000
0000
0000
,
0000
0000
0000
0000
,
2000
0000
0000
0000
,
3002
0000
0000
0000
,
2003
0000
0000
0000
,
3001
0000
0000
0000
,
1000
0000
0010
0000
,
0001
0000
0100
0000
,
1000
0000
0010
0000
,
0010
0000
1001
0000
,
0001
0000
0010
0000
,
1000
0000
0100
0000
,
0001
0000
0010
0000
,
0010
0000
1001
0000
,
1000
0100
1000
0000
,
0100
1000
0100
0000
,
0001
0100
0001
0000
,
0100
0001
0100
0000
,
0100
0010
0100
0000
,
0010
0100
0010
0000
,
1000
0100
0010
0000
,
0001
0100
0010
0000
,
0020
0000
0000
0000
,
2030
0000
0000
0000
,
3002
0000
0000
0000
,
1003
1000
0001
0001
,
2000
0000
0000
0000
,
3200
0000
0000
0000
,
0320
0000
0000
0000
,
0031
0000
0000
0000
,
0001
0000
0100
0000
,
0010
0000
0001
0000
,
0100
0000
0010
0000
,
0001
0000
0100
0000
,
0010
0000
0001
0000
,
0100
0000
1000
0000
,
0010
0010
0010
0010
,
0100
0100
0100
0100
,
0010
0000
1000
0000
,
0100
0000
0010
0000
,
1000
0000
0100
0000
,
0010
0000
1000
0000
,
0100
0000
0001
0000
,
0010
0000
1000
0000
,
0100
0100
0100
0100
,
0010
0010
0010
0010
,
0020
0000
0000
0000
,
0230
0000
0000
0000
,
2300
0000
0000
0000
,
3001
0000
0000
0000
;

//---------------dance-single - ----------------
#NOTES:
     dance-single:
     :
     Medium:
     6:
     0.278529,0.320758,0.094341,0.167717,0.000000,161.000000,9.000000,16.000000,0.000000,0.000000,0.000000,0.278529,0.320758,0.094341,0.167717,0.000000,161.000000,9.000000,16.000000,0.000000,0.000000,0.000000:
0000
0000
0000
0000
,
0000
0000
0000
0000
,
0000
0000
0000
0000
,
0000
0000
0000
0000
,
2000
0000
0000
0000
,
3020
0000
0000
0000
,
0230
0000
0000
0000
,
0301
0000
0000
0000
,
0001
0000
1000
0000
0010
0100
0010
0000
,
1000
0000
0001
0000
0010
0100
0010
0000
,
0100
0000
1000
0000
0001
0010
0100
0000
,
1000
0000
0010
0000
0100
0001
0100
0000
,
0101
0101
0101
0101
,
0010
1000
0001
1000
,
1100
1100
1100
1100
,
0100
0010
0001
1000
,
0001
0100
0010
1000
,
0001
1000
0100
0000
1000
0000
0000
0000
,
1000
0100
0010
0001
,
1000
0001
0010
0000
0001
0000
0000
0000
,
0001
0100
0010
1000
,
0001
1000
0010
0000
1000
0000
0000
0000
,
1000
0010
0100
0001
,
1000
0001
0100
0000
0001
0000
0000
0000
,
2000
0000
0000
3100
0000
0000
0010
0000
,
0002
0000
0000
0013
0000
0000
0001
0000
,
0010
0000
0100
0000
1000
0001
1000
0000
,
0001
1000
0001
0000
,
2000
0000
0000
3010
0000
0000
0100
0000
,
0002
0000
0000
0103
0000
0000
0001
0000
,
1000
0001
0010
0100
,
0110
0000
0000
0000
,
0010
0000
0010
0000
0000
0010
0000
0010
,
0000
0000
0000
0001
0010
0000
0100
0000
,
1000
0000
1000
0000
0000
1000
0000
1000
,
0000
0000
0000
1000
0001
0000
0100
0000
,
0010
0000
0010
0000
0000
0010
0000
0010
,
0000
0000
0000
0010
,
0001
0010
1000
0100
,
0001
0010
1000
0010
,
0010
0000
0010
0000
0000
0010
0000
0010
,
0000
0000
0000
1000
0100
0000
0010
0000
,
0001
0000
0001
0000
0000
0001
0000
0001
,
0000
0000
0000
1000
0001
0000
0100
0000
,
1000
0000
1000
0000
0000
1000
0000
1000
,
0000
0000
0000
0100
,
1000
0100
0001
0010
,
1000
0100
0001
0010
,
0020
0032
0023
0000
,
0230
2300
3200
0000
,
2300
3002
2003
0000
,
3001
0000
0000
0000
;

//---------------dance-single - ----------------
#NOTES:
     dance-single:
     :
     Hard:
     10:
     0.378860,0.374218,0.125787,0.199164,0.104823,222.000000,12.000000,19.000000,0.000000,0.000000,0.000000,0.378860,0.374218,0.125787,0.199164,0.104823,222.000000,12.000000,19.000000,0.000000,0.000000,0.000000:
0000
0000
0000
0000
,
0000
0000
0000
0000
,
0000
0000
0000
0000
,
0000
0000
0000
0000
,
0002
0000
0000
0000
,
0203
0000
0000
0000
,
0320
0000
0000
0000
,
1030
0000
0000
0000
,
0010
0000
0000
0000
0110
0000
0000
0000
0100
0000
0000
0100
0000
0000
0100
0000
,
0001
0000
0000
0000
1001
0000
0000
0000
1000
0000
0000
1000
0000
0000
1000
0000
,
0100
0000
0000
0000
0110
0000
0000
0000
0010
0000
0000
0010
0000
0000
0010
0000
,
0001
0010
0011
0000
,
0002
0000
1003
0000
1000
0100
0010
0000
,
0020
0000
0031
0000
0001
0010
0100
0000
,
2000
3100
0002
0103
,
0010
0100
0010
0100
0010
0100
0010
0100
,
0001
1000
0001
0000
0010
0010
0100
0000
,
1000
0100
0010
0001
1000
0000
1001
0000
,
0001
1000
0100
0000
0010
0010
0100
0000
,
1000
0001
0100
0010
1000
0000
1010
0000
,
0100
0000
0000
0100
0000
0000
0100
0000
0010
0000
0000
0010
0000
0000
0010
0000
,
1000
0000
0000
0010
0000
0000
0100
0000
0001
0000
0000
0010
0000
0000
0001
0000
,
0100
0000
0000
0100
0000
0000
0100
0000
0010
0000
0000
0010
0000
0000
0010
0000
,
1000
0000
0000
0001
0000
0000
0100
0000
0010
0000
0000
1000
0000
0000
0001
0000
,
1000
0000
0000
1000
0000
0000
2000
0000
0000
0000
3001
0000
0010
0000
0100
0000
,
1000
0000
0000
1000
0000
0000
2000
0000
0000
0000
3001
0000
1000
0000
0010
0000
,
0100
0001
1000
0010
0100
0001
0010
0002
,
0000
0000
0000
0000
0000
1003
0001
0010
,
0001
0000
0000
0001
0000
0000
0002
0000
0000
0000
0013
0000
0100
0000
1000
0000
,
0001
0000
0000
0001
0000
0000
0002
0000
0000
0000
1003
0000
0100
0000
0010
0000
,
0001
1000
0100
0010
0001
1000
0010
0100
,
0200
0000
0000
0000
,
0310
1000
0001
0000
0000
0001
1000
0010
,
0000
0000
0000
1000
0100
0010
0001
1000
,
0100
1000
0010
0000
0000
0010
1000
0100
,
0000
0000
0000
1000
0010
0100
0001
0010
,
0001
0100
0010
0000
0000
0010
0100
0001
,
0000
0000
0000
0000
0000
0000
0000
0000
0000
0000
0010
0000
0100
0000
0000
1100
,
0000
0000
0000
0101
0000
0000
0000
1001
,
0000
0000
0000
1000
0100
0010
0001
0000
,
0100
0001
1000
0000
0000
1000
0001
0100
,
0000
0000
0000
0001
0010
0100
1000
0001
,
0010
0001
0100
0000
0000
0100
0001
0010
,
0000
0000
0000
0001
0100
0010
1000
0100
,
1000
0010
0100
0000
0000
0100
0010
1000
,
0000
0000
0000
0000
0000
0000
0000
0000
0000
0000
0100
0000
0010
0000
0000
0011
,
0000
0000
0000
1010
0000
0000
0000
1001
,
0000
0000
0000
0000
,
0020
0000
0000
0000
0032
0000
0000
0000
0013
0000
0000
0010
0000
0000
0010
0000
,
0200
0000
0000
0000
2300
0000
0000
0000
3100
0000
0000
0100
0000
0000
0100
0000
,
2000
0000
0000
0000
3002
0000
0000
0000
0103
0000
0000
0100
0000
0000
0100
0000
,
0010
0000
0000
0000
;
