#VERSION:0.83;
#TITLE:New Rules;
#SUBTITLE:;
#ARTIST:Dua Lipa;
#TITLETRANSLIT:;
#SUBTITLETRANSLIT:;
#ARTISTTRANSLIT:;
#GENRE:Pop;
#ORIGIN:;
#CREDIT:chewi;
#BANNER:New Rules.png;
#BACKGROUND:New Rules-bg.png;
#PREVIEWVID:;
#JACKET:New Rules-jacket.png;
#CDIMAGE:;
#DISCIMAGE:;
#LYRICSPATH:;
#CDTITLE:cdtitle.png;
#MUSIC:New Rules.ogg;
#OFFSET:-0.686809;
#SAMPLESTART:60.634998;
#SAMPLELENGTH:15.000000;
#SELECTABLE:YES;
#BPMS:0.000=116.000;
#STOPS:;
#DELAYS:;
#WARPS:;
#TIMESIGNATURES:0.000=4=4;
#TICKCOUNTS:0.000=4;
#COMBOS:0.000=1;
#SPEEDS:0.000=1.000=0.000=0;
#SCROLLS:0.000=1.000;
#FAKES:;
#LABELS:0.000=Song Start;
#BGCHANGES:;
#KEYSOUNDS:;
#ATTACKS:
;

//---------------dance-single - ----------------
#NOTEDATA:;
#CHARTNAME:;
#STEPSTYPE:dance-single;
#DESCRIPTION:;
#CHARTSTYLE:;
#DIFFICULTY:Hard;
#METER:11;
#RADARVALUES:0.385333,0.393790,0.030885,0.000000,0.221346,262.000000,259.000000,3.000000,0.000000,0.000000,0.000000,0.000000,0.000000,0.000000,0.385333,0.393790,0.030885,0.000000,0.221346,262.000000,259.000000,3.000000,0.000000,0.000000,0.000000,0.000000,0.000000,0.000000;
#CREDIT:;
#NOTES:
// measure 0
0000
0000
0000
0000
,  // measure 1
0000
0000
0000
0000
,  // measure 2
0000
0000
0000
0000
,  // measure 3
0000
0000
0000
0000
,  // measure 4
1000
0000
0000
1000
0000
0000
0000
0000
0000
0000
0000
0100
0000
0000
0000
0000
,  // measure 5
0010
0000
0000
0010
0000
0000
0000
0000
0000
0000
0000
0001
0000
0000
1000
0000
,  // measure 6
0001
0000
0000
0001
0000
0000
0001
0000
0000
0000
0000
1000
0001
1000
0001
0000
,  // measure 7
0100
0000
0000
0100
0000
0000
0100
0000
0000
0000
0000
0001
0000
0000
1000
0000
,  // measure 8
0001
0000
0000
0001
0000
0000
0000
0000
0000
0000
0000
0010
0000
0000
0000
0000
,  // measure 9
0100
0000
0000
0100
0000
0000
0000
0000
0000
0000
0000
1000
0000
0000
0001
0000
,  // measure 10
1000
0000
0000
1000
0000
0000
1000
0000
0000
0000
0000
0001
1000
0001
1000
0000
,  // measure 11
0010
0000
0000
0010
0000
0000
0010
0000
0000
0000
0000
0100
0000
0000
0100
0000
,  // measure 12
0001
0000
0000
0010
0000
0000
0001
0000
1000
0000
0000
0010
0000
0000
1000
0000
,  // measure 13
0001
0000
0000
1000
0000
0000
0100
0000
1000
0000
0000
0001
0000
0000
0100
0000
,  // measure 14
0010
0000
0000
0100
0000
0000
0001
0000
0010
0000
0000
0100
0000
0000
1000
0000
,  // measure 15
1000
0000
0000
0100
0000
0000
0010
0000
0001
1000
0001
0000
1000
0000
0001
0000
,  // measure 16
1000
0000
0000
0100
0000
0000
1000
0000
0001
0000
0000
0100
0000
0000
0001
0000
,  // measure 17
1000
0000
0000
0001
0000
0000
0010
0000
0001
0000
0000
1000
0000
0000
0010
0000
,  // measure 18
0100
0000
0000
0010
0000
0000
1000
0000
0100
0000
0000
0010
0000
0000
0001
0000
,  // measure 19
0001
0000
0000
0010
0000
0000
0100
0000
1000
0000
0000
0000
0001
0000
0000
0000
,  // measure 20
1001
0000
0001
0000
0010
0010
0100
0000
,  // measure 21
1000
0001
1000
0000
0001
1000
0001
0000
,  // measure 22
0110
0000
0100
0000
0010
0010
0100
0000
,  // measure 23
0001
0010
0100
1000
0001
0010
0100
1000
,  // measure 24
1001
0000
1000
0000
0001
1000
0010
0000
,  // measure 25
1000
0001
0010
0100
1000
0001
1000
0100
,  // measure 26
0010
0000
0000
0010
0100
0000
0000
0000
1000
0000
0000
1000
0001
0000
0000
0000
,  // measure 27
0100
0000
0000
0100
0010
0000
0000
0000
0010
1000
0010
1000
0010
1000
0010
0000
,  // measure 28
0000
1000
0100
0010
0001
0010
0100
1000
,  // measure 29
0000
0001
1000
0100
0000
0001
0100
1000
,  // measure 30
0001
0000
0000
0100
0000
0000
1000
0000
0001
0000
0010
0000
1000
0000
0010
0000
,  // measure 31
0100
0001
1000
0100
0000
0010
0100
1000
,  // measure 32
0001
0000
0000
0010
0000
0000
1000
0000
0001
0000
0100
0000
1000
0000
0001
0000
,  // measure 33
1000
0100
0010
0100
0000
1000
0001
0100
,  // measure 34
0010
0000
0000
1000
0000
0000
0001
0000
0100
0000
0100
0000
0001
0000
0001
0000
,  // measure 35
1000
0100
0010
0001
0010
0100
1000
0000
,  // measure 36
0001
0000
0000
0010
0000
0000
1000
0000
0001
0000
0100
0000
1000
0000
0001
0000
,  // measure 37
0100
0010
0100
0000
0001
1000
0010
0000
,  // measure 38
1000
0001
1000
0001
0010
0100
0010
0100
,  // measure 39
1000
0001
0010
0000
0001
1000
0010
0000
,  // measure 40
1000
0001
1000
0001
0100
0010
0100
0010
,  // measure 41
0100
0001
0010
0000
0100
1000
0010
0000
,  // measure 42
1000
0100
0001
0100
1000
0100
0001
0100
,  // measure 43
1000
0010
0100
0000
0001
0010
0100
0000
,  // measure 44
0010
0001
0010
1000
0010
0001
0010
1000
,  // measure 45
0010
0000
0000
0000
;

//---------------dance-single - ----------------
#NOTEDATA:;
#CHARTNAME:;
#STEPSTYPE:dance-single;
#DESCRIPTION:;
#CHARTSTYLE:;
#DIFFICULTY:Medium;
#METER:7;
#RADARVALUES:0.264733,0.277969,0.092656,0.061771,0.030885,180.000000,171.000000,9.000000,6.000000,0.000000,0.000000,0.000000,0.000000,0.000000,0.264733,0.277969,0.092656,0.061771,0.030885,180.000000,171.000000,9.000000,6.000000,0.000000,0.000000,0.000000,0.000000,0.000000;
#CREDIT:;
#NOTES:
// measure 0
0000
0000
0000
0000
,  // measure 1
0000
0000
0000
0000
,  // measure 2
0000
0000
0000
0000
,  // measure 3
0000
0000
0000
0000
,  // measure 4
1000
0000
0000
1000
0000
0000
0000
0000
0000
0000
0000
0100
0000
0000
0000
0000
,  // measure 5
0001
0000
0000
0001
0000
0000
0000
0000
0000
0000
0000
0100
0000
0000
0100
0000
,  // measure 6
0010
0000
0000
0010
0000
0000
0010
0000
0000
0000
0000
0000
1000
0000
0001
0000
,  // measure 7
0010
0000
0000
0010
0000
0000
0010
0000
0000
0000
0000
0000
0001
0000
1000
0000
,  // measure 8
2000
0000
3010
0000
0010
0010
0010
0000
,  // measure 9
0200
0000
0301
0000
0001
0001
0001
0000
,  // measure 10
1000
0000
0000
0001
0000
0000
1001
0000
,  // measure 11
0001
0000
0000
1000
0000
0000
1001
0000
,  // measure 12
0002
0000
0103
0000
0010
0010
0010
0000
,  // measure 13
2000
0000
3100
0000
0010
0010
0010
0000
,  // measure 14
0001
0000
0000
1000
0000
0000
1001
0000
,  // measure 15
1000
0000
0000
0001
0000
0000
1001
0000
,  // measure 16
0020
0000
0031
0000
0001
0001
0001
0000
,  // measure 17
2000
0000
3100
0000
0100
0100
0100
0000
,  // measure 18
0010
0000
0000
0100
0000
0000
0110
0000
,  // measure 19
0100
0000
0000
0010
0000
0000
0110
0000
,  // measure 20
1001
0000
1000
0000
,  // measure 21
0001
1000
0010
0100
,  // measure 22
0110
0000
0100
0000
,  // measure 23
0010
0100
0001
1000
,  // measure 24
1100
0000
0100
0000
,  // measure 25
1000
0100
0010
0001
,  // measure 26
0001
0010
0100
1000
,  // measure 27
0001
1000
0001
0000
1000
0001
1000
0001
,  // measure 28
1000
0000
0000
0000
,  // measure 29
0001
0100
0000
0010
0000
0100
0000
0001
,  // measure 30
0010
0010
0100
0100
,  // measure 31
1000
0100
0000
0010
0000
0100
0000
1000
,  // measure 32
0001
0001
1000
1000
,  // measure 33
0010
0100
0000
0010
0000
1000
0000
0010
,  // measure 34
0100
0100
0001
0001
,  // measure 35
1000
0001
1000
0000
0001
1000
0001
1000
,  // measure 36
0001
0010
1000
0100
,  // measure 37
0001
0010
0001
0100
,  // measure 38
0001
0000
0010
0000
0100
1000
0100
0000
,  // measure 39
1000
0010
1000
0100
,  // measure 40
1000
0000
0010
0000
0100
0001
0100
0000
,  // measure 41
0001
0100
0010
0100
,  // measure 42
0001
0000
0010
0000
0100
1000
0100
0000
,  // measure 43
1000
0100
0010
0100
,  // measure 44
1000
0000
0001
0000
0100
0010
0100
0010
,  // measure 45
0100
0000
0000
0000
;

//---------------dance-single - ----------------
#NOTEDATA:;
#CHARTNAME:;
#STEPSTYPE:dance-single;
#DESCRIPTION:;
#CHARTSTYLE:;
#DIFFICULTY:Easy;
#METER:4;
#RADARVALUES:0.152957,0.185313,0.051476,0.041181,0.000000,104.000000,99.000000,5.000000,4.000000,0.000000,0.000000,0.000000,0.000000,0.000000,0.152957,0.185313,0.051476,0.041181,0.000000,104.000000,99.000000,5.000000,4.000000,0.000000,0.000000,0.000000,0.000000,0.000000;
#CREDIT:;
#NOTES:
// measure 0
0000
0000
0000
0000
,  // measure 1
0000
0000
0000
0000
,  // measure 2
0000
0000
0000
0000
,  // measure 3
0000
0000
0000
0000
,  // measure 4
1000
0000
0100
0000
,  // measure 5
0001
0000
0100
0000
,  // measure 6
1000
0100
0001
0000
,  // measure 7
0001
0100
1000
0000
,  // measure 8
1000
0000
0010
0000
,  // measure 9
0001
0000
0010
0000
,  // measure 10
1000
0010
0001
0000
,  // measure 11
0001
0010
1000
0000
,  // measure 12
0010
0000
0010
0000
,  // measure 13
0100
0000
0100
0000
,  // measure 14
0010
0100
0010
0000
,  // measure 15
0100
0010
0100
0000
,  // measure 16
0001
0000
0001
0000
,  // measure 17
1000
0000
1000
0000
,  // measure 18
0001
1000
0100
0000
,  // measure 19
1000
0001
0100
0000
,  // measure 20
1001
0000
1000
0000
,  // measure 21
0001
1000
0001
0000
,  // measure 22
0110
0000
0010
0000
,  // measure 23
0100
0010
0100
0000
,  // measure 24
1001
0000
1000
0000
,  // measure 25
0001
1000
0001
0000
,  // measure 26
1000
0001
1000
0000
,  // measure 27
0001
0010
0100
1000
,  // measure 28
0100
0000
0000
0000
,  // measure 29
0200
0000
0000
0300
,  // measure 30
0100
0010
0100
0000
,  // measure 31
0020
0000
0000
0030
,  // measure 32
0010
0001
0010
0000
,  // measure 33
0002
0000
0000
0003
,  // measure 34
0001
1000
0001
0000
,  // measure 35
2000
0000
0000
3000
,  // measure 36
1000
0100
1000
0000
,  // measure 37
1001
0000
0100
0000
,  // measure 38
1000
0100
1000
0000
,  // measure 39
1000
0000
0100
0000
,  // measure 40
0010
0000
0001
0000
,  // measure 41
1001
0000
0010
0000
,  // measure 42
0001
0010
0001
0000
,  // measure 43
0001
0000
0010
0000
,  // measure 44
0100
0000
1000
1000
,  // measure 45
1000
0000
0000
0000
;

//---------------dance-single - ----------------
#NOTEDATA:;
#CHARTNAME:;
#STEPSTYPE:dance-single;
#DESCRIPTION:;
#CHARTSTYLE:;
#DIFFICULTY:Beginner;
#METER:2;
#RADARVALUES:0.083832,0.162149,0.061771,0.041181,0.000000,57.000000,51.000000,6.000000,4.000000,0.000000,0.000000,0.000000,0.000000,0.000000,0.083832,0.162149,0.061771,0.041181,0.000000,57.000000,51.000000,6.000000,4.000000,0.000000,0.000000,0.000000,0.000000,0.000000;
#CREDIT:;
#NOTES:
// measure 0
0000
0000
0000
0000
,  // measure 1
0000
0000
0000
0000
,  // measure 2
0000
0000
0000
0000
,  // measure 3
0000
0000
0000
0000
,  // measure 4
1000
0000
0000
0000
,  // measure 5
0100
0000
0000
0000
,  // measure 6
1000
0000
0000
0000
,  // measure 7
0100
0000
0000
0000
,  // measure 8
0001
0000
0000
0000
,  // measure 9
0100
0000
0000
0000
,  // measure 10
0001
0000
0000
0000
,  // measure 11
0100
0000
0000
0000
,  // measure 12
0010
0000
0000
0000
,  // measure 13
0100
0000
0000
0000
,  // measure 14
0010
0000
0010
0000
,  // measure 15
0100
0000
0000
0000
,  // measure 16
0010
0000
0000
0000
,  // measure 17
0100
0000
0000
0000
,  // measure 18
0001
0000
0001
0000
,  // measure 19
1000
0000
0000
0000
,  // measure 20
1001
0000
0000
0000
,  // measure 21
1000
0000
0000
0000
,  // measure 22
0110
0000
0000
0000
,  // measure 23
0010
0000
0000
0000
,  // measure 24
1001
0000
0000
0000
,  // measure 25
0001
0000
0000
0000
,  // measure 26
0110
0000
0000
0000
,  // measure 27
0010
0010
0010
0010
,  // measure 28
0010
0000
0000
0000
,  // measure 29
0200
0000
0000
0300
,  // measure 30
0100
0000
0000
0000
,  // measure 31
0020
0000
0000
0030
,  // measure 32
0010
0000
0000
0000
,  // measure 33
0002
0000
0000
0003
,  // measure 34
0001
0000
0000
0000
,  // measure 35
2000
0000
0000
3000
,  // measure 36
1000
0000
0000
0000
,  // measure 37
1001
0000
0000
0000
,  // measure 38
1000
1000
1000
0000
,  // measure 39
1000
0000
0000
0000
,  // measure 40
0010
0000
0000
0000
,  // measure 41
1001
0000
0000
0000
,  // measure 42
0001
0001
0001
0000
,  // measure 43
0001
0000
0000
0000
,  // measure 44
0100
0000
0000
0000
,  // measure 45
1000
0000
0000
0000
;
