#MENUCOLOR:;
#METERTYPE:DDR X;
#TITLE:New Horizon;
#SUBTITLE:;
#ARTIST:Orbitribe feat.PAULA TERRY;
#TITLETRANSLIT:;
#SUBTITLETRANSLIT:;
#ARTISTTRANSLIT:;
#CREDIT:Chewi☆;
#BANNER:New Horizon.png;
#BACKGROUND:New Horizon-bg.png;
#LYRICSPATH:;
#CDTITLE:;
#MUSIC:New Horizon.mp3;
#OFFSET:-0.222;
#SAMPLESTART:47.785;
#SAMPLELENGTH:15.000;
#SELECTABLE:YES;
#DISPLAYBPM:70.000:140.000;
#BPMS:0.000=140.000,48.000=70.000,64.000=140.000;
#STOPS:;
#BGCHANGES:;

//---------------dance-single - Chewi----------------
#NOTES:
     dance-single:
     Chewi:
     Beginner:
     1:
     0.077,0.153,0.064,0.036,0.000:
0000
0000
0000
0000
,
0000
0000
0000
0000
,
0000
0000
0000
0000
,
0000
0000
0000
0000
,
1000
0000
0000
0000
,
0100
0000
0000
0000
,
1000
0000
0000
0000
,
0010
0000
0000
0000
,
0001
0000
0000
0000
,
0100
0000
0000
0000
,
0001
0000
0000
0000
,
0010
0000
0000
0000
,
0110
0000
0000
0000
,
1000
0000
0000
0000
,
1001
0000
0000
0000
,
0001
0000
0000
0000
,
0002
0000
0000
0000
,
0000
0000
0000
0003
,
0001
0000
0000
0000
,
0000
0000
0000
0000
,
2000
0000
0000
0000
,
0000
0000
0000
3000
,
1000
0000
0000
0000
,
0110
0000
0000
0000
,
0001
0000
0000
0000
,
0001
0000
0000
0000
,
1000
0000
0000
0000
,
1000
0000
0000
0000
,
0010
0000
0000
0000
,
0010
0000
0000
0000
,
0100
0000
0000
0000
,
0100
0000
0000
0000
,
0001
0000
0000
0000
,
0001
0000
0000
0000
,
1000
0000
0000
0000
,
1000
0000
0000
0000
,
0010
0000
0000
0000
,
0010
0000
0000
0000
,
0100
0000
0000
0000
,
0100
0000
0000
0000
,
1001
0000
0000
0000
,
0000
0000
0000
0000
,
1000
0000
0000
0000
,
0000
0000
0000
0000
,
0001
0000
0000
0000
,
0000
0000
0000
0000
,
0110
0000
0000
0000
,
0000
0000
0000
0000
,
0200
0000
0000
0300
,
0100
0000
0000
0000
,
0020
0000
0000
0030
,
0010
0000
0000
0000
,
1001
0000
0000
0000
,
1000
1000
0000
0000
,
1001
0000
0000
0000
,
0001
0001
0000
0000
,
0100
0000
0000
0000
;

//---------------dance-single - Chewi----------------
#NOTES:
     dance-single:
     Chewi:
     Easy:
     3:
     0.165,0.242,0.073,0.100,0.000:
0000
0000
0000
0000
,
0000
0000
0000
0000
,
0000
0000
0000
0000
,
0000
0000
0000
0000
,
1000
1000
0000
0000
,
0001
0001
0000
0000
,
0100
0100
0000
0000
,
0010
0010
0000
0000
,
0010
0010
0000
0000
,
0100
0100
0000
0000
,
0001
0001
0000
0000
,
1000
1000
0000
0000
,
2002
0000
0000
3003
,
0200
0000
0000
0300
,
2000
0000
0000
3000
,
0020
0000
0000
0030
,
0001
0000
0001
0000
,
1000
0000
1000
0000
,
0001
0000
1000
0000
,
0010
0000
0100
0000
,
0100
0000
0100
0000
,
0010
0000
0010
0000
,
0110
0000
1001
0000
,
0010
1000
0100
0001
,
0020
0000
0000
0030
,
0010
0010
0010
0000
,
0200
0000
0000
0300
,
0100
0100
0100
0000
,
0001
0000
0000
0000
,
1000
0000
0000
0000
,
1000
0001
1000
0000
,
0000
1001
0000
0000
,
0100
0000
0100
0000
,
1000
0001
1000
0000
,
0010
0000
0010
0000
,
0001
1000
0001
0000
,
1000
0000
1000
0000
,
0100
0010
0100
0000
,
0001
0000
0001
0000
,
0010
0100
0010
0000
,
0010
1000
0100
0000
,
0010
0000
0010
0010
,
0010
0001
0100
0000
,
0010
0000
0010
0000
,
0100
0100
0100
0000
,
0001
0000
1001
0000
,
1000
0001
1000
0000
,
1001
0000
0110
0000
,
0020
0000
0000
0000
,
0030
0000
0000
0000
,
0200
0000
0000
0000
,
0300
0000
0000
0000
,
1000
1000
1000
0000
,
0001
0001
0001
0000
,
0100
0100
0100
0000
,
0010
0010
0010
0000
,
0220
0000
0000
0000
,
0000
0000
0000
0000
,
0000
0000
0000
0000
,
0330
0000
0000
0000
;

//---------------dance-single - Chewi----------------
#NOTES:
     dance-single:
     Chewi:
     Medium:
     6:
     0.255,0.349,0.073,0.182,0.000:
0000
0000
0000
0000
,
0000
0000
0000
0000
,
0000
0000
0000
0000
,
0000
0000
0000
0000
,
1000
0100
0010
0001
,
1000
0010
0100
0001
,
0001
1000
0100
0010
,
0001
1000
0010
0100
,
0001
0100
0010
1000
,
0001
0010
0100
1000
,
0200
0000
0000
0000
,
0020
0000
0000
0330
,
0022
0000
0033
0001
,
2000
0000
0000
0000
0000
0000
3000
0010
,
0200
0000
0000
0000
0000
0000
0300
0001
,
0020
0000
0000
0000
0000
0000
0000
0030
,
0001
0000
0000
0010
0000
0000
0100
0000
,
0000
1000
0000
0000
0001
0000
1000
0000
,
0010
0000
0000
0100
0000
0000
0001
0000
,
0000
0100
0000
0000
0010
0000
1000
0000
,
0001
0000
0000
1000
0000
0000
0001
0000
,
0000
0010
0000
0000
0100
0000
0010
0000
,
0110
0000
1001
0000
,
0001
0100
1000
0010
,
0002
0013
2000
3010
,
0002
0103
2000
3100
,
0001
1000
0010
0100
,
0110
0000
0000
0000
,
2000
3010
0002
0013
,
2000
3100
0002
0103
,
0100
0010
1000
0001
,
0000
1000
0000
0001
0000
1000
0000
0000
,
1000
0100
1000
0100
,
0001
0100
0001
0100
,
0001
0010
0001
0010
,
1000
0010
1000
0010
,
1000
0001
1000
0001
,
0010
0100
0010
0100
,
0010
0001
0010
0001
,
0100
0001
0100
0001
,
0100
0010
0100
0010
,
1000
0001
1000
0001
,
0010
0100
0010
0100
,
0010
0001
0010
0001
,
1000
0001
1000
0001
,
1000
0010
1000
0010
,
0100
0010
0100
0010
,
1000
0001
1000
0001
,
2002
0000
0000
0000
,
3003
0000
0000
0000
,
2200
0000
0000
0000
,
3300
0000
0000
0000
,
0000
0001
0000
0010
0000
0001
0000
0010
,
0000
0001
0000
1000
0000
1000
0000
1001
,
0000
1000
0000
0100
0000
1000
0000
0100
,
0000
0001
0000
1000
0000
1000
0000
1001
,
0200
0000
0000
0000
,
0000
0000
0000
0000
,
0000
0000
0000
0000
,
0300
0000
0000
0000
;

//---------------dance-single - Chewi----------------
#NOTES:
     dance-single:
     Chewi:
     Hard:
     9:
     0.420,0.483,0.300,0.127,0.027:
0000
0000
0000
0000
,
0000
0000
0000
0000
,
0000
0000
0000
0000
,
0000
0000
0000
0000
,
1000
0100
1000
0000
0001
0000
0101
0000
,
0001
0100
0001
0000
1000
0000
1100
0000
,
0001
1000
0010
0000
0100
0000
0110
0000
,
0001
1000
0100
0000
0010
0000
0110
0000
,
0010
0001
0010
0001
0010
0001
0010
0000
,
0001
0100
0001
0100
0001
0100
0001
0000
,
0010
1000
0010
1000
0010
1000
0010
0000
,
1000
0100
1000
0100
1000
0100
1000
0100
,
2000
0000
0000
0000
0000
0000
0000
0000
0000
0000
3001
0000
1000
0000
0010
0100
,
0000
0200
0000
0000
0000
0000
0000
0000
0000
0000
0000
0000
0300
0000
0010
2000
,
0000
0002
0000
0000
0000
0000
0000
0000
3003
0000
1000
0000
0100
0000
0010
0000
,
0002
0000
0000
0023
0000
0000
0230
0000
0000
2300
0000
0000
3001
0000
0100
0000
,
1010
0000
0000
1010
0000
0000
1010
0000
,
0000
1010
0000
0000
0100
0000
0001
0000
,
0101
0000
0000
0101
0000
0000
0101
0000
,
0000
0101
0000
0000
0001
0000
0010
0000
,
0110
0000
0000
0110
0000
0000
0110
0000
,
0000
0110
0000
0000
1000
0000
0001
0000
,
1001
0000
1010
0000
,
0011
0101
1100
1010
,
1000
0010
0100
0001
0010
0100
1000
0000
,
0001
1000
0010
0100
,
0001
0100
0010
1000
0001
0010
0100
1000
,
0010
1000
0100
0001
,
0010
0100
1000
0001
0100
0010
0100
0000
,
0001
0100
0010
1000
0001
0010
0100
0000
,
0010
0001
0100
1000
0010
1000
0100
0010
,
0001
0011
0000
0011
0000
0101
0000
0101
,
0001
0100
0010
0000
1000
0100
0010
0001
,
1000
0001
1000
0000
0001
1000
0001
0000
,
1000
0100
0010
0000
0001
0100
0010
0100
,
0001
0010
0100
1000
0010
0100
0010
1000
,
0100
0010
0100
0000
0100
1000
0010
0000
,
0100
0001
0010
0100
0010
0001
0100
0010
,
0100
0001
1000
0000
0100
0010
0001
0000
,
0010
0100
1000
0010
0100
0001
0100
0010
,
1000
0001
0010
0100
1000
0001
0100
0000
,
0001
0101
1000
1100
,
1000
0001
0100
0010
1000
0001
0010
0000
,
0100
0011
0100
1010
,
1000
0000
0100
0000
0010
0001
0100
0000
,
0010
0000
0100
0000
0010
1000
0100
0010
,
0100
1000
0010
0000
0100
0000
0001
0000
,
0010
0001
0100
0000
0010
0100
0001
1000
,
2002
0000
0000
3003
,
0001
0010
1000
0100
,
2002
0000
0000
3003
,
0001
0100
1000
0010
,
0100
0010
1000
0000
0100
0000
0100
0000
,
0100
0010
0001
0000
0100
0000
0100
0000
,
0010
0100
0001
1000
0100
0000
0010
0000
,
0010
0100
1000
0001
0100
0010
0100
0000
,
0220
0000
0000
0000
,
0000
0000
0000
0000
,
0000
0000
0000
0000
,
0330
0000
0000
0000
;

//---------------dance-double - Chewi----------------
#NOTES:
     dance-double:
     Chewi:
     Hard:
     9:
     0.380,0.457,0.264,0.118,0.027: // measure 1
00000000
00000000
00000000
00000000
,  // measure 2
00000000
00000000
00000000
00000000
,  // measure 3
00000000
00000000
00000000
00000000
,  // measure 4
00000000
00000000
00000000
00000000
,  // measure 5
10000000
01000000
00100000
00110000
,  // measure 6
00010000
01000000
00100000
10100000
,  // measure 7
10000000
00010000
00100000
00001000
,  // measure 8
00010000
00000100
00001000
00000001
,  // measure 9
00000100
00000010
00001000
00001010
,  // measure 10
00000001
00000010
00000100
00001100
,  // measure 11
00001000
00000000
00000000
00000000
00000000
00000000
00000100
00001000
,  // measure 12
00000010
00000000
00000000
00000000
,  // measure 13
00002020
00000000
00000000
00000000
00000000
00000000
00000000
00000000
00003030
00000000
00000010
00000000
00001000
00000000
00010000
01000000
,  // measure 14
00000000
20000000
00000000
00000000
00000000
00000000
00000000
00000000
30000000
00000000
00000000
00000000
00000000
00000000
10000000
00100000
,  // measure 15
00000000
00010000
00000000
00000000
00000000
00000000
00000000
00000000
00000000
00000000
00100000
00000000
01000000
00000000
00100000
00000000
,  // measure 16
00010000
00000000
00000000
00001000
00000000
00000000
00000010
00000000
00000000
00000001
00000000
00000000
00000100
00000000
00001000
00000000
,  // measure 17
00000010
00000000
00000000
00000100
00000000
00000000
00000101
00000000
,  // measure 18
00000000
00000011
00000000
00000000
00000001
00000000
00000010
00000000
,  // measure 19
00000100
00000000
00000000
00001000
00000000
00000000
01010000
00000000
,  // measure 20
00000000
00011000
00000000
00000000
00100000
00000000
01000000
00000000
,  // measure 21
11000000
00000000
00000000
10100000
00000000
00000000
01000000
00000000
,  // measure 22
00000000
00010000
00000000
00000000
00100000
00000000
00001000
00000000
,  // measure 23
00011000
00000000
00001010
00000000
,  // measure 24
00000011
00001100
00000011
00001100
,  // measure 25
00000002
00000100
00000013
00000000
00001000
00000000
00000010
00000000
,  // measure 26
00000100
00000101
00000010
00001100
,  // measure 27
00002000
00000100
00003010
00000000
00000010
00000000
00000100
00000000
,  // measure 28
00000010
00001000
00010000
01000000
,  // measure 29
20000000
01000000
30100000
00000000
00010000
00000000
01000000
00000000
,  // measure 30
00100000
01000000
00010000
00000000
00100000
01000000
10000000
00000000
,  // measure 31
00020000
01000000
00130000
00000000
00010000
01000000
00100000
00000000
,  // measure 32
00000000
01010000
00000000
00110000
00000000
11000000
00000000
00110000
,  // measure 33
00100000
00010000
01000000
00000000
00010000
00000000
00100000
00000000
,  // measure 34
00001000
00010000
00000100
00000000
00001000
00000000
00001001
00000000
,  // measure 35
00000100
00000010
00001000
00000000
00000001
00000000
00000010
00000000
,  // measure 36
00000100
00001000
00000010
00000000
00000100
00000001
00000010
00000000
,  // measure 37
00000001
00000010
00000100
00000000
00001000
00000000
00001100
00000000
,  // measure 38
00000100
00010000
00001000
00000000
00100000
00000000
00110000
00000000
,  // measure 39
00100000
01000000
00100000
00000000
01000000
00100000
01000000
00000000
,  // measure 40
00100000
10000000
01000000
00000000
00100000
00010000
01000000
00000000
,  // measure 41
00100000
10000000
00010000
00100000
01000000
10000000
00100000
00000000
,  // measure 42
10000000
01000000
00100000
00010000
00001000
00000100
00000010
00000001
,  // measure 43
00000100
00001000
00000010
00000001
00000010
00001000
00000100
00000000
,  // measure 44
00000010
00000100
00000010
00000100
00001000
00000001
00001000
00000001
,  // measure 45
00000001
00000100
00000010
00000000
00001000
00000010
00000100
00000000
,  // measure 46
00000010
00001000
00000100
00010000
00001000
00100000
01000000
10000000
,  // measure 47
00100000
01000000
00100000
00000000
10000000
00010000
10000000
00000000
,  // measure 48
10000000
01000000
00100000
00010000
10000000
01000000
00100000
00010000
,  // measure 49
00220000
00000000
00000000
00330000
,  // measure 50
00100000
00010000
00001000
00000100
,  // measure 51
00000202
00000000
00000000
00000303
,  // measure 52
00000001
00000100
00000010
00001000
,  // measure 53
00000001
00000010
00000100
00001000
00000010
00000100
00000001
00000000
,  // measure 54
00000001
00000100
00000010
00001000
00000100
00010000
00001000
00000000
,  // measure 55
00001000
00010000
01000000
10000000
00100000
00010000
00100000
00000000
,  // measure 56
00010000
00100000
01000000
10000000
00100000
01000000
00010000
01000000
,  // measure 57
02200000
00000000
00000000
00000000
,  // measure 58
00000000
00000000
00000000
00000000
,  // measure 59
00000000
00000000
00000000
00000000
,  // measure 60
03300000
00000000
00000000
00000000
;

//---------------dance-double - Chewi----------------
#NOTES:
     dance-double:
     Chewi:
     Medium:
     6:
     0.276,0.457,0.064,0.273,0.000: // measure 1
00000000
00000000
00000000
00000000
,  // measure 2
00000000
00000000
00000000
00000000
,  // measure 3
00000000
00000000
00000000
00000000
,  // measure 4
00000000
00000000
00000000
00000000
,  // measure 5
10000000
01000000
00100000
00000000
,  // measure 6
00010000
00100000
00001000
00000000
,  // measure 7
00010000
00001000
00000010
00000000
,  // measure 8
00000100
00000001
00000010
00000000
,  // measure 9
00000100
00001000
00000010
00000000
,  // measure 10
00000010
00001000
00010000
00000000
,  // measure 11
00010000
01000000
10000000
00000000
,  // measure 12
10000000
01000000
00010000
00100000
,  // measure 13
02200000
00000000
00000000
00000000
00000000
00000000
00000000
03300000
,  // measure 14
00020000
00000000
00000000
00000000
00000000
00000000
00030000
01000000
,  // measure 15
00020000
00000000
00000000
00000000
00000000
00000000
00030000
00001000
,  // measure 16
00000020
00000000
00000000
00000000
00000000
00000000
00000030
00000100
,  // measure 17
00000001
00000000
00000000
00001000
00000000
00000000
00000001
00000000
,  // measure 18
00000000
00001000
00000000
00000000
00000010
00000000
00001000
00000000
,  // measure 19
00000100
00000000
00000000
00010000
00000000
00000000
00001000
00000000
,  // measure 20
00000000
00100000
00000000
00000000
01000000
00000000
00100000
00000000
,  // measure 21
00010000
00000000
00000000
10000000
00000000
00000000
00010000
00000000
,  // measure 22
00000000
10000000
00000000
00000000
00100000
00000000
01000000
00000000
,  // measure 23
02020000
03000000
20000000
30030000
,  // measure 24
00100000
01000000
10000000
10000000
,  // measure 25
20000000
32000000
03200000
00320000
,  // measure 26
00032000
00003200
00000320
00000032
,  // measure 27
00000103
00001000
00000010
00000000
,  // measure 28
00000100
00000001
00000010
00000000
,  // measure 29
00000001
00000010
00000100
00000000
,  // measure 30
00001000
00000100
00000010
00000000
,  // measure 31
00000001
00001000
00000010
00000000
,  // measure 32
00000002
00000023
00000230
00002300
,  // measure 33
00023000
02030000
23000000
32000000
,  // measure 34
03000000
00100000
10000000
00100000
,  // measure 35
00010000
00100000
01000000
00100000
,  // measure 36
00010000
01000000
00100000
01000000
,  // measure 37
00010000
00100000
00001000
00011000
,  // measure 38
00010000
00000100
00001000
00001010
,  // measure 39
00000100
00000001
00000010
00000100
,  // measure 40
00000100
00000010
00000001
00001000
,  // measure 41
00000010
00000100
00000010
00000000
00001000
00000000
00000001
00000000
,  // measure 42
00000010
00000100
00001000
00000010
,  // measure 43
00000100
00001000
00000100
00000000
00010000
00000000
00001000
00000000
,  // measure 44
00100000
10000000
01000000
00010000
,  // measure 45
00100000
01000000
00100000
00000000
00010000
00000000
01000000
00000000
,  // measure 46
10000000
00100000
00010000
00100000
,  // measure 47
01000000
00100000
00010000
00000000
00001000
00000000
00000010
00000000
,  // measure 48
00000001
00000000
00000100
00000000
00001000
00000000
00000001
00001000
,  // measure 49
00002002
00000000
00000000
00000000
,  // measure 50
00003003
00000000
00000000
00000000
,  // measure 51
00022000
00000000
00000000
00000000
,  // measure 52
00033000
00000000
00000000
00000000
,  // measure 53
00001000
00000000
00010000
00000000
01000000
01000000
01000000
00000000
,  // measure 54
10000000
00000000
00100000
00000000
00010000
00010000
00010000
00000000
,  // measure 55
00100000
00000000
00001000
00000000
00000010
00000010
00000010
00000000
,  // measure 56
00000001
00000000
00000100
00000000
00001000
00001000
00001000
00000001
,  // measure 57
00002002
00000000
00000000
00000000
,  // measure 58
00000000
00000000
00000000
00000000
,  // measure 59
00000000
00000000
00000000
00000000
,  // measure 60
00003003
00000000
00000000
00000000
;

//---------------dance-double - Chewi----------------
#NOTES:
     dance-double:
     Chewi:
     Easy:
     3:
     0.177,0.269,0.055,0.164,0.000:
00000000
00000000
00000000
00000000
,
00000000
00000000
00000000
00000000
,
00000000
00000000
00000000
00000000
,
00000000
00000000
00000000
00000000
,
10000000
01000000
00000000
00000000
,
00010000
00100000
00000000
00000000
,
00100000
00001000
00000000
00000000
,
00001000
00000010
00000000
00000000
,
00000001
00000100
00000000
00000000
,
00001000
00000100
00000000
00000000
,
00001000
00100000
00000000
00000000
,
10000000
00100000
00000000
00000000
,
00200000
00000000
00000000
00000000
,
00000000
00000000
00000000
00300000
,
20000000
00000000
00000000
30000000
,
00020000
00000000
00000000
00030000
,
00100000
00000000
00010000
00000000
,
00001000
00000000
00000010
00000000
,
00000001
00000000
00000100
00000000
,
00001000
00000000
00000100
00000000
,
00000001
00000000
00000100
00000000
,
00010000
00000000
01000000
00000000
,
10010000
00000000
10010000
00000000
,
10000000
01000000
00010000
00100000
,
01000000
00000000
01000000
00000000
,
01000000
00100000
01000000
00000000
,
00100000
00000000
00010000
00000000
,
00010000
00001000
00000010
00000000
,
00000001
00000000
00000010
00000000
,
00000001
00001000
00000001
00000000
,
00001000
00000000
00000100
00000000
,
00000001
00001000
00000001
00000000
,
00002000
00000000
00000000
00003000
,
00001000
00010000
01000000
10000000
,
02000000
00000000
00000000
03000000
,
10000000
00010000
10000000
00010000
,
00200000
00000000
00000000
00300000
,
00100000
00010000
00001000
00000010
,
00000002
00000000
00000000
00000003
,
00000001
00001000
00000010
00000100
,
00000220
00000000
00000000
00000330
,
00000010
00000010
00001000
00001000
,
00022000
00000000
00000000
00033000
,
00001000
00010000
00001000
00010000
,
02000000
00000000
00000000
03000000
,
00100000
10000000
00010000
00100000
,
02000000
00000000
00000000
03000000
,
00100000
00010000
00001000
00000010
,
00000220
00000000
00000000
00000000
,
00000330
00000000
00000000
00000000
,
00002000
00000000
00000000
00000000
,
00003000
00000000
00000000
00000000
,
00000100
00000100
00000100
00000000
,
00001000
00000001
00001000
00000000
,
00010000
00001000
00010000
00000000
,
00010000
00010000
00010000
00000000
,
00022000
00000000
00000000
00000000
,
00000000
00000000
00000000
00000000
,
00000000
00000000
00000000
00000000
,
00033000
00000000
00000000
00000000
;
