#TITLE:New Bitch;
#SUBTITLE:;
#ARTIST:Iggy Azalea;
#TITLETRANSLIT:;
#SUBTITLETRANSLIT:;
#ARTISTTRANSLIT:;
#GENRE:;
#CREDIT:chewi;
#BANNER:New Bitch.png;
#BACKGROUND:New Bitch-bg.png;
#LYRICSPATH:;
#CDTITLE:cdtitle.png;
#MUSIC:New Bitch.mp3;
#OFFSET:-0.133000;
#SAMPLESTART:50.216999;
#SAMPLELENGTH:15.000000;
#SELECTABLE:YES;
#BPMS:0.000000=67.000000
;
#STOPS:
;
#BGCHANGES:;
#KEYSOUNDS:;
#ATTACKS:;

//---------------dance-single - ----------------
#NOTES:
     dance-single:
     :
     Beginner:
     1:
     0.047478,0.054161,0.024618,0.049237,0.000000,21.000000,2.000000,4.000000,0.000000,0.000000,0.000000,0.047478,0.054161,0.024618,0.049237,0.000000,21.000000,2.000000,4.000000,0.000000,0.000000,0.000000:
0000
0000
0000
0000
,
0000
0000
0000
0000
,
0010
0000
0000
0000
,
0010
0000
0000
0000
,
0100
0000
0000
0000
,
0100
0000
0000
0000
,
1000
0000
0000
0000
,
1000
0000
0000
0000
,
0001
0000
0000
0000
,
0001
0000
0000
0000
,
0200
0000
0000
0300
,
0020
0000
0000
0030
,
2000
0000
0000
3000
,
0002
0000
0000
0003
,
1001
0000
0000
0000
,
0100
0000
0000
0000
,
0010
0000
0000
0000
,
0010
0000
0000
0000
,
1001
0000
0000
0000
,
0010
0000
0000
0000
,
0100
0000
0000
0000
,
0100
0000
0000
0000
,
1000
0000
0000
0000
;

//---------------dance-single - ----------------
#NOTES:
     dance-single:
     :
     Easy:
     3:
     0.082648,0.108321,0.000000,0.098474,0.000000,39.000000,0.000000,8.000000,0.000000,0.000000,0.000000,0.082648,0.108321,0.000000,0.098474,0.000000,39.000000,0.000000,8.000000,0.000000,0.000000,0.000000:
0000
0000
0000
0000
,
0000
0000
0000
0000
,
0002
0000
0000
0003
,
2000
0000
0000
3000
,
0200
0000
0000
0300
,
0020
0000
0000
0030
,
0001
0000
0010
0000
,
1000
0000
0100
0000
,
0001
0000
0010
0000
,
0100
0000
1000
0000
,
0002
0000
0000
0003
,
0200
0000
0000
0300
,
0020
0000
0000
0030
,
2000
0000
0000
3000
,
1000
1000
1000
1000
,
0001
0001
0001
0001
,
0100
0000
0000
0100
0000
0000
0000
0000
,
0000
0000
0000
0100
0000
0000
0000
0000
,
0010
0010
0010
0010
,
0001
0001
0001
0001
,
1000
0000
0000
1000
0000
0000
0000
0000
,
0000
0000
0000
1000
0000
0000
0000
0000
,
0001
0000
0000
0000
;

//---------------dance-single - ----------------
#NOTES:
     dance-single:
     :
     Medium:
     5:
     0.149469,0.162482,0.073855,0.196947,0.000000,63.000000,6.000000,16.000000,0.000000,0.000000,0.000000,0.149469,0.162482,0.073855,0.196947,0.000000,63.000000,6.000000,16.000000,0.000000,0.000000,0.000000:
0000
0000
0000
0000
,
0000
0000
0000
0000
,
2000
3100
0002
0103
,
2000
3010
0002
0013
,
0020
0130
0200
1300
,
2000
3001
0002
1003
,
0001
0001
0001
0000
0100
0000
0100
0000
,
1000
1000
1000
0000
0010
0000
0010
0000
,
0010
0010
0010
0000
0100
0000
1000
0000
,
0010
0010
0010
0000
0100
0000
0001
0000
,
2002
0000
0000
0000
0000
0000
0000
3003
,
0220
0000
0000
0000
0000
0000
0000
0330
,
0022
0000
0000
0000
0000
0000
0000
0033
,
2200
0000
0000
0000
0000
0000
0000
3300
,
1000
1000
0001
0000
0001
0001
1000
0000
,
0001
1000
0010
0110
,
0000
0000
0000
0100
0000
0000
0000
0000
,
0000
0000
0000
0100
0000
0000
0000
0000
,
0010
1000
0001
0100
,
0010
1000
0001
1001
,
0000
0000
0000
0010
0000
0000
0000
0000
,
0000
0000
0000
0010
0000
0000
0000
0000
,
0001
0000
0000
0000
;

//---------------dance-single - ----------------
#NOTES:
     dance-single:
     :
     Hard:
     8:
     0.262010,0.324963,0.049237,0.049237,0.147710,141.000000,4.000000,4.000000,0.000000,0.000000,0.000000,0.262010,0.324963,0.049237,0.049237,0.147710,141.000000,4.000000,4.000000,0.000000,0.000000,0.000000:
// measure 0
0000
0000
0000
0000
,  // measure 1
0000
0000
0000
0000
,  // measure 2
2000
0000
3100
0000
0010
0001
0100
0000
,  // measure 3
0002
0000
0103
0000
0010
0010
0010
0000
,  // measure 4
0020
0000
1030
0000
1000
0001
0010
0000
,  // measure 5
0020
0000
0130
0000
0100
0100
0100
0000
,  // measure 6
0010
0001
0010
1000
0010
0001
0010
1000
,  // measure 7
0100
0001
0100
1000
0100
0001
0100
1000
,  // measure 8
0010
0001
0100
0001
0010
0100
1000
0010
,  // measure 9
1000
0100
1000
0010
0100
0001
1000
0100
,  // measure 10
0010
0000
0000
0010
0000
0000
0010
0000
0000
0010
0000
0000
0010
0000
0010
0000
0001
0000
0000
0001
0000
0000
0001
0000
0000
0001
0000
0000
0001
0000
0001
0000
,  // measure 11
1000
0000
0000
1000
0000
0000
1000
0000
0000
1000
0000
0000
1000
0000
1000
0000
0010
0000
0000
0010
0000
0000
0010
0000
0000
0010
0000
0000
0010
0000
0010
0000
,  // measure 12
0100
0001
0100
0001
0010
0001
0010
0001
,  // measure 13
0010
1000
0010
1000
0100
1000
0100
1000
,  // measure 14
1000
0100
0001
1000
0100
0001
1000
0010
,  // measure 15
0001
0000
1000
0000
0100
0000
1000
0000
1000
0000
1000
0000
0001
0010
0100
1000
,  // measure 16
0000
0000
0000
0000
0000
0000
1001
0000
0000
0000
0000
0000
1000
0010
0100
0001
,  // measure 17
0000
0000
0000
1001
0000
0000
0000
0000
,  // measure 18
0001
0010
1000
0010
0001
0100
1000
0100
,  // measure 19
0001
0000
0010
0000
1000
0000
0001
0000
0100
0000
1000
0000
0001
0010
0100
1000
,  // measure 20
0000
0000
0000
0000
0000
0000
1001
0000
0000
0000
0000
0000
1000
0010
0100
0001
,  // measure 21
0000
0000
0000
1001
0000
0000
0000
0000
,  // measure 22
0010
0000
0000
0000
;
