#TITLE:熱帯魚の涙;
#SUBTITLE:;
#ARTIST:Flower;
#TITLETRANSLIT:Nettaigyo no Namida;
#SUBTITLETRANSLIT:;
#ARTISTTRANSLIT:;
#GENRE:J-Pop;
#CREDIT:chewi;
#BANNER:Nettaigyo no Namida.png;
#BACKGROUND:Nettaigyo no Namida-bg.png;
#LYRICSPATH:;
#CDTITLE:cdtitle.png;
#MUSIC:Nettaigyo no Namida.ogg;
#OFFSET:-0.610000;
#SAMPLESTART:46.262001;
#SAMPLELENGTH:15.000000;
#SELECTABLE:YES;
#BPMS:0.000000=84.000000
;
#STOPS:
;
#BGCHANGES:-0.122=Nettaigyo no Namida.avi=1.000=1=0=0=StretchNoLoop==CrossFade==,
99999=-nosongbg-=1.000=0=0=0 // don't automatically add -songbackground-
;
#KEYSOUNDS:;
#ATTACKS:;

//---------------dance-single - ----------------
#NOTES:
     dance-single:
     :
     Beginner:
     2:
     0.075290,0.131340,0.025097,0.050194,0.000000,54.000000,3.000000,6.000000,0.000000,0.000000,0.000000,0.075290,0.131340,0.025097,0.050194,0.000000,54.000000,3.000000,6.000000,0.000000,0.000000,0.000000:
// measure 0
0000
0000
0000
0000
,  // measure 1
0000
0000
0000
0000
,  // measure 2
0000
0000
0000
0000
,  // measure 3
0000
0000
0000
0000
,  // measure 4
0000
1000
0000
0000
,  // measure 5
0000
0001
0000
0000
,  // measure 6
0000
1000
0000
0000
,  // measure 7
0000
0001
0000
0000
,  // measure 8
0000
0100
0000
0000
,  // measure 9
0000
0010
0000
0000
,  // measure 10
0000
0100
0000
0000
,  // measure 11
0000
0010
0000
0000
,  // measure 12
0000
0020
0000
0000
,  // measure 13
0030
0010
0000
0000
,  // measure 14
0000
0200
0000
0000
,  // measure 15
0300
0100
0000
0000
,  // measure 16
0000
1001
0000
0000
,  // measure 17
0000
1000
1000
1000
,  // measure 18
0000
0001
0001
0001
,  // measure 19
0000
1000
1000
1000
,  // measure 20
0000
0110
0000
0000
,  // measure 21
0000
0010
0010
0010
,  // measure 22
0000
0100
0100
0100
,  // measure 23
0000
0010
0010
0010
,  // measure 24
0000
1000
0000
1000
,  // measure 25
0000
2000
0000
0000
,  // measure 26
3000
0001
0000
0001
,  // measure 27
0000
0002
0000
0000
,  // measure 28
0003
0010
0000
0010
,  // measure 29
0000
0100
0000
0100
,  // measure 30
0000
0010
0000
0010
,  // measure 31
0000
1000
0000
0001
,  // measure 32
0000
1001
0000
0000
,  // measure 33
0000
0100
0000
0000
,  // measure 34
0000
0100
0000
0000
,  // measure 35
0000
0010
0000
0000
,  // measure 36
0000
0020
0000
0000
,  // measure 37
0030
0010
0000
0000
,  // measure 38
0000
0200
0000
0000
,  // measure 39
0300
0100
0000
0000
;

//---------------dance-single - ----------------
#NOTES:
     dance-single:
     :
     Easy:
     3:
     0.102778,0.133013,0.016731,0.016731,0.000000,82.000000,2.000000,2.000000,0.000000,0.000000,0.000000,0.102778,0.133013,0.016731,0.016731,0.000000,82.000000,2.000000,2.000000,0.000000,0.000000,0.000000:
0000
0000
0000
0000
,
0000
0000
0000
0000
,
0000
0000
0000
0000
,
0000
0000
0000
0000
,
0000
0000
1000
0000
,
1000
0000
0001
0000
,
0001
0000
0100
0000
,
0100
0000
0010
0000
,
0010
0000
1000
0000
,
0001
0000
1000
0000
,
0001
0000
0100
0000
,
0010
0000
0100
0000
,
0010
0010
0000
0010
,
0000
0010
1000
0001
,
0000
1000
0000
0001
,
0000
1001
0000
0000
,
0000
2000
0000
3010
,
0000
0010
0010
0010
,
0000
0002
0000
0013
,
0000
0010
0010
0010
,
0000
0001
0000
1000
,
0000
0100
0100
0100
,
0100
1000
0000
0001
,
0000
0100
0100
0100
,
0100
0010
0000
0100
,
0000
0010
0100
0010
,
0100
0001
0000
0010
,
0000
1000
0000
0100
,
0000
0001
0010
0001
,
0010
1000
1000
1000
,
0000
1000
0000
0001
,
0000
0100
0010
0100
,
0010
0110
0000
0000
,
0000
1000
0000
0000
,
0000
0001
0000
0000
,
0000
1000
0000
0000
,
0010
0010
0000
0000
,
0100
0100
0000
0000
,
0010
0010
0000
0010
,
0000
0100
0000
0100
;

//---------------dance-single - ----------------
#NOTES:
     dance-single:
     :
     Medium:
     6:
     0.178068,0.218865,0.066925,0.058559,0.000000,134.000000,8.000000,7.000000,0.000000,0.000000,0.000000,0.178068,0.218865,0.066925,0.058559,0.000000,134.000000,8.000000,7.000000,0.000000,0.000000,0.000000:
0000
0000
0000
0000
,
0000
0000
0000
0000
,
0000
0000
0000
0000
,
0000
0000
0000
0000
,
0000
0000
1000
0000
0001
0000
0010
0010
,
0100
0000
1000
0000
0001
0000
0100
0100
,
0010
1000
0000
0001
,
0000
1000
0100
0010
,
0001
0000
1000
0000
0100
0000
1000
1000
,
0001
0000
0100
0000
0010
0000
1000
1000
,
0001
0010
0100
1000
,
0000
0100
0010
0001
,
0000
0102
0000
0100
,
0000
0013
0100
1000
,
0000
2100
0000
0010
,
0000
3001
0000
0000
,
0000
1000
0010
0100
,
0001
0000
1000
0000
0001
0000
1000
0100
,
0010
0001
0010
0000
0100
0000
0010
0000
,
0010
0100
0010
0100
,
0100
0000
1000
0000
0001
0000
0100
0010
,
0100
0000
0001
0000
1000
0000
0100
0010
,
0100
0000
1000
0000
0001
0000
0010
0001
,
1000
0000
0001
0000
1000
0000
0010
1000
,
0001
0101
0010
0100
,
0010
0101
1000
0100
,
1000
1100
0010
0100
,
0010
1001
0100
0010
,
0100
0100
0010
0000
1000
0000
0001
0000
,
0010
0000
0100
1000
0010
0000
0100
0001
,
0010
0001
1000
0010
,
0100
0100
0010
1000
,
0001
1001
0000
0000
,
0000
0010
0000
0000
,
0000
0100
0000
0000
,
0000
0010
0100
1000
,
0001
0000
0010
0000
0200
0000
0000
0000
0000
0000
0000
0300
0000
0000
0000
0000
,
1000
0000
0010
0000
0200
0000
0000
0000
0000
0000
0000
0300
0000
0000
0000
0000
,
0010
0100
0020
0000
0100
0000
1000
0000
,
0100
2000
3030
1001
,
0020
0030
0000
0000
;

//---------------dance-single - ----------------
#NOTES:
     dance-single:
     :
     Hard:
     10:
     0.314308,0.353003,0.100387,0.150581,0.121301,233.000000,12.000000,18.000000,0.000000,0.000000,0.000000,0.314308,0.353003,0.100387,0.150581,0.121301,233.000000,12.000000,18.000000,0.000000,0.000000,0.000000:
0000
0000
0000
0000
,
0000
0000
0000
0000
,
0000
0000
0000
0000
,
0000
0000
0000
0000
,
0000
0000
1000
0000
1100
0000
1000
0010
,
0100
0000
0001
0000
0101
0000
0100
0010
,
1000
0000
0001
0000
1001
0000
1000
0100
,
0010
0000
0001
0000
1001
0000
0001
0100
,
0010
0000
0100
0000
0110
0000
0100
0010
,
1000
0000
0100
0000
0110
0000
0100
0010
,
0001
0000
1000
0000
1100
0000
0001
1000
,
0100
0000
0001
0000
0101
0000
1000
0001
,
0100
0100
0200
0000
0320
0000
1000
0000
,
0001
0000
2030
0000
3200
0000
0310
0001
,
0100
0002
0203
0320
,
0001
2000
0000
3030
,
1000
0100
0010
0000
0000
0001
0010
0100
,
1000
0000
0001
0000
1000
0000
0010
0000
0100
0000
0001
0100
0000
0100
0001
0010
,
0100
0000
1000
0000
0001
0000
0000
1000
0100
0000
1000
0010
0000
0000
0100
0000
,
0001
0000
0010
0000
0100
0000
0010
0000
0001
0000
1000
0100
0000
0100
1000
0010
,
0100
0001
0101
0000
0100
0010
1000
0001
,
1000
0000
0010
0000
0100
0000
0001
0000
0010
0000
0100
0010
0000
0100
1000
0010
,
1000
0100
1001
0000
0100
0010
1001
0000
,
1000
0000
0010
0000
0001
0000
0010
0000
1000
0000
0100
0000
0001
0010
0100
1000
,
0001
0010
0100
1000
0010
0000
0000
0000
0100
0000
0001
0000
0010
0000
0100
0000
,
0010
0000
0001
0000
1000
0000
0100
0000
1000
0000
0010
1000
0000
1000
0100
1000
,
0010
0100
0001
0000
1000
0010
0100
0010
,
1000
0000
0001
0000
0010
0000
0100
0000
0010
0000
0001
0010
0000
0100
0010
0001
,
0010
0100
1001
0000
1000
0001
0100
0010
,
0100
0000
0001
0000
1000
0000
0010
0000
0100
0000
0010
1000
0000
0010
0100
0010
,
1000
0100
0010
0000
0100
1000
0010
0000
,
0100
0000
0001
0000
0010
0000
0100
0000
1000
0000
0001
0000
1000
0001
1000
0000
,
0010
0100
0020
0000
1000
0000
0130
0000
,
1000
1000
2000
0000
0100
0000
3001
0000
,
0010
0010
0020
0000
0100
0000
0031
0000
,
0100
0100
0200
0000
0001
0000
1300
0010
,
0100
0001
0200
0000
0000
0000
0300
0000
,
0010
1000
0002
0000
0000
0000
0003
0000
,
0010
0100
2000
0000
3200
0000
0302
0000
,
0023
0000
0000
0000
1030
0000
0000
0000
1000
0000
0000
0000
0001
0010
0100
1000
,
0001
0010
0100
1000
0000
0000
0000
0000
0000
0000
0000
0000
0000
0000
0000
0000
;
