#TITLE:Need Your Love;
#SUBTITLE:;
#ARTIST:Sota Fujimori;
#TITLETRANSLIT:;
#SUBTITLETRANSLIT:;
#ARTISTTRANSLIT:;
#GENRE:;
#CREDIT:Chewi☆;
#MENUCOLOR:;
#METERTYPE:DDR X;
#BANNER:Need Your Love.png;
#BACKGROUND:Need Your Love-bg.png;
#LYRICSPATH:;
#CDTITLE:;
#MUSIC:Need Your Love.mp3;
#OFFSET:-2.041;
#SAMPLESTART:38.205;
#SAMPLELENGTH:15.000;
#SELECTABLE:YES;
#LISTSORT:;
#DISPLAYBPM:146.000;
#BPMS:0.000=146.000;
#STOPS:;
#BGCHANGES:;
#ATTACKS:;

//---------------dance-single - Chewi----------------
#NOTES:
     dance-single:
     Chewi:
     Beginner:
     1:
     0.085,0.141,0.000,0.023,0.000: // measure 1
0000
0000
0000
0000
,  // measure 2
0000
0000
0000
0000
,  // measure 3
0000
0000
0000
0000
,  // measure 4
0000
0000
0000
0000
,  // measure 5
1000
0000
0000
0000
,  // measure 6
0001
0000
0000
0000
,  // measure 7
0010
0000
0000
0000
,  // measure 8
0100
0000
0000
0000
,  // measure 9
0010
0000
0000
0000
,  // measure 10
1000
0000
0000
0000
,  // measure 11
0001
0000
0000
0000
,  // measure 12
1000
0000
0000
0000
,  // measure 13
0010
0000
0000
0000
,  // measure 14
0010
0000
0000
0000
,  // measure 15
1000
0000
0000
0000
,  // measure 16
0001
0000
0000
0000
,  // measure 17
1000
0000
0000
0000
,  // measure 18
0001
0000
0000
0000
,  // measure 19
0100
0000
0000
0000
,  // measure 20
0010
0000
0000
0000
,  // measure 21
2000
0000
0000
3000
,  // measure 22
0002
0000
0000
0003
,  // measure 23
1000
0000
1000
0000
,  // measure 24
0000
1000
0000
0000
,  // measure 25
0001
0000
0001
0000
,  // measure 26
0000
0001
0000
0000
,  // measure 27
0001
0000
0000
0000
,  // measure 28
0100
0000
0000
0000
,  // measure 29
1000
0000
0000
0000
,  // measure 30
0100
0000
0000
0000
,  // measure 31
0001
0000
0001
0000
,  // measure 32
0000
0001
0000
0000
,  // measure 33
0100
0000
0100
0000
,  // measure 34
0000
0100
0000
0000
,  // measure 35
0010
0000
0000
0000
,  // measure 36
0001
0000
0000
0000
,  // measure 37
0100
0000
0000
0000
,  // measure 38
0100
0000
0000
0000
,  // measure 39
0001
0000
0000
0000
,  // measure 40
0100
0000
0000
0000
,  // measure 41
0010
0000
0000
0000
,  // measure 42
1000
0000
0000
0000
,  // measure 43
0100
0000
0000
0000
,  // measure 44
0001
0000
0000
0000
,  // measure 45
0010
0000
0000
0000
,  // measure 46
0100
0000
0000
0000
,  // measure 47
0010
0000
0000
0000
,  // measure 48
0010
0000
0000
0000
,  // measure 49
0010
0000
0000
0000
,  // measure 50
1000
0000
0000
0000
,  // measure 51
0001
0000
0000
0000
;

//---------------dance-single - Chewi----------------
#NOTES:
     dance-single:
     Chewi:
     Easy:
     4:
     0.196,0.256,0.000,0.113,0.000: // measure 1
0000
0000
0000
0000
,  // measure 2
0000
0000
0000
0000
,  // measure 3
0000
0000
0000
0000
,  // measure 4
0000
0000
0000
0000
,  // measure 5
2000
3000
1000
0001
,  // measure 6
0002
0003
0001
1000
,  // measure 7
0020
0030
0010
0100
,  // measure 8
0200
0300
0100
0010
,  // measure 9
0010
0010
0010
0000
,  // measure 10
1000
0001
1000
0000
,  // measure 11
0001
0001
0001
0000
,  // measure 12
1000
0001
1000
0000
,  // measure 13
0010
0010
0010
0000
,  // measure 14
0010
0100
0010
0000
,  // measure 15
1000
1000
1000
0000
,  // measure 16
0001
1000
0001
0000
,  // measure 17
2000
0000
0000
3000
,  // measure 18
0020
0000
0000
0030
,  // measure 19
0200
0000
0000
0300
,  // measure 20
0020
0000
0000
0030
,  // measure 21
2000
0000
0000
3000
,  // measure 22
0002
0000
0000
0003
,  // measure 23
1000
0010
1000
0010
,  // measure 24
0000
1000
0000
0000
,  // measure 25
1000
0001
1000
0001
,  // measure 26
0000
0001
0000
0000
,  // measure 27
0001
0000
0010
0000
,  // measure 28
0100
0000
1000
0000
,  // measure 29
1000
0000
0010
0000
,  // measure 30
0100
0000
0001
0000
,  // measure 31
0001
0100
0001
0100
,  // measure 32
0000
0100
0000
0000
,  // measure 33
0100
0010
0100
0010
,  // measure 34
0000
0010
0000
0000
,  // measure 35
0010
0000
1000
0000
,  // measure 36
0001
0000
0010
0000
,  // measure 37
0100
0000
1000
0000
,  // measure 38
0100
0000
0010
0000
,  // measure 39
0001
1000
0001
0000
,  // measure 40
0100
0100
0100
0000
,  // measure 41
0010
1000
0100
0000
,  // measure 42
1000
1000
1000
0000
,  // measure 43
0100
0010
0001
0000
,  // measure 44
0001
0001
0001
0000
,  // measure 45
0010
0001
0100
0000
,  // measure 46
0100
0100
0100
0000
,  // measure 47
0010
0000
0000
0000
,  // measure 48
0010
0000
0010
0000
,  // measure 49
0010
1000
1000
0000
,  // measure 50
1000
0000
0100
0000
,  // measure 51
0001
0000
0010
0000
;

//---------------dance-single - Chewi----------------
#NOTES:
     dance-single:
     Chewi:
     Medium:
     7:
     0.320,0.370,0.158,0.327,0.000: // measure 1
0000
0000
0000
0000
,  // measure 2
0000
0000
0000
0000
,  // measure 3
0000
0000
0000
0000
,  // measure 4
0000
0000
0000
0000
,  // measure 5
2000
3010
0002
0103
,  // measure 6
2000
3010
0002
0103
,  // measure 7
2000
3100
0002
0013
,  // measure 8
2000
3100
0002
0013
,  // measure 9
0020
0000
0001
0030
,  // measure 10
0100
0010
0001
0000
0011
0000
0000
0000
,  // measure 11
0002
0000
1000
0003
,  // measure 12
1000
0001
0010
0000
0011
0000
0000
0000
,  // measure 13
2000
0000
0001
3000
,  // measure 14
0001
1000
0010
0000
1010
0000
0000
0000
,  // measure 15
0020
0000
0100
0030
,  // measure 16
0100
0010
1000
0000
1010
0000
0000
0000
,  // measure 17
2000
0000
0000
0000
,  // measure 18
3200
0000
0000
0000
,  // measure 19
0320
0000
0000
0000
,  // measure 20
0032
0000
0000
0000
,  // measure 21
2003
0000
3001
0000
,  // measure 22
0002
0000
1003
0000
,  // measure 23
1000
0010
0100
0001
,  // measure 24
0000
0000
1000
0000
0000
1000
0000
0000
,  // measure 25
0001
0000
0010
0000
0100
0000
0000
1000
,  // measure 26
0000
0000
1000
0000
0000
1000
0000
0000
,  // measure 27
1000
1001
0001
1000
,  // measure 28
0010
0100
0001
1000
,  // measure 29
0001
1001
1000
0100
,  // measure 30
0010
0001
0010
0000
,  // measure 31
0001
0010
0100
1000
,  // measure 32
0010
1000
0100
0000
0010
0000
0000
0000
,  // measure 33
0100
1000
0010
0001
,  // measure 34
0100
0010
0001
0000
0100
0000
0000
0000
,  // measure 35
0001
1000
0010
0100
,  // measure 36
0001
1000
0001
0000
1000
0000
0000
0000
,  // measure 37
0001
0010
0100
1000
,  // measure 38
0010
1000
0100
0000
1000
0000
0000
0000
,  // measure 39
2000
3001
0002
1003
,  // measure 40
1000
1100
0001
0101
,  // measure 41
0200
0310
0020
0130
,  // measure 42
0010
1000
0100
1000
,  // measure 43
2000
3100
0002
0013
,  // measure 44
0010
0011
0001
0011
,  // measure 45
0020
0130
2000
3010
,  // measure 46
0100
0101
0001
0101
,  // measure 47
0020
0000
0000
0030
,  // measure 48
0020
0030
0110
0000
,  // measure 49
0100
0010
0001
0000
2000
0000
3000
0000
,  // measure 50
1000
0100
1000
0000
0001
0100
0001
0000
,  // measure 51
0100
0000
0100
0010
0000
0110
0000
0000
;

//---------------dance-single - Chewi----------------
#NOTES:
     dance-single:
     Chewi:
     Hard:
     9:
     0.409,0.431,0.191,0.372,0.000: // measure 1
0000
0000
0000
0000
,  // measure 2
0000
0000
0000
0000
,  // measure 3
0000
0000
0000
0000
,  // measure 4
0000
0000
0000
0000
,  // measure 5
2001
0000
3010
0000
0010
0010
0010
0000
,  // measure 6
0100
0101
0001
0011
,  // measure 7
2001
0000
3100
0000
0100
0100
0100
0000
,  // measure 8
1000
1010
0001
0101
,  // measure 9
0100
0010
0100
0000
0010
0100
0010
0000
,  // measure 10
0010
1000
0100
0000
0010
0001
0100
0000
,  // measure 11
0001
0100
0001
0000
1000
0100
1000
0000
,  // measure 12
0001
0010
0100
0000
1000
0010
0100
0000
,  // measure 13
0001
0100
0001
0000
0100
0010
0100
0000
,  // measure 14
0010
1000
0010
0000
1000
0100
1000
0000
,  // measure 15
0100
0010
0100
0000
1000
0010
0100
0000
,  // measure 16
0001
0010
0100
0000
0010
0100
0010
0000
,  // measure 17
2002
0000
0000
0003
,  // measure 18
0020
0000
0000
3000
,  // measure 19
0200
0000
0000
0030
,  // measure 20
0002
0000
0000
0303
,  // measure 21
0002
0000
1000
0000
1000
0000
1003
1000
,  // measure 22
2000
0000
0001
0000
0001
0000
3001
0001
,  // measure 23
0001
0010
0100
1000
0010
0000
1000
0000
,  // measure 24
0000
0000
1000
0000
0000
0001
0000
0000
,  // measure 25
1000
0100
0010
0001
0010
0000
0000
0001
,  // measure 26
0000
0000
0010
0000
0000
0100
0000
0000
,  // measure 27
1000
1100
0001
0101
,  // measure 28
0100
0010
0100
0000
0010
1000
0010
0000
,  // measure 29
1000
1100
0001
0101
,  // measure 30
0100
0010
1000
0000
0010
0100
0001
0000
,  // measure 31
0001
0010
0001
0100
0001
0000
0000
0000
,  // measure 32
0000
0000
1000
0000
0000
0001
0000
0000
,  // measure 33
1000
0100
1000
0000
0000
0010
0000
0000
,  // measure 34
0000
0000
1000
0000
0000
0010
0000
0000
,  // measure 35
1000
1001
0001
0101
,  // measure 36
1000
0100
0010
0000
0001
0100
0010
0000
,  // measure 37
0010
1010
1000
1001
,  // measure 38
0001
0010
0100
0000
1000
0100
1000
0000
,  // measure 39
2000
0000
3100
0000
1000
0100
1000
0000
,  // measure 40
0002
0203
0320
2030
,  // measure 41
3002
0000
0013
0000
0010
0001
0010
0000
,  // measure 42
0020
0230
2300
3002
,  // measure 43
2003
0000
3010
0000
0100
0001
0100
0000
,  // measure 44
0020
2030
3002
0023
,  // measure 45
0230
0000
0310
0000
0001
1000
0001
0000
,  // measure 46
0002
0203
0320
2030
,  // measure 47
0002
0000
0000
3003
,  // measure 48
1000
0001
1000
0000
0001
1000
0001
0000
,  // measure 49
0020
0230
2300
3000
,  // measure 50
0010
1000
0010
0000
1000
0000
0000
0000
,  // measure 51
0001
0000
1000
0001
0000
1001
0000
0000
,  // measure 52
0110
0000
0000
0000
;
