#TITLE:Наедине;
#SUBTITLE:;
#ARTIST:Нюша;
#TITLETRANSLIT:Naedine;
#SUBTITLETRANSLIT:;
#ARTISTTRANSLIT:Nyusha;
#GENRE:Dance;
#CREDIT:;
#BANNER:Naedine.png;
#BACKGROUND:Naedine-bg.png;
#LYRICSPATH:;
#CDTITLE:cdtitle.png;
#MUSIC:Naedine.ogg;
#OFFSET:-0.300000;
#SAMPLESTART:31.186001;
#SAMPLELENGTH:15.000000;
#SELECTABLE:YES;
#BPMS:0.000000=120.000000
,128.000000=60.000000
,144.000000=120.000000
,164.000000=240.000000
,169.000000=120.000000
,233.000000=60.000000
;
#STOPS:168.000000=2.750000
;
#BGCHANGES:-0.200=Naedine.avi=1.000=1=0=0=StretchNoLoop==CrossFade==,
99999=-nosongbg-=1.000=0=0=0 // don't automatically add -songbackground-
;
#KEYSOUNDS:;
#ATTACKS:;

//---------------dance-single - ----------------
#NOTES:
     dance-single:
     :
     Beginner:
     2:
     0.078915,0.109481,0.065416,0.072684,0.000000,57.000000,9.000000,10.000000,0.000000,0.000000,0.000000,0.078915,0.109481,0.065416,0.072684,0.000000,57.000000,9.000000,10.000000,0.000000,0.000000,0.000000:
// measure 0
0000
0000
0000
0000
,  // measure 1
0000
0000
0000
0000
,  // measure 2
0000
0000
0000
0000
,  // measure 3
0000
0000
0000
0000
,  // measure 4
2000
0000
0000
3000
,  // measure 5
1000
0000
0000
0000
,  // measure 6
0002
0000
0000
0003
,  // measure 7
0001
0000
0000
0000
,  // measure 8
0100
0000
0000
0000
,  // measure 9
0100
0000
0000
0000
,  // measure 10
0010
0000
0000
0000
,  // measure 11
0010
0000
0000
0000
,  // measure 12
1000
0000
0000
0000
,  // measure 13
1000
0000
0000
0000
,  // measure 14
0001
0000
0000
0000
,  // measure 15
0001
0000
0000
0000
,  // measure 16
1001
0000
0000
0000
,  // measure 17
1000
0000
0000
0000
,  // measure 18
0002
0000
0000
0003
,  // measure 19
0001
0000
0000
0000
,  // measure 20
1001
0000
0000
0000
,  // measure 21
0100
0000
0000
0000
,  // measure 22
0200
0000
0000
0300
,  // measure 23
0100
0000
0000
0000
,  // measure 24
0110
0000
0000
0000
,  // measure 25
0010
0000
0000
0000
,  // measure 26
0020
0000
0000
0030
,  // measure 27
0010
0000
0000
0000
,  // measure 28
0110
0000
0000
0000
,  // measure 29
0100
0000
0000
0000
,  // measure 30
0200
0000
0000
0300
,  // measure 31
0100
0000
0000
0000
,  // measure 32
1000
0000
0000
0000
,  // measure 33
0001
0000
0000
0000
,  // measure 34
1000
0000
0000
0000
,  // measure 35
0001
0000
0000
0000
,  // measure 36
1001
0000
0000
0000
,  // measure 37
1000
0000
0000
0000
,  // measure 38
0001
0000
0000
0000
,  // measure 39
1000
0000
0000
0000
,  // measure 40
0110
0000
0000
0000
,  // measure 41
0100
0000
0000
0000
,  // measure 42
0000
0100
0000
0000
,  // measure 43
0000
0100
0000
0000
,  // measure 44
0000
0020
0000
0000
,  // measure 45
0030
0010
0000
0000
,  // measure 46
0000
1001
0000
0000
,  // measure 47
0000
1000
0000
0000
,  // measure 48
0000
0002
0000
0000
,  // measure 49
0003
0001
0000
0000
,  // measure 50
0000
1001
0000
0000
,  // measure 51
0000
1000
0000
0000
,  // measure 52
0000
2000
0000
0000
,  // measure 53
3000
1000
0000
0000
,  // measure 54
0000
1001
0000
0000
,  // measure 55
0000
0001
0000
0000
,  // measure 56
0000
0002
0000
0000
,  // measure 57
0003
0001
0000
0000
,  // measure 58
0000
0010
0000
0000
,  // measure 59
0000
0100
0000
0000
,  // measure 60
0000
0100
0000
0000
;

//---------------dance-single - ----------------
#NOTES:
     dance-single:
     :
     Easy:
     4:
     0.145369,0.218053,0.036342,0.072684,0.000000,125.000000,5.000000,10.000000,0.000000,0.000000,0.000000,0.145369,0.218053,0.036342,0.072684,0.000000,125.000000,5.000000,10.000000,0.000000,0.000000,0.000000:
0000
0000
0000
0000
,
0000
0000
0000
0000
,
0000
0000
0000
0000
,
0000
0000
0000
0000
,
2000
0000
0000
3000
,
1000
1000
1000
0000
,
0002
0000
0000
0003
,
0001
0001
0001
0000
,
0000
1000
0000
0100
,
0000
0010
0000
1000
,
0000
0100
0000
0001
,
0000
0010
0000
0100
,
0000
0001
0000
0010
,
0000
1000
0000
0100
,
0000
0001
0000
0100
,
0200
0000
0000
0300
,
0100
0010
0100
0010
,
0100
0100
0010
0010
,
0110
0000
0000
0000
,
1001
0000
0000
0000
,
0001
1000
0001
1000
,
0001
0001
1000
1000
,
1001
0000
0000
0000
,
1001
0000
0000
0000
,
1000
0010
0001
0010
,
1000
0010
0001
0010
,
1000
0000
0000
0000
,
0001
0000
0000
0000
,
1000
0100
0001
0100
,
1000
0100
0001
0100
,
1000
0000
0000
0000
,
0001
0000
0000
0000
,
0020
0000
0000
0030
,
0200
0000
0000
0300
,
2000
0000
0000
3000
,
0002
0000
0000
0003
,
1000
0000
1000
0000
,
0001
0000
0001
0000
,
0100
0000
0100
0000
,
0010
0000
0010
0000
,
1000
1000
0001
0001
,
2000
0000
0000
0000
,
3001
1001
0000
1000
,
0000
0001
0000
1000
,
0000
0001
0010
1000
,
0000
1000
0100
0001
,
0000
0001
0000
1000
,
0000
0001
0000
1000
,
0000
0001
0010
1000
,
0000
1000
0010
0001
,
0010
0010
0000
0100
,
0000
0010
0000
0100
,
0000
0010
0100
1000
,
0000
0010
0100
0001
,
0000
0100
0000
0010
,
0000
0100
0000
0010
,
0000
1000
0001
0010
,
0000
0001
1000
0100
,
0100
0200
0000
0000
,
0300
0020
0000
0000
,
0030
0000
0000
0000
;

//---------------dance-single - ----------------
#NOTES:
     dance-single:
     :
     Medium:
     7:
     0.232590,0.262754,0.029074,0.130832,0.003634,202.000000,4.000000,18.000000,0.000000,0.000000,0.000000,0.232590,0.262754,0.029074,0.130832,0.003634,202.000000,4.000000,18.000000,0.000000,0.000000,0.000000:
0000
0000
0000
0000
,
0000
0000
0000
0000
,
0000
0000
0000
0000
,
0000
0000
0000
0000
,
2000
0000
3100
0000
,
0002
0000
0103
0000
,
2000
0000
3010
0000
,
0002
0000
0013
0000
,
0010
0110
0010
0100
,
1000
0001
1000
0000
0000
0000
0000
0000
,
0001
1001
1000
0001
,
0100
0010
0100
0000
0010
0000
1000
0000
,
0100
0001
0010
0000
,
0010
0001
0100
0000
,
1000
0010
0001
0000
,
0010
0000
0010
0000
0010
0100
0010
0000
,
0200
0010
0001
0010
,
0310
0000
1000
1000
,
0001
0000
1000
0001
1000
0000
0000
0000
,
0010
0000
0001
1000
0001
0000
1000
0000
,
2000
0100
0001
0010
,
3100
0000
0100
0100
,
0010
0000
0001
0010
0001
0000
0000
0000
,
1000
0000
0100
1000
0100
0000
1000
0000
,
0002
0100
1000
0010
,
1003
0000
0001
1000
,
0010
0000
0100
0010
0100
0000
0000
0000
,
0100
0000
0010
0100
0010
0000
1000
0000
,
0002
0010
0100
0010
,
1000
0003
0000
0000
0000
0000
0000
0000
0001
0000
0000
0000
1000
0000
0000
0000
,
1000
0000
0001
1000
0001
0000
0000
0000
,
1000
0000
0001
1000
0001
0000
0000
0000
,
1000
0100
0100
0000
,
0001
0010
0010
0000
,
1000
0010
0010
0000
,
0001
0010
0010
0000
,
0100
0000
0000
0100
0000
0000
0200
0000
,
0310
0000
0000
0010
0000
0000
0020
0000
,
1030
0000
0000
1000
0000
0000
2000
0000
,
3001
0000
0000
0001
0000
0000
0002
0000
,
0013
0010
0100
0100
,
0220
0000
0000
0000
,
0330
0010
0100
0010
,
0100
1000
0001
1000
,
0001
0000
1000
0000
0001
1000
0100
0000
,
0000
0000
1000
0000
1000
0001
0100
0000
,
0100
0010
0100
0001
,
0010
0100
1000
0010
,
1000
0000
0100
0000
0010
0100
0010
0000
,
0000
0000
0100
0000
0010
0000
0001
0010
,
0001
1000
0100
0001
,
0010
1000
0100
0001
,
0100
0000
1000
0000
0100
1000
0100
0000
,
0000
0000
1000
0000
0001
0010
0100
0000
,
0010
0001
1000
0010
,
0001
0000
0000
0000
0100
0000
0000
0000
1000
0000
0000
0000
0000
0010
0000
0000
,
0001
0000
0010
0000
0100
0001
0100
0000
,
0000
0000
0001
0000
0010
0100
1000
0000
,
0001
2001
0000
0020
,
3000
0200
0030
0002
,
0000
0303
0000
0000
;

//---------------dance-single - ----------------
#NOTES:
     dance-single:
     :
     Hard:
     11:
     0.363422,0.372235,0.036342,0.072684,0.094490,336.000000,5.000000,10.000000,0.000000,0.000000,1.000000,0.363422,0.372235,0.036342,0.072684,0.094490,336.000000,5.000000,10.000000,0.000000,0.000000,1.000000:
0000
0000
0000
0000
,
0000
0000
0000
0000
,
0000
0000
0000
0000
,
0000
0000
0000
0000
,
1000
0100
0010
0001
,
1000
0000
0100
0000
0010
0001
0100
0000
,
0001
0100
0010
1000
,
0001
0000
0100
0000
0010
1000
0100
0000
,
1000
0000
1001
0000
1000
0100
1000
0000
,
0001
0000
1001
0000
0001
0100
0001
0000
,
0100
0000
0110
0000
0100
0010
0100
0000
,
0010
0000
0110
0000
0010
0100
0010
0000
,
1000
0000
0001
0000
1000
0100
0010
0001
,
1000
0000
0001
0000
0010
0100
1000
0001
,
0010
0000
0100
0000
0010
0100
0010
0000
,
0220
0000
0000
0330
,
0100
0010
0100
0010
0001
0010
0001
0010
,
0100
0010
0100
0010
0001
0010
0001
0010
,
0001
0000
1000
0000
0100
0000
1000
0001
0000
0000
0000
0000
0000
0000
0000
0000
,
0001
0000
1000
0000
0100
0000
1000
0001
0000
0000
1000
0000
1000
0000
0000
0000
,
1000
0010
1000
0100
1000
0010
1000
0100
,
1000
0001
1000
0100
1000
0001
1000
0100
,
1000
0000
0010
0000
0100
0000
0001
0100
0000
0000
0000
0000
0000
0000
0000
0000
,
1000
0000
0010
0000
0100
0000
0001
0100
0000
0000
0100
0000
0100
0000
0000
0000
,
0001
0010
0100
0010
0001
0010
0100
0010
,
0001
1000
0100
0010
0100
1000
0100
0010
,
0100
0000
1000
0000
0010
0000
1000
0010
0000
0000
0000
0000
0000
0000
0000
0000
,
0100
0000
1000
0000
0010
0000
1000
0010
0000
0000
1000
0000
1000
0000
0000
0000
,
0100
0010
0001
0010
0100
0010
1000
0010
,
0100
0010
0001
0010
0100
0010
0100
1000
,
0001
0000
1000
0000
0100
0000
1000
0001
0000
0000
0000
0000
0000
0000
0000
0000
,
0001
0000
1000
0000
0100
0000
1000
0001
0000
0000
0001
0000
0001
0000
0000
0000
,
1000
0010
0100
0001
,
1000
0100
0010
0001
,
1000
0100
0001
0010
,
1000
0100
0001
0100
,
0100
0000
0000
0001
0000
0000
1000
0000
0000
0010
0000
0000
1000
0000
1000
0000
,
0001
0000
0000
0010
0000
0000
0100
0000
0000
1000
0000
0000
0001
0000
0001
0000
,
0100
0000
0000
0001
0000
0000
1000
0000
0000
0010
0000
0000
0100
0000
0100
0000
,
0001
0000
0000
0010
0000
0000
0100
0000
0000
1000
0000
0000
0100
0000
0100
0000
,
1000
0000
0000
0100
0000
0000
0010
0000
0000
0001
0000
0000
0001
0000
1000
0000
,
0004
0000
0000
0000
,
0003
0000
0010
0100
0010
0100
1000
0100
,
1000
0100
0010
0100
0010
0100
1000
0100
,
1000
0000
0100
0000
1000
0000
0001
0000
0010
0000
0001
1000
0000
0000
0000
0000
,
0000
0000
0000
0000
1000
0000
0001
0000
0010
0000
0001
1000
0000
0000
0001
0000
,
0001
0000
0001
0100
0001
0010
0001
0100
,
0001
0010
0001
1000
0001
0010
0001
1000
,
0001
0000
0010
0000
0001
0000
0100
0000
0010
0000
1000
0010
0000
0000
0000
0000
,
0000
0000
0000
0000
0001
0000
0100
0000
0010
0000
1000
0010
0000
0000
0010
0000
,
0010
0000
1000
0100
0010
0100
1000
0100
,
0010
0100
1000
0001
0010
0100
0010
0001
,
0010
0000
0100
0000
0010
0000
0001
0000
0100
0000
0001
0100
0000
0000
0000
0000
,
0000
0000
0000
0000
0010
0000
0001
0000
0100
0000
0001
0100
0000
0000
0001
0000
,
0001
0000
0010
0100
1000
0100
0010
0100
,
0001
0100
0010
0100
1000
0100
0010
0100
,
0010
0000
0001
0000
1000
0000
0001
0000
0010
0000
0001
1000
0000
0000
0000
0000
,
0000
0000
0000
0000
1000
0000
0001
0000
0010
0000
0001
1000
0000
0000
1000
0000
,
1000
0002
0023
0230
,
2300
3002
0203
0320
,
2030
3001
0000
0000
;
