#TITLE:NO DOUBT GET LOUD;
#SUBTITLE:;
#ARTIST:ASLETICS;
#TITLETRANSLIT:;
#SUBTITLETRANSLIT:;
#ARTISTTRANSLIT:;
#GENRE:;
#CREDIT:Chewi☆;
#MENUCOLOR:#FFFFFF;
#METERTYPE:DDR X;
#BANNER:NO DOUBT GET LOUD.png;
#BACKGROUND:NO DOUBT GET LOUD-bg.png;
#LYRICSPATH:;
#CDTITLE:./CDTITLES/DanceDanceRevolution skyMIX3 -breeze-.png;
#MUSIC:NO DOUBT GET LOUD.mp3;
#OFFSET:-0.432;
#SAMPLESTART:38.833;
#SAMPLELENGTH:15.000;
#SELECTABLE:YES;
#LISTSORT:;
#DISPLAYBPM:100.000;
#BPMS:0.000=100.000;
#STOPS:;
#BGCHANGES:;
#ATTACKS:;

//---------------dance-single - Chewi----------------
#NOTES:
     dance-single:
     Chewi:
     Beginner:
     1:
     0.055,0.079,0.010,0.000,0.000:
0000
0000
0000
0000
,
0000
0000
0000
0000
,
0000
0000
0000
0000
,
0000
0000
0000
0000
,
1000
0000
0000
0000
,
0001
0000
0000
0000
,
0001
0000
0000
0000
,
1000
0000
0000
0000
,
0100
0000
0000
0000
,
1000
0000
0000
0000
,
0001
0000
0000
0000
,
1000
0000
0000
0000
,
1001
0000
0000
0000
,
1000
0000
0000
0000
,
0100
0000
0000
0000
,
0001
0000
0000
0000
,
0001
0000
0000
0000
,
0001
0000
0000
0000
,
1000
0000
0000
0000
,
0010
0000
0000
0000
,
0010
0000
0000
0000
,
1000
0000
0000
0000
,
1000
0000
0000
0000
,
0100
0000
0000
0000
,
1000
0000
0000
0000
,
0001
0000
0000
0000
,
1000
0000
0000
0000
,
0001
0000
0000
0000
,
0100
0000
0000
0000
,
0100
0000
0000
0000
,
1000
0000
0000
0000
,
0001
0000
0000
0000
,
0001
0000
0000
0000
,
0001
0000
0000
0000
,
1000
0000
0000
0000
,
0010
0000
0000
0000
,
0010
0000
0000
0000
,
1000
0000
0000
0000
,
1000
0000
0000
0000
,
0100
0000
0100
0100
;

//---------------dance-single - Chewi----------------
#NOTES:
     dance-single:
     Chewi:
     Easy:
     3:
     0.152,0.179,0.010,0.010,0.000: // measure 1
0000
0000
0000
0000
,  // measure 2
0000
0000
0000
0000
,  // measure 3
0000
0000
0000
0000
,  // measure 4
0000
0000
0000
0000
,  // measure 5
1000
0000
0100
0000
,  // measure 6
0001
0000
0010
0000
,  // measure 7
0001
0000
0100
0000
,  // measure 8
1000
0000
0010
0000
,  // measure 9
0100
0010
0100
0000
,  // measure 10
1000
0001
1000
0000
,  // measure 11
0001
0010
0001
0000
,  // measure 12
1000
0100
1000
0000
,  // measure 13
1001
0000
0000
0000
,  // measure 14
1000
0010
0100
0010
,  // measure 15
0100
0000
0001
0000
,  // measure 16
0001
0010
0100
0010
,  // measure 17
0001
0000
0100
0000
,  // measure 18
0001
1000
0001
1000
,  // measure 19
1000
0000
0001
0000
,  // measure 20
0010
0100
0010
0100
,  // measure 21
0010
0000
0001
0000
,  // measure 22
1000
0100
0010
0100
,  // measure 23
1000
0000
0001
0000
,  // measure 24
0100
0010
0100
0001
,  // measure 25
1000
0100
0100
0000
,  // measure 26
0001
0010
0010
0000
,  // measure 27
1000
0001
1000
0000
,  // measure 28
0001
1000
0001
0000
,  // measure 29
0100
0010
1000
0000
,  // measure 30
0100
0010
0001
0000
,  // measure 31
1000
0001
0100
0000
,  // measure 32
0001
1000
0010
0000
,  // measure 33
0001
0000
0100
0000
,  // measure 34
0001
1000
0001
1000
,  // measure 35
1000
0000
0001
0000
,  // measure 36
0010
0100
0010
0100
,  // measure 37
0010
0000
0001
0000
,  // measure 38
1000
0100
0010
0100
,  // measure 39
1000
0000
0001
0000
,  // measure 40
0100
0000
0010
0000
0100
0100
0100
0200
,  // measure 41
0300
0000
0000
0000
;

//---------------dance-single - Chewi----------------
#NOTES:
     dance-single:
     Chewi:
     Medium:
     5:
     0.213,0.219,0.159,0.010,0.000: // measure 1
0000
0000
0000
0000
,  // measure 2
0000
0000
0000
0000
,  // measure 3
0000
0000
0000
0000
,  // measure 4
0000
0000
0000
0000
,  // measure 5
1000
0010
0100
0001
,  // measure 6
1000
0100
0010
0001
,  // measure 7
1000
0001
0100
0010
,  // measure 8
1000
0001
0010
0100
,  // measure 9
0010
0001
1000
0100
,  // measure 10
0100
1000
0010
0001
,  // measure 11
0001
0010
0100
1000
,  // measure 12
0001
0100
0010
1000
,  // measure 13
1001
0000
0110
0000
,  // measure 14
0100
0010
0100
0010
,  // measure 15
1000
0100
0001
0010
,  // measure 16
0001
0100
1000
0010
,  // measure 17
1001
0000
0110
0000
,  // measure 18
0001
0010
0100
1000
,  // measure 19
0000
1001
0110
0000
,  // measure 20
0010
1000
0100
0010
,  // measure 21
0001
0010
0110
0000
,  // measure 22
0010
1001
0100
1001
,  // measure 23
0010
0100
0101
0000
,  // measure 24
0001
0010
0100
1000
,  // measure 25
0100
0010
0001
1000
,  // measure 26
0010
0100
1000
0001
,  // measure 27
0100
0001
0010
0001
,  // measure 28
0100
1000
0010
1000
,  // measure 29
0001
1000
0010
0100
,  // measure 30
0001
1000
0100
0010
,  // measure 31
1000
0100
0010
0001
,  // measure 32
0010
0001
0100
1000
,  // measure 33
0010
0100
1001
0000
,  // measure 34
1000
1100
0001
0011
,  // measure 35
0100
0100
0110
0000
,  // measure 36
0010
0001
0100
1000
,  // measure 37
0000
0010
0110
0000
,  // measure 38
1000
0100
0001
0010
,  // measure 39
0000
0100
1001
0000
,  // measure 40
0001
0010
0100
0000
1000
0100
0010
0002
,  // measure 41
0003
0000
0000
0000
;

//---------------dance-single - Chewi----------------
#NOTES:
     dance-single:
     Chewi:
     Hard:
     9:
     0.368,0.437,0.318,0.020,0.055: // measure 1
0000
0000
0000
0000
,  // measure 2
0000
0000
0000
0000
,  // measure 3
0000
0000
0000
0000
,  // measure 4
0000
0000
0000
0000
,  // measure 5
1000
0000
0000
0010
0000
0000
0000
0000
0100
0000
0000
0000
0100
0000
0000
0000
,  // measure 6
0001
0000
0000
0010
0000
0000
0000
0000
0100
0000
0000
0000
0100
0000
0000
0000
,  // measure 7
0010
0000
0000
0100
0000
0000
0000
0000
0010
0000
0000
0000
0001
0000
0000
0000
,  // measure 8
1000
0000
0000
0100
0000
0000
0000
0000
0010
0000
0000
0000
0100
0000
0000
0000
,  // measure 9
1000
0100
1000
0000
0001
0000
0101
0000
,  // measure 10
0001
0010
0001
0000
1000
0000
1010
0000
,  // measure 11
0010
0100
0001
0000
1000
0000
1100
0000
,  // measure 12
0001
0010
0100
0000
1000
0000
1001
0000
,  // measure 13
0100
0100
0100
0000
0010
0010
0010
0000
,  // measure 14
1000
0010
0001
0010
1000
0100
0001
0100
,  // measure 15
0100
0100
0100
0000
0010
0010
0010
0000
,  // measure 16
0001
0010
0001
0100
0001
0010
0001
0100
,  // measure 17
0000
0010
1000
0001
1001
0000
0000
1000
,  // measure 18
1100
0001
0101
0100
0010
1000
0001
0000
,  // measure 19
0000
0010
0010
0100
0110
0000
0000
0010
,  // measure 20
0011
0010
1010
1000
0001
0010
0100
1000
,  // measure 21
0000
0001
0100
1000
0110
0000
0000
0010
,  // measure 22
1010
0100
0101
0010
0001
0010
0100
0000
,  // measure 23
0000
1000
0010
0100
0101
0000
0000
0001
,  // measure 24
0101
0010
0110
0100
0010
0001
0100
0010
,  // measure 25
1000
0000
0000
0010
0000
0000
0100
0000
0001
0000
0100
0000
0001
0000
0100
0000
,  // measure 26
0001
0000
0000
0010
0000
0000
0100
0000
1000
0000
0100
0000
1000
0000
0001
0000
,  // measure 27
1000
0000
0000
0001
0000
0000
0100
0000
0010
0000
0100
0000
0010
0000
0100
0000
,  // measure 28
0010
0000
0000
1000
0000
0000
0010
0000
0001
0000
0010
0000
1000
0000
0010
0000
,  // measure 29
0001
0000
0000
0100
0000
0000
0001
0000
0100
0000
1000
0000
0010
0000
0001
0000
,  // measure 30
1000
0000
0000
0001
0000
0000
1000
0000
0100
0000
0010
0000
0001
0000
1000
0000
,  // measure 31
0100
0000
0000
0010
0000
0000
0100
0000
1000
0000
0010
0000
1000
0000
0100
0000
,  // measure 32
0010
0001
0100
0100
0010
1000
0001
0001
,  // measure 33
1000
0100
0010
0001
1001
0000
0000
0001
,  // measure 34
0101
1000
1100
0010
0100
1000
0010
0100
,  // measure 35
0000
0100
0010
1000
1001
0000
0000
0010
,  // measure 36
0110
0001
1001
1000
0100
1000
0010
0100
,  // measure 37
0001
0100
0010
1000
1001
0000
0000
0001
,  // measure 38
0011
1000
1010
1000
0010
0100
0001
0100
,  // measure 39
0000
0010
1000
0001
0011
0000
0000
0001
,  // measure 40
1001
1000
1001
0100
0110
1001
0110
2002
,  // measure 41
3003
0000
0000
0000
;
