#VERSION:0.83;
#TITLE:NEXT MY SELF;
#SUBTITLE:;
#ARTIST:真野恵里菜;
#TITLETRANSLIT:;
#SUBTITLETRANSLIT:;
#ARTISTTRANSLIT:Erina Mano;
#GENRE:Pop;
#ORIGIN:;
#CREDIT:chewi;
#BANNER:NEXT MY SELF.png;
#BACKGROUND:NEXT MY SELF-bg.png;
#PREVIEWVID:;
#JACKET:NEXT MY SELF-jacket.png;
#CDIMAGE:;
#DISCIMAGE:;
#LYRICSPATH:;
#CDTITLE:cdtitle.png;
#MUSIC:NEXT MY SELF.ogg;
#OFFSET:-1.735000;
#SAMPLESTART:56.480000;
#SAMPLELENGTH:15.000000;
#SELECTABLE:YES;
#BPMS:0.000=137.000;
#STOPS:;
#DELAYS:;
#WARPS:;
#TIMESIGNATURES:0.000=4=4;
#TICKCOUNTS:0.000=4;
#COMBOS:0.000=1;
#SPEEDS:0.000=1.000=0.000=0;
#SCROLLS:0.000=1.000;
#FAKES:;
#LABELS:0.000=Song Start;
#BGCHANGES:-3.500=NEXT MY SELF.avi=1.000=1=0=1===CrossFade==,
99999=-nosongbg-=1.000=0=0=0 // don't automatically add -songbackground-
;
#KEYSOUNDS:;
#ATTACKS:
;

//---------------dance-single - ----------------
#NOTEDATA:;
#CHARTNAME:;
#STEPSTYPE:dance-single;
#DESCRIPTION:;
#CHARTSTYLE:;
#DIFFICULTY:Easy;
#METER:4;
#RADARVALUES:0.199028,0.235691,0.000000,0.041901,0.000000,133.000000,133.000000,0.000000,4.000000,0.000000,0.000000,0.000000,0.000000,0.000000,0.199028,0.235691,0.000000,0.041901,0.000000,133.000000,133.000000,0.000000,4.000000,0.000000,0.000000,0.000000,0.000000,0.000000;
#CREDIT:;
#NOTES:
0000
0000
0000
0000
,
0000
0000
0000
0000
,
0000
0000
0000
0000
,
0000
0000
0000
0000
,
1000
0000
0100
0000
,
0001
0000
0010
0000
,
1000
0000
0100
0000
,
0001
0000
0010
0000
,
0100
0010
0100
0000
,
1000
0001
1000
0000
,
1000
0000
1000
0000
,
0100
0000
0100
0000
,
1000
0100
0010
0000
,
0001
0010
0100
0000
,
1000
0010
0100
0000
,
0001
0100
0010
0000
,
0010
0100
0010
0000
,
1000
0001
1000
0000
,
0001
0000
0001
0000
,
0010
0000
0010
0000
,
0001
0010
0100
0000
,
1000
0100
0010
0000
,
0001
0100
0010
0000
,
1000
0010
0100
0000
,
0001
0000
0000
0001
0000
0000
0000
1000
,
0000
1000
0000
0100
,
0100
0100
0000
0010
,
0010
0010
0000
0001
,
1000
0001
1000
0000
,
1000
0001
1000
0001
,
0001
0100
1000
0010
,
0001
0000
0000
0000
,
1000
1000
0001
0001
,
1000
0001
0100
0010
,
2000
3000
0002
0003
,
2000
3000
0002
0003
,
1000
0100
0010
0000
,
0001
0010
0100
0000
,
1000
1000
1000
0001
,
0001
0010
1000
0100
,
1000
1000
0001
0001
,
1000
0000
0001
0000
,
1000
0000
0010
0100
,
0100
0100
0010
0000
,
0001
0010
0100
0000
,
1000
0100
0010
0000
,
0001
0001
0001
1000
,
1000
0100
0001
0010
,
1000
0100
0001
0010
,
1000
0000
0000
0000
,
0001
0000
0000
0000
;

//---------------dance-single - ----------------
#NOTEDATA:;
#CHARTNAME:;
#STEPSTYPE:dance-single;
#DESCRIPTION:;
#CHARTSTYLE:;
#DIFFICULTY:Beginner;
#METER:1;
#RADARVALUES:0.118220,0.130939,0.000000,0.052376,0.000000,79.000000,79.000000,0.000000,5.000000,0.000000,0.000000,0.000000,0.000000,0.000000,0.118220,0.130939,0.000000,0.052376,0.000000,79.000000,79.000000,0.000000,5.000000,0.000000,0.000000,0.000000,0.000000,0.000000;
#CREDIT:;
#NOTES:
0000
0000
0000
0000
,
0000
0000
0000
0000
,
0000
0000
0000
0000
,
0000
0000
0000
0000
,
1000
0000
0000
0000
,
0001
0000
0000
0000
,
1000
0000
0000
0000
,
0001
0000
0000
0000
,
0100
0000
0100
0000
,
0010
0000
0010
0000
,
0100
0000
0100
0000
,
0010
0000
0010
0000
,
1000
0000
1000
0000
,
0001
0000
0001
0000
,
1000
0000
1000
0000
,
0001
0000
0001
0000
,
0010
0000
0010
0000
,
0100
0000
0100
0000
,
0010
0000
0010
0000
,
0100
0000
0100
0000
,
1000
0000
1000
0000
,
0001
0000
0001
0000
,
1000
0000
1000
0000
,
0001
0000
0001
0000
,
0002
0000
0000
0003
,
0001
0000
0000
0000
,
0020
0000
0000
0030
,
0010
0000
0000
0000
,
0200
0000
0000
0300
,
0100
0000
0000
0000
,
2000
0000
0000
3000
,
1000
0000
0000
0000
,
1000
0000
0100
0000
,
1000
0000
0100
0000
,
0001
0000
0100
0000
,
0001
0000
0100
0000
,
1000
0000
0100
0000
,
0010
0000
0001
0000
,
0001
0000
0010
0000
,
0100
0000
1000
0000
,
0001
0000
0010
0000
,
0001
0000
0010
0000
,
1000
0000
0010
0000
,
1000
0000
0010
0000
,
1000
0000
0100
0000
,
0010
0000
0001
0000
,
0001
0000
0010
0000
,
0100
0000
1000
0000
,
2000
0000
0000
3000
,
1000
0000
0000
0000
,
0001
0000
0000
0000
;

//---------------dance-single - ----------------
#NOTEDATA:;
#CHARTNAME:;
#STEPSTYPE:dance-single;
#DESCRIPTION:;
#CHARTSTYLE:;
#DIFFICULTY:Medium;
#METER:7;
#RADARVALUES:0.278340,0.340442,0.083801,0.219978,0.000000,186.000000,178.000000,8.000000,21.000000,0.000000,0.000000,0.000000,0.000000,0.000000,0.278340,0.340442,0.083801,0.219978,0.000000,186.000000,178.000000,8.000000,21.000000,0.000000,0.000000,0.000000,0.000000,0.000000;
#CREDIT:;
#NOTES:
0000
0000
0000
0000
,
0000
0000
0000
0000
,
0000
0000
0000
0000
,
0000
0000
0000
0000
,
2010
0000
0001
0000
0100
0100
3100
0000
,
0012
0000
1000
0000
0100
0100
0103
0000
,
0100
0001
0100
0000
0010
0000
1000
0000
,
0010
1000
0010
0000
2000
0000
3001
0000
,
0001
0000
0001
0100
0000
0000
0000
0000
,
1000
0000
1000
0100
0000
0010
0000
0000
,
0001
1000
1000
0001
,
1000
1000
0010
0100
,
0010
0000
0000
1000
0100
0000
0000
0010
,
0001
0000
0000
0000
0000
0001
1000
0001
,
1000
0000
0000
0010
0100
0000
0000
0100
,
0010
1000
0001
0010
,
0010
0000
0001
0010
0000
0000
0000
0000
,
0001
0000
0100
0010
0000
0100
0000
0000
,
0010
1000
0100
1000
,
0010
1000
1000
1000
,
0001
0000
0000
1000
0100
0000
0000
0100
,
1000
0000
0000
0000
0000
1000
0010
1000
,
0010
0000
0000
0100
0001
0000
0000
0001
,
1000
0000
0000
1000
0001
0000
0000
0000
,
0100
0000
0100
0100
0000
0000
0000
0010
,
0000
0010
0010
0000
0000
0000
1000
0010
,
1000
0100
0010
0100
,
1000
0010
0100
0001
,
0100
0000
0100
0000
0010
0010
0010
0000
,
2001
0100
0010
3001
,
0001
0000
0001
0000
1000
1000
1000
0000
,
1002
0100
0010
1003
,
2000
3010
0002
0013
,
2000
3100
0002
0103
,
2000
3010
0020
0130
,
0200
0301
0002
0103
,
0001
0000
0000
0101
0000
0000
0000
0000
,
1000
0000
0000
1100
0000
0000
0000
0000
,
1000
0100
0001
0010
,
1000
0010
0001
0010
,
0002
0103
2000
3100
,
0002
0013
2000
3010
,
0002
0103
0200
0310
,
0020
1030
2000
3010
,
1000
0000
0000
1010
0000
0000
0000
0000
,
0001
0000
0000
0011
0000
0000
0000
0000
,
0001
0010
1000
0100
,
0001
0100
1000
0100
,
1000
0010
0001
0000
,
0001
0100
1000
0000
,
0010
0000
0000
0000
;

//---------------dance-single - ----------------
#NOTEDATA:;
#CHARTNAME:;
#STEPSTYPE:dance-single;
#DESCRIPTION:;
#CHARTSTYLE:;
#DIFFICULTY:Hard;
#METER:10;
#RADARVALUES:0.396559,0.469025,0.230453,0.178078,0.000000,265.000000,243.000000,22.000000,17.000000,0.000000,0.000000,0.000000,0.000000,0.000000,0.396559,0.469025,0.230453,0.178078,0.000000,265.000000,243.000000,22.000000,17.000000,0.000000,0.000000,0.000000,0.000000,0.000000;
#CREDIT:;
#NOTES:
// measure 0
0000
0000
0000
0000
,  // measure 1
0000
0000
0000
0000
,  // measure 2
0000
0000
0000
0000
,  // measure 3
0000
0000
0000
0000
,  // measure 4
1000
0000
0010
0000
0100
0001
0100
0001
,  // measure 5
0000
0000
0010
0000
0100
1000
0100
1000
,  // measure 6
0000
0000
1000
0010
1000
0100
1000
0010
,  // measure 7
1000
1000
0100
0100
0010
0010
0001
0001
,  // measure 8
1000
0000
0010
0000
0001
0100
1000
0000
,  // measure 9
0010
0000
0001
0000
0100
1000
0010
0000
,  // measure 10
0001
0000
0100
0000
1000
0010
0001
0000
,  // measure 11
0001
0010
1000
0000
1000
0010
0001
0000
,  // measure 12
0001
0000
0010
0000
1000
0100
0001
0000
,  // measure 13
0010
0000
1000
0000
0100
0001
0010
0000
,  // measure 14
1000
0000
0100
0000
0001
0010
1000
0000
,  // measure 15
1000
0010
0001
0000
0001
0010
1000
0000
,  // measure 16
1000
0001
0100
0010
0000
0100
0100
0000
,  // measure 17
0100
0001
0010
0100
0000
1000
1000
0000
,  // measure 18
0010
0100
0001
1000
0000
0001
0001
0000
,  // measure 19
1000
0100
1000
0000
0001
0100
0001
0000
,  // measure 20
0001
1000
0010
0100
0000
0010
0010
0000
,  // measure 21
0010
1000
0100
0010
0000
0001
0001
0000
,  // measure 22
0100
0010
1000
0001
0000
1000
1000
0000
,  // measure 23
0001
0010
0001
0000
1000
0010
1000
0000
,  // measure 24
2001
0000
0100
0000
0010
0000
3001
1000
,  // measure 25
1002
0000
0100
0000
0010
0000
1003
0001
,  // measure 26
1000
0010
0001
0000
1000
0100
0001
0000
,  // measure 27
0001
0010
1000
0001
0100
1000
0001
1000
,  // measure 28
1020
0000
0100
0000
0001
0000
0130
0001
,  // measure 29
0021
0000
0100
0000
1000
0000
0130
1000
,  // measure 30
1000
1000
0010
0010
0100
0100
0001
0001
,  // measure 31
2000
0010
0001
3010
,  // measure 32
1000
1000
1000
0000
0001
0001
0001
0000
,  // measure 33
2000
3002
0203
0320
,  // measure 34
1030
0100
1000
0000
0100
0001
0100
0000
,  // measure 35
0001
0010
0001
0000
0010
1000
0010
0000
,  // measure 36
1000
0100
0010
0001
0000
0000
1000
0000
,  // measure 37
0001
0010
0100
1000
0000
0000
0001
0000
,  // measure 38
1010
1010
0101
0101
,  // measure 39
0011
0011
1100
1100
,  // measure 40
0001
0001
0001
0000
1000
1000
1000
0000
,  // measure 41
0002
2003
3020
0230
,  // measure 42
0301
0010
0001
0000
0010
1000
0010
0000
,  // measure 43
1000
0100
1000
0000
0100
0001
0100
0000
,  // measure 44
0001
0010
0100
1000
0000
0000
0001
0000
,  // measure 45
1000
0100
0010
0001
0000
0000
1000
0000
,  // measure 46
0101
0101
1010
1010
,  // measure 47
1100
1100
0011
0011
,  // measure 48
2002
0000
0000
3003
,  // measure 49
0220
0000
0000
0330
;
