#TITLE:NEW LOOK;
#SUBTITLE:;
#ARTIST:安室奈美恵;
#TITLETRANSLIT:;
#SUBTITLETRANSLIT:;
#ARTISTTRANSLIT:Namie Amuro;
#CREDIT:;
#BANNER:NEW LOOK.png;
#BACKGROUND:NEW LOOK-bg.png;
#LYRICSPATH:;
#CDTITLE:cdtitle.png;
#MUSIC:NEW LOOK.mp3;
#OFFSET:-1.743;
#SAMPLESTART:68.205;
#SAMPLELENGTH:15.000;
#SELECTABLE:YES;
#BPMS:0.000=130.000;
#STOPS:;
#BGCHANGES:;

//---------------dance-single - Chewi----------------
#NOTES:
     dance-single:
     Chewi:
     Beginner:
     2:
     0.072,0.121,0.020,0.020,0.000: // measure 1
0000
0000
0000
0000
,  // measure 2
0000
0000
0000
0000
,  // measure 3
0000
0000
0000
0000
,  // measure 4
0000
0000
0000
0000
,  // measure 5
1000
0000
0000
0000
,  // measure 6
0001
0000
0000
0000
,  // measure 7
0100
0000
0000
0000
,  // measure 8
0010
0000
0000
0000
,  // measure 9
1000
0000
0000
0000
,  // measure 10
1000
0000
0000
0000
,  // measure 11
0001
0000
0000
0000
,  // measure 12
0001
0000
0000
0000
,  // measure 13
0100
0000
0000
0000
,  // measure 14
0100
0000
0000
0000
,  // measure 15
0001
0000
0000
0000
,  // measure 16
0001
0000
0000
0000
,  // measure 17
1000
0000
0000
0000
,  // measure 18
0001
0000
0000
0000
,  // measure 19
1000
0000
0000
0000
,  // measure 20
0001
0000
0000
0000
,  // measure 21
0010
0000
0010
0000
,  // measure 22
0020
0000
0000
0030
,  // measure 23
0100
0000
0000
0000
,  // measure 24
0200
0000
0000
0300
,  // measure 25
0001
0000
0000
0000
,  // measure 26
0001
0000
0000
0000
,  // measure 27
1001
0000
0000
0000
,  // measure 28
0110
0000
0000
0000
,  // measure 29
0100
0000
0000
0000
,  // measure 30
0001
0000
0000
0000
,  // measure 31
1000
0000
0000
0000
,  // measure 32
0010
0000
0000
0000
,  // measure 33
0010
0000
0000
0000
,  // measure 34
1000
0000
0000
0000
,  // measure 35
0001
0000
0000
0000
,  // measure 36
0001
0000
0000
0000
,  // measure 37
1000
0000
0000
0000
,  // measure 38
1000
0000
0000
0000
,  // measure 39
0001
0000
0000
0000
,  // measure 40
0001
0000
0000
0000
,  // measure 41
0100
0000
0000
0000
,  // measure 42
0100
0000
0000
0000
,  // measure 43
0001
0000
0000
0000
,  // measure 44
0001
0000
0000
0000
,  // measure 45
1000
0000
0000
0000
,  // measure 46
0001
0000
0000
0000
,  // measure 47
1000
0000
0000
0000
,  // measure 48
0001
0000
0000
0000
,  // measure 49
0001
0000
0000
0000
;

//---------------dance-single - Chewi----------------
#NOTES:
     dance-single:
     Chewi:
     Easy:
     4:
     0.186,0.242,0.040,0.040,0.000: // measure 1
0000
0000
0000
0000
,  // measure 2
0000
0000
0000
0000
,  // measure 3
0000
0000
0000
0000
,  // measure 4
0000
0000
0000
0000
,  // measure 5
1000
1000
1000
0000
,  // measure 6
0001
0001
0001
0000
,  // measure 7
0100
0100
0100
0000
,  // measure 8
0010
0010
0010
0000
,  // measure 9
1000
0000
0100
0000
,  // measure 10
1000
0100
1000
0000
,  // measure 11
0001
0000
0100
0000
,  // measure 12
0001
0100
0001
0000
,  // measure 13
0100
0000
0010
0000
,  // measure 14
0100
0010
1000
0000
,  // measure 15
0001
0000
1000
0000
,  // measure 16
0001
0010
0100
0000
,  // measure 17
1000
0000
0100
0000
,  // measure 18
0001
0010
1000
0000
,  // measure 19
1000
0000
0010
0000
,  // measure 20
0001
0100
1000
0000
,  // measure 21
0010
0010
0010
0010
,  // measure 22
0020
0000
0000
0030
,  // measure 23
0100
0100
0100
0100
,  // measure 24
0200
0000
0000
0300
,  // measure 25
0001
0001
1000
1000
,  // measure 26
0001
0001
1000
1000
,  // measure 27
1001
0000
1001
0000
,  // measure 28
0110
0000
0110
0000
,  // measure 29
0100
0010
0010
0100
,  // measure 30
0002
0000
1003
0000
,  // measure 31
1000
0100
0100
1000
,  // measure 32
0020
0000
1030
0000
,  // measure 33
0010
0100
0100
0010
,  // measure 34
1000
0001
0001
1000
,  // measure 35
0001
0010
1000
0100
,  // measure 36
0001
0000
0000
0000
,  // measure 37
1000
0000
0100
0000
,  // measure 38
1000
0100
1000
0000
,  // measure 39
0001
0000
0100
0000
,  // measure 40
0001
0100
0001
0000
,  // measure 41
0100
0000
0010
0000
,  // measure 42
0100
0010
1000
0000
,  // measure 43
0001
0000
1000
0000
,  // measure 44
0001
0010
0100
0000
,  // measure 45
1000
0000
0100
0000
,  // measure 46
0001
0010
1000
0000
,  // measure 47
1000
0000
0010
0000
,  // measure 48
0001
0100
1000
0010
,  // measure 49
0001
0000
0000
0000
;

//---------------dance-single - Chewi----------------
#NOTES:
     dance-single:
     Chewi:
     Medium:
     8:
     0.352,0.363,0.131,0.202,0.237: // measure 1
0000
0000
0000
0000
,  // measure 2
0000
0000
0000
0000
,  // measure 3
0000
0000
0000
0000
,  // measure 4
0000
0000
0000
0000
,  // measure 5
1000
0000
0000
1000
0000
0000
0001
0000
0001
1000
0000
0000
,  // measure 6
0001
0000
0000
0001
0000
0000
1000
0000
1000
0001
0000
0000
,  // measure 7
0100
0000
0000
0010
0000
0000
0100
0000
0100
0010
0000
0000
,  // measure 8
0220
0000
0000
0330
,  // measure 9
0010
0000
0000
0010
0000
0000
0010
0000
0010
1000
0000
0000
,  // measure 10
0001
0010
0001
0011
,  // measure 11
0001
0000
0000
0001
0000
0000
0001
0000
0001
1000
0000
0000
,  // measure 12
0100
0010
0100
1100
,  // measure 13
0000
0000
0000
1000
0000
1000
0001
0000
0001
1000
0000
1000
,  // measure 14
0020
0130
0200
0310
,  // measure 15
0000
0000
0000
0010
0000
0010
1000
0000
1000
0001
0000
0001
,  // measure 16
2000
3100
0002
0103
,  // measure 17
0000
0000
0000
1000
0000
1000
0100
0000
0100
0010
0000
0010
,  // measure 18
0002
0023
0230
2300
,  // measure 19
3001
0000
0001
1000
0000
0000
1000
0000
0000
1001
0000
0000
,  // measure 20
0100
0000
0100
0010
0000
0000
0100
0000
0000
0110
0000
0000
,  // measure 21
0010
0000
0010
1000
0000
0000
1000
0000
1000
0010
0000
0000
,  // measure 22
1000
0001
0010
0100
,  // measure 23
1000
0000
1000
0100
0000
0000
0100
0000
0100
1000
0000
0000
,  // measure 24
1000
0010
0100
0001
,  // measure 25
0010
0000
0010
0001
0000
0000
0100
0000
0100
0001
0000
0000
,  // measure 26
0010
0100
1000
0001
,  // measure 27
1000
0100
0000
1000
0000
0000
0001
0010
0000
0001
0000
0000
,  // measure 28
0001
1000
0000
0001
0000
0000
1000
0001
0000
1000
0000
0000
,  // measure 29
0010
0000
0010
0100
0000
0000
0100
0000
0100
0010
0000
0000
,  // measure 30
1000
0100
0110
0011
,  // measure 31
0001
0000
0001
1000
0000
0000
1000
0000
1000
0001
0000
0000
,  // measure 32
1000
0100
1100
0000
,  // measure 33
1000
0000
1000
0001
0000
0000
0100
0000
0100
0010
0000
0000
,  // measure 34
0100
0010
1000
0100
,  // measure 35
0010
0000
0010
0001
0000
0000
1000
0000
1000
0100
0000
0000
,  // measure 36
2002
0000
0000
3003
,  // measure 37
0100
0000
0000
0100
0000
0000
0100
0000
0100
0001
0000
0000
,  // measure 38
1000
0100
1000
1100
,  // measure 39
1000
0000
0000
1000
0000
0000
1000
0000
1000
0001
0000
0000
,  // measure 40
0010
0100
0010
0011
,  // measure 41
0000
0000
0000
0001
0000
0001
1000
0000
1000
0001
0000
0001
,  // measure 42
0200
0310
0020
0130
,  // measure 43
0000
0000
0000
0100
0000
0100
0001
0000
0001
1000
0000
1000
,  // measure 44
0002
0013
2000
3010
,  // measure 45
0000
0000
0000
0001
0000
0001
0010
0000
0010
0100
0000
0100
,  // measure 46
2000
3200
0320
0032
,  // measure 47
1003
0000
1000
0001
0000
0000
0001
0000
0000
1001
0000
0000
,  // measure 48
0010
0000
0010
0100
0000
0000
0010
0000
0000
0110
0000
0000
,  // measure 49
0100
0000
0000
0000
;

//---------------dance-single - Chewi----------------
#NOTES:
     dance-single:
     Chewi:
     Hard:
     12:
     0.454,0.460,0.162,0.020,0.747: // measure 1
0000
0000
0000
0000
,  // measure 2
0000
0000
0000
0000
,  // measure 3
0000
0000
0000
0000
,  // measure 4
0000
0000
0000
0000
,  // measure 5
0001
0000
0000
0100
0000
0000
0001
0000
0001
1000
0000
0000
,  // measure 6
1000
0000
0000
0100
0000
0000
1000
0000
1000
0001
0000
0000
,  // measure 7
0010
0101
0010
1100
,  // measure 8
2002
0000
0000
3003
,  // measure 9
1000
0100
1000
0100
1000
0100
1000
0000
0001
0000
0000
1000
,  // measure 10
0100
0000
0000
0010
0001
0010
0001
0000
0000
0011
0000
0000
,  // measure 11
0001
0010
0001
0010
0001
0010
0001
0000
0010
0000
0000
0100
,  // measure 12
1000
0000
0000
1000
0001
1000
0001
0000
1000
0000
0000
0000
,  // measure 13
0000
0000
0000
0100
0010
0001
0010
0100
1000
0010
0000
1000
,  // measure 14
0010
0000
1010
0000
0000
0001
0100
0000
0101
0000
0000
0000
,  // measure 15
0000
0000
0000
0100
0010
1000
0001
1000
0100
0010
0000
0001
,  // measure 16
1000
0000
1001
0000
0000
1000
0001
0000
1001
0000
0000
0000
,  // measure 17
0000
0000
0000
0001
0010
0100
0010
0001
0100
0010
0000
1000
,  // measure 18
0010
0000
0010
0100
0000
0100
0001
0000
0001
0010
0000
0000
,  // measure 19
0001
0100
0001
0100
0000
0000
1000
0010
1000
0010
0000
0000
,  // measure 20
1000
0001
1000
0001
0000
0000
0001
1000
0001
1000
0000
0000
,  // measure 21
0001
0000
0001
0010
0000
0010
0100
0000
0100
1000
0000
1000
,  // measure 22
0100
0000
0000
0000
0100
0000
0000
0000
0000
0100
0000
0000
0100
0000
0000
0000
0000
0000
0000
0000
0000
0000
0000
0000
,  // measure 23
1000
0000
1000
0010
0000
0010
0100
0000
0100
0001
0000
0001
,  // measure 24
0100
0001
0100
0001
0000
0000
0001
1000
0001
1000
0000
0000
,  // measure 25
0001
0000
0001
0010
0000
0010
0100
0000
0100
1000
0000
0000
,  // measure 26
1000
0000
1000
0100
0000
0100
0010
0000
0010
0001
0000
0000
,  // measure 27
1000
0100
1000
0100
0000
0000
0100
1000
0100
1000
0000
0000
,  // measure 28
0001
0100
0001
0100
0000
0000
0100
0001
0100
0001
0000
0000
,  // measure 29
0100
0000
0100
0010
0000
0010
1000
0000
1000
0001
0000
0001
,  // measure 30
1000
1100
1000
0000
,  // measure 31
1000
0000
1000
0100
0000
0100
0010
0000
0010
0001
0000
0001
,  // measure 32
1000
1001
1000
0000
,  // measure 33
1000
0000
1000
0010
0000
0010
0100
0000
0100
0001
0000
0001
,  // measure 34
0010
0000
0010
0001
0000
0001
0100
0000
0100
0001
0000
0001
,  // measure 35
0010
0000
0010
0001
0000
0000
0001
0000
0001
0010
0000
0100
,  // measure 36
1000
1001
0000
0000
,  // measure 37
0001
0010
0001
0010
0001
0010
0001
0000
1000
0000
0000
0001
,  // measure 38
0010
0000
0000
0100
1000
0100
1000
0000
0000
1100
0000
0000
,  // measure 39
1000
0100
1000
0100
1000
0100
1000
0000
0100
0000
0000
0010
,  // measure 40
0001
0000
0000
0001
1000
0001
1000
0000
0001
0000
0000
0000
,  // measure 41
0000
0000
0000
0010
0100
1000
0100
0010
0001
0100
0000
0001
,  // measure 42
0100
0000
0101
0000
0000
1000
0010
0000
1010
0000
0000
0000
,  // measure 43
0000
0000
0000
0010
0100
0001
1000
0001
0010
0100
0000
1000
,  // measure 44
0001
0000
1001
0000
0000
0001
1000
0000
1001
0000
0000
0000
,  // measure 45
0000
0000
0000
1000
0100
0010
0100
1000
0010
0100
0000
0001
,  // measure 46
0100
0000
0100
0010
0000
0010
1000
0000
1000
0100
0000
0000
,  // measure 47
1000
0010
1000
0010
0000
0000
0001
0100
0001
0100
0000
0000
,  // measure 48
0001
1000
0001
1000
0000
0000
1000
0001
1000
0001
1000
0001
,  // measure 49
1000
0000
0000
0000
;
