#TITLE:奈落の花;
#SUBTITLE:;
#ARTIST:島みやえい子;
#TITLETRANSLIT:NARAKU NO HANA;
#SUBTITLETRANSLIT:;
#ARTISTTRANSLIT:SHIMAMIYA EIKO;
#GENRE:;
#CREDIT:Chewi☆;
#MENUCOLOR:;
#METERTYPE:DDR X;
#BANNER:NARAKU NO HANA.png;
#BACKGROUND:NARAKU NO HANA-bg.png;
#LYRICSPATH:;
#CDTITLE:;
#MUSIC:NARAKU NO HANA.mp3;
#OFFSET:-5.407;
#SAMPLESTART:39.778;
#SAMPLELENGTH:15.000;
#SELECTABLE:YES;
#LISTSORT:;
#DISPLAYBPM:109.000;
#BPMS:0.000=109.000;
#STOPS:;
#BGCHANGES:;
#ATTACKS:;

//---------------dance-single - Chewi----------------
#NOTES:
     dance-single:
     Chewi:
     Beginner:
     1:
     0.061,0.102,0.061,0.000,0.000:
0000
0000
0000
0000
,
0000
0000
0000
0000
,
0000
0000
0000
0000
,
0000
0000
0000
0000
,
0000
1000
0000
0000
,
1000
0000
0000
0000
,
0001
0000
0000
0000
,
0001
0000
0000
0000
,
0100
0000
0000
0000
,
0100
0000
0000
0000
,
0010
0000
0000
0000
,
0010
0000
0000
0000
,
1000
0000
0000
0000
,
0001
0000
0000
0000
,
1001
0000
0000
0000
,
0000
0000
0000
0000
,
1000
0000
0000
0000
,
0010
0000
0000
0000
,
0001
0000
0000
0000
,
0100
0000
0000
0000
,
1000
0000
0000
0000
,
0010
0000
0000
0000
,
0001
0000
0000
0000
,
0100
0000
0000
0000
,
0100
0000
0000
0000
,
0010
0000
0000
0000
,
1000
0000
0000
0000
,
0001
0000
0000
0000
,
1000
0000
0000
0000
,
0100
0000
0000
0000
,
0010
0000
0000
0000
,
0001
0000
0000
0000
,
1001
0000
0000
0000
,
0000
0000
0100
0000
,
0110
0000
0000
0000
,
0000
0000
0010
0000
,
0110
0000
0000
0000
,
0000
0000
0100
0000
,
1001
0000
0000
0000
,
0000
0000
1000
0000
,
1001
0000
0000
0000
;

//---------------dance-single - Chewi----------------
#NOTES:
     dance-single:
     Chewi:
     Easy:
     3:
     0.129,0.147,0.092,0.061,0.000: // measure 1
0000
0000
0000
0000
,  // measure 2
0000
0000
0000
0000
,  // measure 3
0000
0000
0000
0000
,  // measure 4
0000
0000
0000
0000
,  // measure 5
0000
1000
0000
0000
,  // measure 6
0001
1000
0001
0000
,  // measure 7
0001
0000
0001
0001
,  // measure 8
0000
0000
0000
1001
,  // measure 9
0000
0100
0000
0000
,  // measure 10
0100
0010
0100
0000
,  // measure 11
0010
0000
0010
0000
,  // measure 12
0010
0010
0010
0000
,  // measure 13
0110
0000
0000
0000
,  // measure 14
0000
0000
1000
1000
,  // measure 15
1000
0000
0001
0001
,  // measure 16
0001
0000
0000
0000
,  // measure 17
1000
0000
0100
0000
,  // measure 18
0010
0000
0001
0000
,  // measure 19
1000
0000
0100
0000
,  // measure 20
0010
0001
0010
0000
,  // measure 21
0001
0000
0100
0000
,  // measure 22
0010
0000
1000
0000
,  // measure 23
0001
0000
0100
0000
,  // measure 24
0010
1000
0010
0000
,  // measure 25
1000
0000
1000
0000
,  // measure 26
0001
1000
0001
0000
,  // measure 27
0001
0000
0001
0000
,  // measure 28
1000
0001
1000
0000
,  // measure 29
0010
0000
0010
0000
,  // measure 30
0010
0100
0010
0000
,  // measure 31
0100
0000
0100
0000
,  // measure 32
0010
0100
0010
0000
,  // measure 33
2000
0000
0000
0000
,  // measure 34
3000
0000
1001
1001
,  // measure 35
0002
0000
0000
0000
,  // measure 36
0003
0000
1001
0000
,  // measure 37
0020
0000
0000
0000
,  // measure 38
0030
0000
0110
0110
,  // measure 39
0200
0000
0000
0000
,  // measure 40
0300
0000
0110
0000
,  // measure 41
2002
0000
0000
0000
,  // measure 42
3003
0000
0000
0000
;

//---------------dance-single - Chewi----------------
#NOTES:
     dance-single:
     Chewi:
     Medium:
     6:
     0.187,0.271,0.143,0.000,0.000: // measure 1
0000
0000
0000
0000
,  // measure 2
0000
0000
0000
0000
,  // measure 3
0000
0000
0000
0000
,  // measure 4
0000
0000
0000
0000
,  // measure 5
0000
0000
1000
0001
0000
0000
0000
0000
,  // measure 6
1000
0100
1100
0000
,  // measure 7
0001
0010
0011
0000
,  // measure 8
0000
0000
0000
0110
,  // measure 9
0000
0000
0010
0100
0010
0000
0000
0000
,  // measure 10
0100
0010
0011
0000
,  // measure 11
0001
1000
1100
0000
,  // measure 12
0000
0000
0000
1001
,  // measure 13
0000
0000
0000
0100
0010
0100
0010
0100
,  // measure 14
0000
0000
0000
0000
0000
0010
0000
0010
,  // measure 15
0000
0100
0000
0100
1000
0000
1000
0000
,  // measure 16
0000
0000
0000
0000
,  // measure 17
1000
0000
0100
0000
1000
0001
0100
0000
,  // measure 18
0010
0010
0010
0000
,  // measure 19
0001
0000
1000
0000
0001
0010
0100
0000
,  // measure 20
1000
1000
1000
0000
,  // measure 21
1000
0000
0001
1000
0001
0000
0000
0000
,  // measure 22
0001
0000
1000
0001
1000
0000
0000
0000
,  // measure 23
0010
0100
0001
1000
,  // measure 24
1100
0101
1100
0101
,  // measure 25
1000
0000
0001
1000
0010
0000
0000
0000
,  // measure 26
0001
0000
1000
0001
0010
0000
0000
0000
,  // measure 27
0100
0000
0010
0100
1000
0000
0000
0000
,  // measure 28
0010
0000
0100
0001
0100
0000
0000
0000
,  // measure 29
0000
0000
1000
0100
,  // measure 30
0010
0000
0001
0010
0000
0010
0001
0000
,  // measure 31
1000
0000
0100
1000
0000
1000
0100
0000
,  // measure 32
0000
0000
0000
0000
,  // measure 33
1000
0000
0001
1000
0001
0000
0000
0000
,  // measure 34
0000
0000
1001
0000
,  // measure 35
0001
0000
1000
0001
1000
0000
0000
0000
,  // measure 36
0000
0000
0110
0000
,  // measure 37
0100
0000
0010
0100
0010
0000
0000
0000
,  // measure 38
0000
0000
0110
0000
,  // measure 39
0010
0000
1000
0010
1000
0000
0000
0000
,  // measure 40
0000
0000
1001
0000
,  // measure 41
1000
0100
0001
0010
;

//---------------dance-single - Chewi----------------
#NOTES:
     dance-single:
     Chewi:
     Hard:
     9:
     0.285,0.459,0.246,0.174,0.041: // measure 1
0000
0000
0000
0000
,  // measure 2
0000
0000
0000
0000
,  // measure 3
0000
0000
0000
0000
,  // measure 4
0000
0000
0000
0000
,  // measure 5
0000
0000
1000
1000
0000
0000
0000
1000
,  // measure 6
0100
0010
0001
0010
0010
0000
0000
0000
,  // measure 7
0001
0000
0001
1000
0000
1000
0001
0000
,  // measure 8
0000
0000
0000
0110
,  // measure 9
1001
0000
1000
1000
0000
0000
0000
0001
,  // measure 10
0010
0100
1000
0100
0100
0000
0000
0010
,  // measure 11
0001
0000
0000
1000
0000
0000
1000
0000
,  // measure 12
0010
0000
0000
0010
0000
0000
0010
0000
0000
0000
0000
0000
1001
0000
0000
0000
,  // measure 13
0101
0000
0000
1000
0010
0001
0100
1000
,  // measure 14
0000
0000
0000
0000
0000
0100
0100
0100
,  // measure 15
0000
0010
0010
0010
0001
0001
0001
0000
,  // measure 16
0000
0000
0000
0000
0000
1000
0010
1000
,  // measure 17
0000
2200
3300
0202
0303
0001
0100
0001
,  // measure 18
0000
0202
0303
0022
0033
0001
0010
0200
,  // measure 19
0000
1300
0010
0200
0000
0310
0000
0101
,  // measure 20
0000
1100
0000
0101
0000
0000
0000
1001
,  // measure 21
0000
0000
1000
0000
0100
0000
0010
0000
0000
0000
0000
0000
0000
0000
0001
0010
,  // measure 22
0100
1000
0100
1000
0000
1000
0100
0001
,  // measure 23
0010
1000
0000
0100
0000
1000
0100
0010
,  // measure 24
0011
0000
0011
0000
1010
0000
1000
0100
,  // measure 25
1000
0020
0000
2030
0000
3100
0010
0100
,  // measure 26
1000
0002
0000
2003
0000
3010
0100
0002
,  // measure 27
0000
0013
0100
2000
0000
3100
0010
0001
,  // measure 28
0010
0011
0000
0101
0000
1010
0000
0000
,  // measure 29
0000
0000
0000
1000
0010
0100
0001
0010
,  // measure 30
0100
0000
1000
0010
0000
0100
0000
0010
,  // measure 31
1000
0000
0001
0010
0000
0100
1000
0000
,  // measure 32
0000
0000
0000
0000
,  // measure 33
1000
0000
0000
1000
0000
0000
1000
0000
1000
0000
0000
0000
0000
0000
0000
0000
,  // measure 34
0000
0000
1001
1001
,  // measure 35
0001
0000
0000
0001
0000
0000
0001
0000
0001
0000
0000
0000
0000
0000
0000
0000
,  // measure 36
0000
0000
0110
0000
,  // measure 37
0100
0000
0000
0100
0000
0000
0100
0000
0100
0000
0000
0000
0000
0000
0000
0000
,  // measure 38
0000
0000
0110
0110
,  // measure 39
0010
0000
0000
0010
0000
0000
0010
0000
0010
0000
0000
0000
0000
0000
0000
0000
,  // measure 40
0000
0000
1001
0000
,  // measure 41
1000
0000
0000
0100
0000
0000
0010
0000
0002
0000
0000
0000
0000
1003
0000
0000
;
