#TITLE:NAMIDA~ココロアバイテ~;
#SUBTITLE:;
#ARTIST:ゼブラクイーン;
#TITLETRANSLIT:NAMIDA ~KOKORO ABAITE~;
#SUBTITLETRANSLIT:;
#ARTISTTRANSLIT:ZEBRA QUEEN;
#GENRE:;
#CREDIT:Chewi☆;
#MENUCOLOR:#FFFFFF;
#METERTYPE:DDR X;
#BANNER:NAMIDA ~KOKORO ABAITE~.png;
#BACKGROUND:NAMIDA ~KOKORO ABAITE~-bg.png;
#LYRICSPATH:;
#CDTITLE:./CDTITLES/DanceDanceRevolution skyMIX3 -breeze-.png;
#MUSIC:NAMIDA ~KOKORO ABAITE~.mp3;
#OFFSET:-1.361;
#SAMPLESTART:47.255;
#SAMPLELENGTH:15.000;
#SELECTABLE:YES;
#LISTSORT:;
#DISPLAYBPM:128.000;
#BPMS:0.000=128.000;
#STOPS:;
#BGCHANGES:;
#ATTACKS:;

//---------------dance-single - Chewi----------------
#NOTES:
     dance-single:
     Chewi:
     Beginner:
     1:
     0.073,0.093,0.054,0.022,0.000:
0000
0000
0000
0000
,
0000
0000
0000
0000
,
0000
0000
0000
0000
,
0000
0000
0000
0000
,
2000
0000
0000
3000
,
1000
0000
0000
0000
,
0002
0000
0000
0003
,
0001
0000
0000
0000
,
0010
0000
0000
0000
,
0010
0000
0000
0000
,
0100
0000
0000
0000
,
0100
0000
0000
0000
,
0001
0000
0000
0000
,
0010
0000
0000
0000
,
1000
0000
0000
0000
,
0010
0000
0000
0000
,
1001
0000
0000
0000
,
0100
0000
0000
0000
,
0010
0000
0000
0000
,
0010
0000
0000
0000
,
0110
0000
0000
0000
,
0100
0000
0000
0000
,
0010
0000
0000
0000
,
0010
0000
0000
0000
,
1001
0000
0000
0000
,
1000
0000
0000
0000
,
0001
0000
0000
0000
,
1000
0000
0000
0000
,
1001
0000
0000
0000
,
0001
0000
0000
0000
,
1000
0000
0000
0000
,
0001
0000
0000
0000
,
1001
0000
0000
0000
,
1000
0000
0000
0000
,
0010
0000
0000
0000
,
0001
0000
0000
0000
,
0100
0000
0000
0000
,
0001
0000
0000
0000
,
0010
0000
0000
0000
,
0100
0000
0000
0000
,
0100
0000
0000
0000
,
1000
0000
0000
0000
,
0001
0000
0000
0000
,
1000
0000
0000
0000
;

//---------------dance-single - Chewi----------------
#NOTES:
     dance-single:
     Chewi:
     Easy:
     3:
     0.142,0.163,0.065,0.087,0.000: // measure 1
0000
0000
0000
0000
,  // measure 2
0000
0000
0000
0000
,  // measure 3
0000
0000
0000
0000
,  // measure 4
0000
0000
0000
0000
,  // measure 5
2000
0000
0000
3000
,  // measure 6
0002
0000
0000
0003
,  // measure 7
0200
0000
0000
0300
,  // measure 8
0020
0000
0000
0030
,  // measure 9
0010
1000
0010
0000
,  // measure 10
0010
0000
0100
0000
,  // measure 11
0010
0001
0010
0000
,  // measure 12
0100
0000
0010
0000
,  // measure 13
0001
1000
0100
0000
,  // measure 14
0010
0000
0100
0000
,  // measure 15
1000
0001
0100
0000
,  // measure 16
0010
0000
0100
0000
,  // measure 17
1001
0000
0000
1000
,  // measure 18
0100
0000
0000
0001
,  // measure 19
0010
0000
0100
0000
,  // measure 20
0010
0000
0100
0000
,  // measure 21
0110
0000
0000
0001
,  // measure 22
0100
0000
0000
1000
,  // measure 23
0010
0000
0100
0000
,  // measure 24
0010
0000
0100
0000
,  // measure 25
1001
1001
0000
0000
,  // measure 26
1000
0000
0100
0000
,  // measure 27
0001
0000
0010
0000
,  // measure 28
1000
0000
0001
0000
,  // measure 29
1001
0000
0000
0000
,  // measure 30
0001
0000
0100
0000
,  // measure 31
1000
0000
0010
0000
,  // measure 32
0001
0000
1000
0000
,  // measure 33
1001
0000
0000
0000
,  // measure 34
1000
0100
1000
0000
,  // measure 35
0010
0000
0010
0000
,  // measure 36
0002
0000
0000
0003
,  // measure 37
0200
0000
0000
0300
,  // measure 38
0002
0000
0000
0003
,  // measure 39
0020
0000
0000
0030
,  // measure 40
0100
0000
0100
0100
,  // measure 41
0100
0000
1000
1000
,  // measure 42
1000
0000
0001
0001
,  // measure 43
0001
0000
1000
0001
,  // measure 44
1000
0000
0000
0000
;

//---------------dance-single - Chewi----------------
#NOTES:
     dance-single:
     Chewi:
     Medium:
     7:
     0.266,0.303,0.087,0.000,0.000: // measure 1
0000
0000
0000
0000
,  // measure 2
0000
0000
0000
0000
,  // measure 3
0000
0000
0000
0000
,  // measure 4
0000
0000
0000
0000
,  // measure 5
1000
0100
0010
0001
,  // measure 6
1000
0100
0010
0001
,  // measure 7
0001
0100
0010
1000
,  // measure 8
0001
0100
0010
1000
,  // measure 9
0010
0000
0100
0000
0010
0100
0010
0000
,  // measure 10
0100
0000
0010
0000
0100
0010
0100
0000
,  // measure 11
1000
0000
0100
0000
0010
0001
0010
0000
,  // measure 12
0001
0000
0010
0000
0100
1000
0100
0000
,  // measure 13
1000
0001
0100
0010
,  // measure 14
1000
0001
0010
0100
,  // measure 15
1000
0010
0100
1000
,  // measure 16
0001
0010
0100
0001
,  // measure 17
0110
0000
0100
0010
,  // measure 18
0011
0000
0001
0100
,  // measure 19
0010
0000
0010
0000
0100
0010
0100
0000
,  // measure 20
0100
0000
0100
0000
0010
0100
0010
0000
,  // measure 21
1010
0000
1000
0001
,  // measure 22
0011
0000
0100
0010
,  // measure 23
0001
0000
1000
0000
0010
0100
0010
0000
,  // measure 24
0100
0000
0001
0000
1000
0001
1000
0000
,  // measure 25
1001
0110
0000
0000
,  // measure 26
1000
0100
0001
0010
,  // measure 27
1000
0100
0001
0010
,  // measure 28
0100
0000
0010
0001
,  // measure 29
0100
1000
0000
0000
,  // measure 30
0010
0100
0001
1000
,  // measure 31
0100
0010
0001
0100
,  // measure 32
1000
0010
0100
0000
,  // measure 33
0010
0110
1000
1001
,  // measure 34
0001
0010
0100
1000
,  // measure 35
0001
0100
1000
0000
,  // measure 36
1000
0000
0100
0000
0010
0001
0010
0001
,  // measure 37
0010
0000
0100
0000
1000
0100
1000
0100
,  // measure 38
1000
0000
0001
0000
1000
0001
1000
0001
,  // measure 39
1000
0010
0100
0001
,  // measure 40
0100
0000
0001
0000
0010
0001
0100
0000
,  // measure 41
1000
0000
0010
0000
0010
1000
0100
0000
,  // measure 42
0010
0000
0100
0000
1000
0001
1000
0000
,  // measure 43
0010
0000
0100
0000
0001
1000
0001
0000
,  // measure 44
1000
0000
0000
0000
;

//---------------dance-single - Chewi----------------
#NOTES:
     dance-single:
     Chewi:
     Hard:
     9:
     0.430,0.419,0.119,0.260,0.022: // measure 1
0000
0000
0000
0000
,  // measure 2
0000
0000
0000
0000
,  // measure 3
0000
0000
0000
0000
,  // measure 4
0000
0000
0000
0000
,  // measure 5
2000
3100
0002
0103
,  // measure 6
0100
0010
0100
0000
0010
0100
0010
0000
,  // measure 7
0020
1030
0020
0031
,  // measure 8
0100
0010
0100
0000
0010
0100
0010
0000
,  // measure 9
0000
0001
0010
0100
1000
0010
0000
0100
,  // measure 10
0000
0010
0000
0100
0010
1000
0001
0010
,  // measure 11
0000
0001
0010
0100
1000
0010
0100
0001
,  // measure 12
0000
0100
0010
1000
0001
0010
0000
0011
,  // measure 13
0000
0001
0010
0100
1000
0010
0100
0001
,  // measure 14
0100
0010
1000
0001
0010
0100
0010
0001
,  // measure 15
0000
0100
0010
0100
0001
0010
0100
1000
,  // measure 16
0010
0100
0001
0100
0010
1000
0001
0010
,  // measure 17
0100
0000
0000
0000
0000
0000
0010
0000
0001
0000
0000
0010
0000
0000
0001
0000
,  // measure 18
0000
0000
0001
0000
0100
0000
0010
0000
1000
0000
0000
0010
0000
0000
0001
0000
,  // measure 19
0000
0010
1000
0100
0001
0010
0100
0010
,  // measure 20
0000
0100
1000
0010
1000
0100
0010
0001
,  // measure 21
0100
0000
0000
0000
0001
0000
0010
0000
0100
0000
0000
0100
0000
0000
1000
0000
,  // measure 22
0000
0000
1000
0000
0010
0000
0100
0000
0001
0000
0000
0100
0000
0000
0001
0000
,  // measure 23
0000
0001
0010
0100
1000
0001
0010
0000
,  // measure 24
0100
0010
0100
0001
0100
0010
1000
0001
,  // measure 25
0012
0000
2003
0000
3001
1000
0001
0001
,  // measure 26
1000
0010
0200
0000
0301
0100
0010
1000
,  // measure 27
0001
0010
0200
0000
0310
0010
0001
1000
,  // measure 28
0002
0000
0000
0103
0200
0000
0310
0200
,  // measure 29
0000
2300
0000
3000
1000
0100
0010
0100
,  // measure 30
1000
0001
2000
0000
3001
0100
0010
0100
,  // measure 31
0001
1000
0002
0000
1003
0010
0100
0001
,  // measure 32
0020
0000
0000
2030
0200
0000
3300
0100
,  // measure 33
0011
0101
1100
1010
,  // measure 34
0010
1000
0200
0000
1300
0001
0100
0010
,  // measure 35
0100
0001
0010
0100
0220
0000
0330
0000
,  // measure 36
0010
0001
0100
0000
0010
0010
0100
0100
,  // measure 37
0010
1000
0100
0000
0100
0100
0010
0010
,  // measure 38
0001
0010
0100
0000
1000
1000
0100
0100
,  // measure 39
1000
0001
0100
0000
0010
0010
0100
0100
,  // measure 40
0210
0000
0310
0000
0001
0010
0100
1000
,  // measure 41
2010
0000
3010
0000
0100
0010
0001
0100
,  // measure 42
2001
0000
3001
0000
0100
0010
1000
0001
,  // measure 43
0012
0000
0013
0000
0010
0001
0100
1000
,  // measure 44
0010
0000
0000
0000
;
