#TITLE:Myself;
#SUBTITLE:;
#ARTIST:バルシェ;
#TITLETRANSLIT:;
#SUBTITLETRANSLIT:;
#ARTISTTRANSLIT:valshe;
#GENRE:;
#CREDIT:yamamoto_;
#MENUCOLOR:;
#METERTYPE:DDR X;
#BANNER:Myself.png;
#BACKGROUND:Myself-bg.png;
#LYRICSPATH:;
#CDTITLE:;
#MUSIC:Myself.mp3;
#OFFSET:-0.525;
#SAMPLESTART:35.118;
#SAMPLELENGTH:15.000;
#SELECTABLE:YES;
#LISTSORT:;
#DISPLAYBPM:111.000;
#BPMS:0.000=111.000;
#STOPS:;
#BGCHANGES:;
#ATTACKS:;

//---------------dance-single - yamamoto_----------------
#NOTES:
     dance-single:
     yamamoto_:
     Hard:
     12:
     0.436,0.449,0.045,0.079,0.372: // measure 1
0000
0000
0000
0000
,  // measure 2
0000
0000
0000
0000
,  // measure 3
0000
0000
0000
0000
,  // measure 4
0000
0000
0000
0000
,  // measure 5
1000
0010
0001
0010
1000
0010
1000
0000
,  // measure 6
1000
0100
0010
0001
0100
0000
0101
0000
,  // measure 7
0001
0100
1000
0100
0001
0100
0001
0000
,  // measure 8
0100
0010
1000
0001
0010
0000
0011
0000
,  // measure 9
0001
0010
0100
1000
0010
1000
0100
0000
,  // measure 10
1000
0001
0100
0010
1000
0010
1000
0000
,  // measure 11
0100
0010
0001
0010
0100
1000
0001
0000
,  // measure 12
0001
1000
0100
1000
0001
0100
0010
1000
,  // measure 13
0001
0000
0000
0001
0100
0000
0000
0000
1000
0000
0000
1000
0100
0000
0000
0000
,  // measure 14
0010
0000
0000
0100
1000
0000
0000
0000
0010
0000
0000
0100
0001
0000
0000
0000
,  // measure 15
1000
0000
0000
1000
0010
0000
0000
0000
0001
0000
0000
0001
0010
0000
0000
0000
,  // measure 16
0010
0000
0100
1000
0000
0010
0000
2000
0000
0000
0000
0000
3000
0000
0000
0000
,  // measure 17
0001
0000
0001
0000
0100
0000
0010
0000
2000
0000
0000
0000
3001
0000
0000
1000
,  // measure 18
0010
1000
0100
0000
0010
0000
0001
0000
0010
0000
0100
1000
0001
0000
0000
0000
,  // measure 19
0001
1000
0001
1000
0001
0000
0010
0000
0002
0000
0000
0000
0013
0000
0000
0000
,  // measure 20
1000
0100
1000
0000
0010
0000
0001
0000
0100
0000
0001
0000
1001
0000
0000
0000
,  // measure 21
0100
0001
0100
0001
0100
0000
0010
0000
2000
0000
0000
0000
3001
0000
0000
0000
,  // measure 22
1000
0001
1000
0001
1000
0000
0010
0000
0100
0000
0001
0100
0001
0000
0000
0000
,  // measure 23
0100
0000
0000
0100
0010
0000
0000
0010
1000
0000
0000
1000
0001
0000
0000
0001
,  // measure 24
1000
0000
0000
0001
0000
1000
0000
0010
0000
0000
0100
0000
0100
0000
0100
0000
,  // measure 25
0010
1000
0010
0000
0001
0000
0010
0000
0200
0000
0000
0000
1300
0000
0000
0000
,  // measure 26
0010
1000
0100
0000
1000
0000
0010
0000
0100
0000
0001
0010
0001
0000
0000
0000
,  // measure 27
0001
0010
0000
0010
0001
0000
0100
0000
0200
0000
0000
0000
0310
0000
0100
0000
,  // measure 28
0001
0000
0010
0000
0100
0000
1000
0000
0100
0010
0100
0000
0010
0000
0000
0000
,  // measure 29
0001
1000
0001
1000
0001
0000
0010
0000
0200
0000
0000
0000
1300
0000
0000
0000
,  // measure 30
1000
0100
0010
0100
1000
0000
0010
0000
0100
0000
0001
0100
0001
0000
0000
0000
,  // measure 31
0010
0000
0000
0010
1000
0000
0000
1000
0100
0000
0000
0100
0010
0000
0000
0010
,  // measure 32
0001
0100
0001
0010
1000
0100
0010
0000
,  // measure 33
0011
0000
0000
1000
0000
0001
0000
0000
0010
0000
0000
1000
0000
0001
0000
0000
,  // measure 34
0010
0000
0000
0100
0000
0010
0000
0000
0001
0000
0010
0000
0100
0000
1000
0000
,  // measure 35
0010
0000
0000
1000
0000
0100
0000
0000
0010
0000
0000
0001
0000
0100
0000
0000
,  // measure 36
0010
0000
0000
0100
0000
0010
0000
0000
1000
0000
0010
0000
0100
0000
0001
0000
,  // measure 37
1000
0000
0000
0001
0000
1000
0000
0000
0100
0000
0000
0010
0000
0100
0000
0000
,  // measure 38
1000
0000
0000
0010
0000
0100
0000
0000
0001
0000
0100
0000
0010
0000
1000
0000
,  // measure 39
0001
0000
0000
0010
0000
0001
0000
0000
0100
0000
0000
0010
0000
1000
0000
0000
,  // measure 40
0100
0000
0000
0010
0000
0100
0000
0000
1000
0000
0100
0000
0001
0000
0010
0000
;

//---------------dance-single - yamamoto_----------------
#NOTES:
     dance-single:
     yamamoto_:
     Medium:
     7:
     0.270,0.269,0.191,0.090,0.000: // measure 1
0000
0000
0000
0000
,  // measure 2
0000
0000
0000
0000
,  // measure 3
0000
0000
0000
0000
,  // measure 4
0000
0000
0000
0000
,  // measure 5
1000
0100
0001
0010
,  // measure 6
1000
0100
1100
0000
,  // measure 7
1000
0010
0001
0100
,  // measure 8
1000
0010
1010
0000
,  // measure 9
1000
1000
1000
1000
,  // measure 10
0001
0010
0011
0000
,  // measure 11
0001
0001
0001
0001
,  // measure 12
1000
0010
1010
0000
,  // measure 13
0100
0000
0100
0000
0100
0010
0100
0000
,  // measure 14
0010
1000
0100
0000
1100
0000
0000
0000
,  // measure 15
0100
0000
0100
0000
0100
0010
0100
0000
,  // measure 16
0010
0001
0100
0000
0101
0000
0000
0000
,  // measure 17
2000
0001
0200
3300
,  // measure 18
1000
0100
1000
0000
0001
0100
0001
0000
,  // measure 19
0100
0010
1000
0001
,  // measure 20
1000
1100
0001
0011
,  // measure 21
0002
0010
2000
3003
,  // measure 22
1000
0001
1000
0000
0001
0100
0010
0000
,  // measure 23
1000
0100
0010
0100
,  // measure 24
1000
1100
0001
0101
,  // measure 25
0002
1000
0020
0033
,  // measure 26
0001
0010
0001
0000
1000
0010
1000
0000
,  // measure 27
0010
0100
0001
1000
,  // measure 28
0001
0011
1000
1100
,  // measure 29
2000
0100
0002
3003
,  // measure 30
0001
1000
0001
0000
1000
0010
0100
0000
,  // measure 31
0001
0010
0100
0010
,  // measure 32
0001
0011
1000
1010
,  // measure 33
0001
0010
1000
0100
,  // measure 34
0001
0010
0011
0000
,  // measure 35
0001
0100
1000
0010
,  // measure 36
0001
0100
0101
0000
,  // measure 37
0001
0001
0001
0001
,  // measure 38
1000
0100
1100
0000
,  // measure 39
1000
1000
1000
1000
,  // measure 40
0001
0100
0100
0001
;

//---------------dance-single - yamamoto_----------------
#NOTES:
     dance-single:
     yamamoto_:
     Beginner:
     1:
     0.077,0.088,0.045,0.090,0.000: // measure 1
0000
0000
0000
0000
,  // measure 2
0000
0000
0000
0000
,  // measure 3
0000
0000
0000
0000
,  // measure 4
0000
0000
0000
0000
,  // measure 5
2000
0000
0000
3000
,  // measure 6
1000
0000
0000
0000
,  // measure 7
0002
0000
0000
0003
,  // measure 8
0001
0000
0000
0000
,  // measure 9
0200
0000
0000
0300
,  // measure 10
0100
0000
0000
0000
,  // measure 11
0020
0000
0000
0030
,  // measure 12
0010
0000
0000
0000
,  // measure 13
1000
0000
0000
0000
,  // measure 14
0010
0000
0000
0000
,  // measure 15
0001
0000
0000
0000
,  // measure 16
0010
0000
0000
0000
,  // measure 17
1001
0000
0000
0000
,  // measure 18
0100
0000
0000
0000
,  // measure 19
1000
0000
0000
0000
,  // measure 20
1000
0000
0000
0000
,  // measure 21
1001
0000
0000
0000
,  // measure 22
1000
0000
0000
0000
,  // measure 23
0100
0000
0000
0000
,  // measure 24
0001
0000
0000
0000
,  // measure 25
1001
0000
0000
0000
,  // measure 26
0100
0000
0000
0000
,  // measure 27
1000
0000
0000
0000
,  // measure 28
1000
0000
0000
0000
,  // measure 29
1001
0000
0000
0000
,  // measure 30
1000
0000
0000
0000
,  // measure 31
0100
0000
0000
0000
,  // measure 32
0001
0000
0000
0000
,  // measure 33
2000
0000
0000
3000
,  // measure 34
1000
0000
0000
0000
,  // measure 35
0002
0000
0000
0003
,  // measure 36
0001
0000
0000
0000
,  // measure 37
0200
0000
0000
0300
,  // measure 38
0100
0000
0000
0000
,  // measure 39
0020
0000
0000
0030
,  // measure 40
0010
0000
0000
0000
;

//---------------dance-single - yamamoto_----------------
#NOTES:
     dance-single:
     yamamoto_:
     Easy:
     3:
     0.167,0.179,0.090,0.045,0.000: // measure 1
0000
0000
0000
0000
,  // measure 2
0000
0000
0000
0000
,  // measure 3
0000
0000
0000
0000
,  // measure 4
0000
0000
0000
0000
,  // measure 5
2000
0000
0000
3000
,  // measure 6
1000
0100
1000
0000
,  // measure 7
0002
0000
0000
0003
,  // measure 8
0001
0100
0001
0000
,  // measure 9
0100
0000
0110
0000
,  // measure 10
0010
0100
0010
0000
,  // measure 11
0010
0000
0110
0000
,  // measure 12
0100
0010
0100
0010
,  // measure 13
1000
0000
0100
0000
,  // measure 14
0010
0001
0010
0000
,  // measure 15
0001
0000
0100
0000
,  // measure 16
0010
1000
0010
0000
,  // measure 17
1001
1000
0001
0000
,  // measure 18
0100
0000
0010
0000
,  // measure 19
1000
0000
0001
0000
,  // measure 20
1000
0100
0010
0001
,  // measure 21
1001
0001
1000
0000
,  // measure 22
1000
0000
0010
0000
,  // measure 23
0100
0000
0001
0000
,  // measure 24
0001
1000
0100
0010
,  // measure 25
1001
1000
0001
0000
,  // measure 26
0100
0000
0010
0000
,  // measure 27
1000
0000
0001
0000
,  // measure 28
1000
0100
0010
0001
,  // measure 29
1001
0001
1000
0000
,  // measure 30
1000
0000
0010
0000
,  // measure 31
0100
0000
0001
0000
,  // measure 32
0001
1000
0100
0010
,  // measure 33
2000
0000
0000
3000
,  // measure 34
1000
0100
1000
0000
,  // measure 35
0002
0000
0000
0003
,  // measure 36
0001
0100
0001
0000
,  // measure 37
0100
0000
0110
0000
,  // measure 38
0010
0100
0010
0000
,  // measure 39
0010
0000
0110
0000
,  // measure 40
0100
0010
0100
0010
;
