#TITLE:My Neck, My Back (Lick It);
#SUBTITLE:;
#ARTIST:Khia;
#TITLETRANSLIT:;
#SUBTITLETRANSLIT:;
#ARTISTTRANSLIT:;
#GENRE:Hip-Hop/Rap;
#CREDIT:chewi;
#BANNER:My Neck, My Back (Lick It).png;
#BACKGROUND:My Neck, My Back (Lick It)-bg.png;
#LYRICSPATH:;
#CDTITLE:cdtitle.png;
#MUSIC:My Neck, My Back (Lick It).ogg;
#OFFSET:-0.398435;
#SAMPLESTART:14.208000;
#SAMPLELENGTH:15.000000;
#SELECTABLE:YES;
#DISPLAYBPM:102;
#BPMS:0.000000=102.060000
;
#STOPS:
;
#BGCHANGES:;
#KEYSOUNDS:;
#ATTACKS:;

//---------------dance-single - ----------------
#NOTES:
     dance-single:
     :
     Beginner:
     1:
     0.059136,0.082791,0.009627,0.000000,0.000000,43.000000,42.000000,1.000000,0.000000,0.000000,0.000000,0.059136,0.082791,0.009627,0.000000,0.000000,43.000000,42.000000,1.000000,0.000000,0.000000,0.000000:
0000
0000
0000
0000
,
0000
0000
0000
0000
,
0000
0000
0000
0000
,
0000
0000
0000
0000
,
1000
0000
0000
0000
,
0100
0000
0000
0000
,
0001
0000
0000
0000
,
0100
0000
0000
0000
,
1000
0000
0000
0000
,
0010
0000
0000
0000
,
0001
0000
0000
0000
,
0010
0000
0000
0000
,
0100
0000
0000
0000
,
0010
0000
0000
0000
,
0110
0000
0000
0000
,
0010
0000
0000
0000
,
1000
0000
0000
0000
,
0001
0000
0000
0000
,
1000
0000
0000
0000
,
0100
0000
0000
0000
,
0010
0000
0000
0000
,
0001
0000
0000
0000
,
0001
0000
0000
0000
,
1000
0000
0000
0000
,
0001
0000
0000
0000
,
0010
0000
0000
0000
,
0100
0000
0000
0000
,
1000
0000
0000
0000
,
0001
0000
0001
0000
,
0001
0000
0000
0000
,
1000
0000
1000
0000
,
1000
0000
0000
0000
,
0010
0000
0000
0000
,
0001
0000
0000
0000
,
0100
0000
0000
0000
,
1000
0000
0000
0000
,
0010
0000
0000
0000
,
1000
0000
0000
0000
,
0100
0000
0000
0000
,
0001
0000
0000
0000
,
0010
0000
0000
0000
,
0010
0000
0000
0000
,
0100
0000
0000
0000
,
0100
0000
0000
0000
;

//---------------dance-single - ----------------
#NOTES:
     dance-single:
     :
     Hard:
     11:
     0.401578,0.434653,0.259925,0.000000,0.154030,292.000000,265.000000,27.000000,0.000000,0.000000,0.000000,0.401578,0.434653,0.259925,0.000000,0.154030,292.000000,265.000000,27.000000,0.000000,0.000000,0.000000:
0000
0000
0000
0000
,
0000
0000
0000
0000
,
0000
0000
0000
0000
,
0000
0000
0000
0000
0000
0000
0000
1000
,
1100
0000
0000
0001
0101
0000
0100
0010
,
1000
0000
0000
1000
0000
0000
0001
0000
0100
0000
0000
0000
0000
0000
0001
0000
,
1001
0000
0000
1000
1001
0000
1000
0010
,
0100
0000
0000
0100
0000
0000
0010
0000
1000
0000
0000
0000
0000
0000
0001
0000
,
0101
0000
0000
1000
1100
0000
1000
0001
,
1000
0000
0000
1000
0000
0000
0001
0000
0010
0000
0100
0000
0010
0000
0100
0000
,
0110
0000
0000
0010
0110
0000
0010
0001
,
1000
0000
0000
1000
0000
0000
1000
0000
0100
0000
0010
0000
0100
0000
1000
0000
,
1100
0000
0000
1000
1010
0000
1000
0010
,
0100
0000
0000
0100
0000
0000
0010
0000
1000
0000
0001
0000
1000
0000
0001
0000
,
1001
0001
1000
1000
0100
0010
0100
1000
,
0000
0001
0100
0001
0100
0100
0010
0010
,
0000
0000
0000
0000
0000
0000
0010
0000
0000
0000
0000
0000
0000
0000
0000
0000
0000
0000
0100
0000
0000
0000
0000
0000
0001
0000
0000
0000
0000
0000
0000
0000
0000
0000
0000
0100
0000
0000
0000
0000
0000
0000
0001
0000
0000
0000
0000
0000
,
0000
0000
0000
0000
0000
1000
0000
0000
0000
0000
0000
0000
0000
0000
0000
0000
0000
0000
0100
0000
0000
0000
0000
0000
1000
0000
0000
0000
0000
0000
0000
0000
0000
0001
0000
0000
0010
0000
0000
0000
0000
0000
0100
0000
0000
1000
0000
0000
,
0000
0000
0001
1000
0001
0000
1000
0001
1000
0000
0100
0000
1000
0000
0001
1000
,
0000
0000
0001
0000
0100
0000
0010
0000
0100
0000
0001
0000
1000
0000
0001
1000
,
0000
0000
0001
0000
0010
0100
1000
0000
0010
0000
0100
0000
0101
0000
0000
0000
,
0000
0000
1000
0000
0010
0000
0100
0001
0100
0000
0001
0000
0101
0000
0000
0000
,
1001
1000
0010
0010
0100
0100
0010
0000
,
0000
0100
0100
0000
0001
0000
0001
0000
1000
0000
1000
0000
0010
0000
0000
0000
,
0000
0000
1000
0000
0100
0000
1000
0100
1000
0000
1000
0000
0100
0000
0000
0000
,
0000
0000
0001
0000
0100
0000
0001
0100
0001
0000
0100
0000
0001
0000
0000
0000
,
0110
0000
1010
0000
,
0101
0000
0011
0000
1100
1000
1000
1000
,
0001
1000
0100
0000
1000
0001
0100
0000
,
0010
0000
1000
0000
0001
1000
0010
0000
0100
0000
0001
0000
1000
0000
0000
0000
,
0000
0001
0010
0000
0001
0100
0010
0000
,
1000
0000
0100
0000
0010
0100
1000
0000
0001
0000
0010
0000
0100
0000
1000
0000
,
1100
0000
0000
0001
0101
0000
0100
0010
,
0100
0001
0010
0100
1000
0010
1000
0100
,
1100
0000
0000
0010
0011
0000
0010
0100
,
1000
0001
0010
0100
1000
0001
0100
0010
,
0110
0000
0000
1000
1001
0000
1000
0100
,
0010
0100
1000
0001
0010
0100
0010
0001
,
0011
0000
0000
1000
1010
0000
1000
0001
,
1000
0000
0001
1000
0000
1000
0100
0000
0010
0000
0100
0000
1000
0000
0001
0000
,
1000
0000
0001
1000
0000
1000
0001
0000
0100
0000
0100
0000
0100
0010
0100
0010
,
0100
0000
0001
1000
0000
1000
0001
0000
0010
0000
0100
0000
1000
0000
0001
0000
,
1000
0000
0010
1000
0000
1000
0010
0000
0010
0000
0010
0000
0010
0100
0010
0100
,
0010
0000
0000
0000
;

//---------------dance-single - ----------------
#NOTES:
     dance-single:
     :
     Easy:
     4:
     0.132026,0.165582,0.067388,0.000000,0.000000,96.000000,89.000000,7.000000,0.000000,0.000000,0.000000,0.132026,0.165582,0.067388,0.000000,0.000000,96.000000,89.000000,7.000000,0.000000,0.000000,0.000000:
// measure 0
0000
0000
0000
0000
,  // measure 1
0000
0000
0000
0000
,  // measure 2
0000
0000
0000
0000
,  // measure 3
0000
0000
0000
0000
,  // measure 4
1000
0000
1000
0000
,  // measure 5
1000
1000
0100
0000
,  // measure 6
0001
0000
0001
0000
,  // measure 7
0001
0001
0100
0000
,  // measure 8
1000
0000
1000
0000
,  // measure 9
1000
1000
0001
0000
,  // measure 10
0001
0000
0001
0000
,  // measure 11
1000
1000
0001
0000
,  // measure 12
0100
0000
0100
0000
,  // measure 13
0010
0010
0100
0000
,  // measure 14
0110
0000
0000
0000
,  // measure 15
1000
0000
0000
0000
,  // measure 16
1001
0000
0000
0000
,  // measure 17
0001
0000
0000
0000
,  // measure 18
0110
0000
0100
0000
,  // measure 19
0100
0100
0100
0000
,  // measure 20
0010
0000
0010
0000
,  // measure 21
0010
0010
0010
0000
,  // measure 22
1000
0000
1000
0000
,  // measure 23
0001
1000
0001
0000
,  // measure 24
0001
0000
0001
0000
,  // measure 25
1000
0001
1000
0000
,  // measure 26
1001
0000
0000
0000
,  // measure 27
0010
0000
0000
0000
,  // measure 28
1001
0000
1000
0000
,  // measure 29
1000
1000
0100
0000
,  // measure 30
0001
0000
0010
0000
,  // measure 31
1000
0100
0001
0000
,  // measure 32
0010
0000
0001
0000
,  // measure 33
0010
0010
0010
0000
,  // measure 34
0100
0000
1000
0000
,  // measure 35
0100
0100
0100
0000
,  // measure 36
1000
0000
0001
0000
,  // measure 37
1000
1000
1000
0000
,  // measure 38
0001
0000
1000
0000
,  // measure 39
0001
0001
0001
0000
,  // measure 40
1001
0000
0100
0000
,  // measure 41
0100
0100
0100
0000
,  // measure 42
1001
0000
0010
0000
,  // measure 43
0010
0000
0000
0000
;

//---------------dance-single - ----------------
#NOTES:
     dance-single:
     :
     Medium:
     6:
     0.235170,0.269071,0.125149,0.173284,0.009627,171.000000,158.000000,13.000000,18.000000,0.000000,0.000000,0.235170,0.269071,0.125149,0.173284,0.009627,171.000000,158.000000,13.000000,18.000000,0.000000,0.000000:
0000
0000
0000
0000
,
0000
0000
0000
0000
,
0000
0000
0000
0000
,
0000
0000
0000
0000
0000
0000
0000
0001
,
1000
0000
0000
1000
0001
0000
2000
0000
,
3002
0203
0320
0030
,
0110
0010
1000
0010
,
0100
0001
0010
0100
,
0110
0100
1000
0001
,
1000
0001
0100
0010
,
1010
0010
0100
0001
,
1000
0100
0010
0100
,
0110
0010
0100
1000
,
0001
0010
0100
0010
,
1002
0000
0013
0000
,
0010
0000
0000
0010
0000
0000
0010
0000
0000
0000
0000
0000
0000
0000
0000
0000
,
1002
0000
0103
0000
,
0100
0000
0000
0100
0000
0000
0100
0000
0000
0000
0000
0000
0000
0000
0000
0000
,
2000
3100
0002
0013
,
1000
0100
0010
0001
,
0002
0103
2000
3010
,
0001
0010
0100
1000
,
2000
3100
0002
0103
,
0001
0010
0100
1000
,
2000
3001
0002
1003
,
0100
1000
0001
0010
,
0002
0013
2000
3010
,
0100
0001
1000
0010
,
1001
0100
1001
0010
,
0010
0000
0100
0000
0001
0100
0001
0000
,
1001
0100
1001
0010
,
0010
0000
0100
0000
1000
0100
1000
1000
,
0001
0000
0000
0001
1000
0000
0001
0000
,
1000
0000
0100
0000
0010
0000
0100
0010
,
0100
0000
0000
0100
0010
0000
0100
0000
,
0010
0000
0001
0000
1000
0000
0001
1000
,
0100
0000
0000
0100
1000
0000
1000
0000
,
0001
0000
0010
0000
0001
0000
1000
0001
,
1000
0000
0000
1000
0001
0000
1000
0000
,
0100
0001
0100
0110
,
1002
0010
1000
0103
,
0100
0000
0010
0000
1000
0001
1000
0000
,
2001
0100
0001
3010
,
0010
0000
0000
0000
;
