#TITLE:My Babe Bee;
#SUBTITLE:;
#ARTIST:Another Infinity feat. Mayumi Morinaga;
#TITLETRANSLIT:;
#SUBTITLETRANSLIT:;
#ARTISTTRANSLIT:;
#GENRE:Sweetie Pop;
#CREDIT:chewi;
#BANNER:My Babe Bee.png;
#BACKGROUND:My Babe Bee-bg.png;
#LYRICSPATH:;
#CDTITLE:cdtitle.png;
#MUSIC:My Babe Bee.ogg;
#OFFSET:-2.262000;
#SAMPLESTART:71.828003;
#SAMPLELENGTH:15.000000;
#SELECTABLE:YES;
#BPMS:0.000000=138.000000
;
#STOPS:
;
#BGCHANGES:;
#KEYSOUNDS:;
#ATTACKS:;

//---------------dance-single - ----------------
#NOTES:
     dance-single:
     :
     Beginner:
     2:
     0.123179,0.110091,0.076987,0.030795,0.000000,98.000000,10.000000,4.000000,0.000000,0.000000,0.000000,0.123179,0.110091,0.076987,0.030795,0.000000,98.000000,10.000000,4.000000,0.000000,0.000000,0.000000:
// measure 0
0000
0000
0000
0000
,  // measure 1
0000
0000
0000
0000
,  // measure 2
0000
0000
0000
0000
,  // measure 3
0000
0000
0000
0000
,  // measure 4
1000
0000
1000
0000
,  // measure 5
1000
0000
0000
0000
,  // measure 6
0001
0000
0001
0000
,  // measure 7
0001
0000
0000
0000
,  // measure 8
1001
0000
0000
0000
,  // measure 9
1000
0000
0000
0000
,  // measure 10
1001
0000
0000
0000
,  // measure 11
0001
0000
0000
0000
,  // measure 12
0110
0000
0000
0000
,  // measure 13
0100
0000
0000
0000
,  // measure 14
0110
0000
0000
0000
,  // measure 15
0010
0000
0000
0000
,  // measure 16
0010
0000
0010
0000
,  // measure 17
0020
0000
0000
0030
,  // measure 18
0010
0000
0010
0000
,  // measure 19
0010
0000
0000
0000
,  // measure 20
0100
0000
0100
0000
,  // measure 21
0200
0000
0000
0300
,  // measure 22
0100
0000
0100
0000
,  // measure 23
0100
0000
0000
0000
,  // measure 24
1000
0000
0000
0000
,  // measure 25
1000
0000
0000
0000
,  // measure 26
0001
0000
0000
0000
,  // measure 27
0001
0000
0000
0000
,  // measure 28
0010
0000
0000
0000
,  // measure 29
0010
0000
0000
0000
,  // measure 30
0100
0000
0000
0000
,  // measure 31
0100
0000
0000
0000
,  // measure 32
1000
0000
1000
0000
,  // measure 33
1000
0000
1000
0000
,  // measure 34
0001
0000
0001
0000
,  // measure 35
0001
0000
0001
0000
,  // measure 36
0010
0000
0010
0000
,  // measure 37
0010
0000
0010
0000
,  // measure 38
0100
0000
0100
0000
,  // measure 39
0100
0000
0100
0000
,  // measure 40
0110
0000
0000
0000
,  // measure 41
0100
0000
0000
0000
,  // measure 42
0110
0000
0000
0000
,  // measure 43
0010
0000
0000
0000
,  // measure 44
1001
0000
0000
0000
,  // measure 45
1000
0000
0000
0000
,  // measure 46
1001
0000
0000
0000
,  // measure 47
0001
0000
0000
0000
,  // measure 48
1000
0000
1000
0000
,  // measure 49
2000
0000
0000
3000
,  // measure 50
1000
0000
1000
0000
,  // measure 51
1000
0000
0000
0000
,  // measure 52
0001
0000
0001
0000
,  // measure 53
0002
0000
0000
0003
,  // measure 54
0001
0000
0001
0000
,  // measure 55
0001
0000
0000
0000
,  // measure 56
1001
0000
0000
0000
,  // measure 57
1000
0000
1000
0000
,  // measure 58
1000
0000
0000
0000
,  // measure 59
0001
0000
0001
0000
,  // measure 60
1001
0000
0000
0000
,  // measure 61
0001
0000
0001
0000
,  // measure 62
0001
0000
0000
0000
,  // measure 63
1000
0000
1000
0000
,  // measure 64
1000
0000
1000
0000
,  // measure 65
0001
0000
0001
0000
,  // measure 66
1000
0000
1000
0000
,  // measure 67
0001
0000
0001
0000
,  // measure 68
1000
0000
0001
0000
,  // measure 69
1000
0000
0001
0000
,  // measure 70
0010
0000
0010
0000
,  // measure 71
0010
0000
0010
0000
;

//---------------dance-single - ----------------
#NOTES:
     dance-single:
     :
     Easy:
     4:
     0.212264,0.248572,0.046192,0.146275,0.000000,168.000000,6.000000,19.000000,0.000000,0.000000,0.000000,0.212264,0.248572,0.046192,0.146275,0.000000,168.000000,6.000000,19.000000,0.000000,0.000000,0.000000:
// measure 0
0000
0000
0000
0000
,  // measure 1
0000
0000
0000
0000
,  // measure 2
0000
0000
0000
0000
,  // measure 3
0000
0000
0000
0000
,  // measure 4
2000
0000
0000
3000
,  // measure 5
0002
0000
0000
0003
,  // measure 6
2000
0000
0000
3000
,  // measure 7
0001
1000
0001
1001
,  // measure 8
0100
0000
0100
0000
,  // measure 9
0010
0000
0010
0000
,  // measure 10
1000
0000
1000
0000
,  // measure 11
0001
0000
0001
0000
,  // measure 12
0010
0000
0010
0000
,  // measure 13
0100
0000
0100
0000
,  // measure 14
1000
0000
1000
0000
,  // measure 15
1000
0001
1000
1001
,  // measure 16
2000
3000
2000
3000
,  // measure 17
1000
0001
1000
0000
,  // measure 18
0002
0003
0002
0003
,  // measure 19
0001
1000
0001
0000
,  // measure 20
0200
0300
0200
0300
,  // measure 21
0100
0010
0100
0000
,  // measure 22
0020
0030
0020
0030
,  // measure 23
0010
0100
0010
0000
,  // measure 24
0010
0100
0001
0000
,  // measure 25
0001
0001
0001
0000
,  // measure 26
1000
1000
1000
0000
,  // measure 27
0100
0100
0100
0000
,  // measure 28
0010
0100
1000
0000
,  // measure 29
1000
1000
1000
0000
,  // measure 30
0001
0001
0001
0000
,  // measure 31
0100
0100
0100
0000
,  // measure 32
0010
0100
0001
0000
,  // measure 33
1000
0001
1000
0000
,  // measure 34
0100
1000
0001
0000
,  // measure 35
0010
0001
0010
0000
,  // measure 36
0010
0100
1000
0000
,  // measure 37
0100
1000
0100
0000
,  // measure 38
0010
0001
0100
0000
,  // measure 39
0001
0100
0001
0000
,  // measure 40
0100
0000
0100
0000
,  // measure 41
0010
0000
0010
0000
,  // measure 42
1000
0000
1000
0000
,  // measure 43
0001
0000
0001
0000
,  // measure 44
0010
0000
0010
0000
,  // measure 45
0100
0000
0100
0000
,  // measure 46
1000
0000
1000
0000
,  // measure 47
1000
0001
1000
1001
,  // measure 48
2000
3000
2000
3000
,  // measure 49
1000
0001
1000
0000
,  // measure 50
0002
0003
0002
0003
,  // measure 51
0001
1000
0001
0000
,  // measure 52
0200
0300
0200
0300
,  // measure 53
0100
0010
0100
0000
,  // measure 54
0020
0030
0020
0030
,  // measure 55
0010
0100
0010
0110
,  // measure 56
0010
0000
0010
0000
,  // measure 57
0100
0000
0100
0000
,  // measure 58
0001
0000
0001
0000
,  // measure 59
1000
0000
1000
0000
,  // measure 60
0100
0000
0100
0000
,  // measure 61
0010
0000
0010
0000
,  // measure 62
0001
0000
0001
0000
,  // measure 63
0001
1000
0001
1001
,  // measure 64
1000
0000
1000
0000
,  // measure 65
0001
0000
0001
0000
,  // measure 66
0010
0000
0010
0000
,  // measure 67
0100
0000
0100
0000
,  // measure 68
0001
0000
0001
0000
,  // measure 69
1000
0000
1000
0000
,  // measure 70
0010
0000
0010
0000
,  // measure 71
0010
0100
0001
1001
;

//---------------dance-single - ----------------
#NOTES:
     dance-single:
     :
     Medium:
     6:
     0.296950,0.248572,0.061590,0.046192,0.000000,256.000000,8.000000,6.000000,0.000000,0.000000,0.000000,0.296950,0.248572,0.061590,0.046192,0.000000,256.000000,8.000000,6.000000,0.000000,0.000000,0.000000:
0000
0000
0000
0000
,
0000
0000
0000
0000
,
0000
0000
0000
0000
,
0000
0000
0000
0000
,
2000
0000
0100
0000
,
0010
0000
3100
0000
,
0002
0000
0100
0000
,
0010
0000
0103
0000
,
0100
0100
0100
0100
,
0010
0010
0010
0010
,
1000
1000
1000
1000
,
0001
0001
0001
0001
,
0010
0010
0010
0010
,
0100
0100
0100
0100
,
0010
0010
0010
0010
,
0001
0001
0001
0001
,
0001
0000
1001
0000
,
1000
0001
0010
0100
,
1000
0000
1001
0000
,
0001
0100
0010
1000
,
0010
0000
0110
0000
,
0100
0010
1000
0001
,
0010
0000
0011
0000
,
0001
0010
0100
1000
,
0001
0100
1000
0100
,
0001
0100
1000
0100
,
0001
0010
1000
0010
,
0001
0010
1000
0010
,
0001
0100
1000
0100
,
0001
0100
1000
0100
,
0001
0010
1000
0010
,
0001
0010
1000
0010
,
0100
0001
0100
0001
,
0010
0001
0010
0001
,
0010
0100
0010
0100
,
0010
0100
0001
0010
,
0100
1000
0100
1000
,
0010
1000
0010
1000
,
0010
0100
0010
0100
,
1000
0010
0100
1000
,
0010
0100
0001
0010
,
0002
1000
0100
0013
,
1000
0100
0010
0100
,
2000
0010
0100
3010
,
0010
0100
0001
1000
,
0002
0010
1000
0103
,
0100
0010
1000
0001
,
2000
0100
0001
3010
,
0010
0010
0100
0100
,
0010
0100
0001
1001
,
1000
1000
0001
0001
,
1000
0100
0001
0010
,
1000
1000
0010
0010
,
1000
0010
0001
1001
,
0001
0001
1000
1000
,
0001
0010
1000
0100
,
0001
0010
0100
1000
,
0100
0010
0100
1000
,
0001
0100
0010
1000
,
0001
0100
0010
0100
,
0001
0010
1000
0100
,
0001
0010
1000
0010
,
0100
0010
1000
0001
,
0010
0010
0010
0110
,
0010
0100
1000
0001
,
0010
0100
0010
0001
,
0100
0010
0100
0001
,
0100
0010
1000
0001
,
1000
0100
0010
0100
,
1000
0010
0100
0010
,
1000
0001
0100
0001
,
1000
0100
1000
1100
;

//---------------dance-single - ----------------
#NOTES:
     dance-single:
     :
     Hard:
     10:
     0.502615,0.443445,0.138577,0.153974,0.000000,419.000000,18.000000,20.000000,0.000000,0.000000,0.000000,0.502615,0.443445,0.138577,0.153974,0.000000,419.000000,18.000000,20.000000,0.000000,0.000000,0.000000:
0000
0000
0000
0000
,
0000
0000
0000
0000
,
0000
0000
0000
0000
,
0000
0000
0000
0000
,
1000
0000
0010
0100
0001
0000
0101
0000
,
0000
0100
0100
0100
0000
0010
0010
0010
,
1000
0001
0010
0100
1000
0000
1000
0001
,
1002
0203
0320
2030
,
3001
0000
0010
0100
1000
0000
0010
0000
,
0000
0100
0100
0100
0000
0001
0001
0001
,
0010
0100
1000
0001
0010
0000
0010
0000
,
0000
0001
0010
0100
0010
0001
0100
0010
,
1000
0000
0001
0100
0010
0000
0110
0000
,
0000
0100
0100
0100
0000
0010
0010
0010
,
1000
0010
1000
0010
1000
0000
0100
0010
,
0001
0000
1000
0100
0001
0000
1001
0000
,
1000
0001
0100
0000
0001
1000
0100
0000
,
1000
0001
0100
0010
1000
0001
0010
0100
,
1000
0001
0010
0000
0001
1000
0010
0000
,
1000
0001
0010
0100
1000
0001
0100
0010
,
0100
0001
0010
0000
0100
1000
0010
0000
,
1000
0100
0010
0001
1000
0100
0010
0001
,
0100
0010
1000
0000
0001
0100
0010
0000
,
0100
0001
0010
0100
0010
0001
0010
0000
,
0012
0103
2010
3100
,
1000
0001
0100
0000
0001
1000
0100
0000
,
0010
0100
0010
0100
1000
0001
1000
0000
,
0010
0100
0010
0100
0001
1000
0001
0000
,
1002
0013
2001
3010
,
0001
0100
0010
0000
1000
0100
0010
0000
,
0001
0010
0100
1000
0001
1000
0010
0000
,
0100
0001
0010
0100
0010
0001
1000
0000
,
1000
0001
1000
0001
0100
0010
0100
0010
,
1000
0001
1000
0001
0010
0100
0010
0100
,
0010
0001
0100
0000
0100
0001
0100
0000
,
0010
1000
0100
0000
0100
1000
0100
0000
,
1000
0100
0010
0001
1000
0100
0010
0001
,
1000
0010
0100
0001
1000
0010
0100
0001
,
0100
0001
0010
0000
0100
1000
0010
0000
,
1001
0110
1001
0110
,
1000
0000
0100
0010
0001
0000
0100
0000
,
0000
0010
0010
0010
0000
1000
1000
1000
,
0100
0010
0001
1000
0100
0000
0100
0000
,
0000
1000
0100
0010
0100
1000
0010
0100
,
0001
0000
1000
0010
0100
0000
0110
0000
,
0000
0010
0010
0010
0000
0100
0100
0100
,
0001
0100
0001
0100
0001
0000
0001
1000
,
1200
0320
0032
0203
,
0301
1000
0010
0000
1000
0001
0010
0000
,
0001
1000
0010
0100
0001
1000
0100
0010
,
0001
1000
0100
0000
1000
0001
0100
0000
,
0001
1000
0100
0010
0001
1000
0010
0100
,
0010
1000
0100
0000
0010
0001
0100
0000
,
0001
0010
0100
1000
0001
0010
0100
1000
,
0010
0100
0001
0000
1000
0010
0100
0000
,
0010
1000
0100
0010
0100
1000
0100
0000
,
1000
0000
0001
1000
0010
0000
0100
0000
,
0000
0001
0001
0001
0000
1000
1000
1000
,
0001
1000
0010
0100
0001
0000
0001
0000
,
0000
0100
0001
1000
0001
0100
1000
0001
,
0010
0000
0100
1000
0001
0000
1001
0000
,
0000
1000
1000
1000
0000
0001
0001
0001
,
0010
0001
0010
0001
0010
0000
0010
0100
,
2100
3200
0320
0032
,
1003
0000
1000
0001
0100
0000
0010
0000
,
0000
1000
1000
1000
0000
0001
0001
0001
,
1000
0001
0100
0010
1000
0000
1000
0000
,
0000
0010
1000
0001
1000
0010
0001
1000
,
0100
0000
0010
0001
1000
0000
1001
0000
,
0000
0001
0001
0001
0000
1000
1000
1000
,
0100
1000
0100
1000
0100
0000
0100
0010
,
0012
0203
0320
2030
,
3000
0000
0000
0000
;
