#TITLE:Muenzuka set 04 ~ 今昔幻想郷;
#SUBTITLE:;
#ARTIST:凛;
#TITLETRANSLIT:Muenzuka set 04 ~ Konjaku Gensokyo;
#SUBTITLETRANSLIT:;
#ARTISTTRANSLIT:Rin;
#GENRE:Touhou Arrange;
#CREDIT:steps by chewi, sync and cut by Loodee;
#BANNER:Muenzuka set 04 ~ Konjaku Gensokyo.png;
#BACKGROUND:Muenzuka set 04 ~ Konjaku Gensokyo-bg.png;
#LYRICSPATH:;
#CDTITLE:cdtitle.png;
#MUSIC:Muenzuka set 04 ~ Konjaku Gensokyo.ogg;
#OFFSET:-0.026000;
#SAMPLESTART:29.546000;
#SAMPLELENGTH:15.000000;
#SELECTABLE:YES;
#BPMS:0.000000=128.000000
;
#STOPS:
;
#BGCHANGES:;
#KEYSOUNDS:;
#ATTACKS:;

//---------------dance-single - ----------------
#NOTES:
     dance-single:
     :
     Beginner:
     1:
     0.067230,0.130521,0.014707,0.044120,0.000000,56.000000,2.000000,6.000000,0.000000,0.000000,0.000000,0.067230,0.130521,0.014707,0.044120,0.000000,56.000000,2.000000,6.000000,0.000000,0.000000,0.000000:
// measure 0
0000
0000
0000
0000
,  // measure 1
0000
0000
0000
0000
,  // measure 2
0000
0000
0000
0000
,  // measure 3
0000
0000
0000
0000
,  // measure 4
1000
0000
0000
0000
,  // measure 5
0000
0000
0000
0000
,  // measure 6
0001
0000
0000
0000
,  // measure 7
0000
0000
0000
0000
,  // measure 8
0100
0000
0000
0000
,  // measure 9
0000
0000
0000
0000
,  // measure 10
0100
0000
0000
0000
,  // measure 11
0000
0000
0000
0000
,  // measure 12
0010
0000
0000
0000
,  // measure 13
0000
0000
0000
0000
,  // measure 14
0010
0000
0000
0000
,  // measure 15
0000
0000
0000
0000
,  // measure 16
2000
0000
0000
3000
,  // measure 17
1000
0000
0000
0000
,  // measure 18
0002
0000
0000
0003
,  // measure 19
0001
0000
0000
0000
,  // measure 20
0200
0000
0000
0300
,  // measure 21
0100
0000
0000
0000
,  // measure 22
0020
0000
0000
0030
,  // measure 23
0010
0000
0000
0000
,  // measure 24
0010
0000
0000
0000
,  // measure 25
0000
0000
0000
0000
,  // measure 26
0100
0000
0000
0000
,  // measure 27
0000
0000
0000
0000
,  // measure 28
0001
0000
0000
0000
,  // measure 29
0000
0000
0000
0000
,  // measure 30
1000
0000
0000
0000
,  // measure 31
0000
0000
0000
0000
,  // measure 32
1000
0000
0000
0000
,  // measure 33
1000
0000
0000
0000
,  // measure 34
0100
0000
0000
0000
,  // measure 35
0100
0000
0000
0000
,  // measure 36
0001
0000
0000
0000
,  // measure 37
0001
0000
0000
0000
,  // measure 38
0010
0000
0000
0000
,  // measure 39
0010
0000
0000
0000
,  // measure 40
1000
0000
0000
0000
,  // measure 41
1000
0000
0000
0000
,  // measure 42
0010
0000
0000
0000
,  // measure 43
0010
0000
0000
0000
,  // measure 44
0001
0000
0000
0000
,  // measure 45
0001
0000
0000
0000
,  // measure 46
0100
0000
0000
0000
,  // measure 47
0100
0000
0000
0000
,  // measure 48
1000
0000
0000
0000
,  // measure 49
1000
0000
0000
0000
,  // measure 50
0001
0000
0000
0000
,  // measure 51
0001
0000
0000
0000
,  // measure 52
0010
0000
0000
0000
,  // measure 53
0010
0000
0000
0000
,  // measure 54
0100
0000
0000
0000
,  // measure 55
0100
0000
0000
0000
,  // measure 56
1001
0000
0000
0000
,  // measure 57
1000
0000
0000
0000
,  // measure 58
0001
0000
0000
0000
,  // measure 59
1000
0000
0000
0000
,  // measure 60
0110
0000
0000
0000
,  // measure 61
0010
0000
0000
0000
,  // measure 62
0100
0000
0000
0000
,  // measure 63
0010
0000
0000
0000
,  // measure 64
2000
0000
0000
0000
,  // measure 65
0000
0000
0000
3000
,  // measure 66
0002
0000
0000
0000
,  // measure 67
0000
0000
0000
0003
,  // measure 68
0100
0000
0000
0000
,  // measure 69
0100
0000
0000
0000
,  // measure 70
0010
0000
0000
0000
,  // measure 71
0010
0000
0000
0000
;

//---------------dance-single - ----------------
#NOTES:
     dance-single:
     :
     Easy:
     3:
     0.122905,0.211040,0.000000,0.161773,0.000000,95.000000,0.000000,22.000000,0.000000,0.000000,0.000000,0.122905,0.211040,0.000000,0.161773,0.000000,95.000000,0.000000,22.000000,0.000000,0.000000,0.000000:
// measure 0
0000
0000
0000
0000
,  // measure 1
0000
0000
0000
0000
,  // measure 2
0000
0000
0000
0000
,  // measure 3
0000
0000
0000
0000
,  // measure 4
1000
0000
0000
0000
,  // measure 5
0100
0000
0000
0000
,  // measure 6
0001
0000
0000
0000
,  // measure 7
0010
0000
0000
0000
,  // measure 8
2000
0000
0000
0000
,  // measure 9
0000
0000
0000
3000
,  // measure 10
0002
0000
0000
0000
,  // measure 11
0000
0000
0000
0003
,  // measure 12
0200
0000
0000
0000
,  // measure 13
0000
0000
0000
0300
,  // measure 14
0020
0000
0000
0000
,  // measure 15
0000
0000
0000
0030
,  // measure 16
0010
0000
0010
0000
,  // measure 17
0000
0000
0000
0000
,  // measure 18
0100
0000
0100
0000
,  // measure 19
0100
0000
0000
0000
,  // measure 20
1000
0000
1000
0000
,  // measure 21
0000
0000
0000
0000
,  // measure 22
0001
0000
0001
0000
,  // measure 23
0001
0000
0000
0000
,  // measure 24
1000
0000
0100
0000
,  // measure 25
0000
0000
0000
0000
,  // measure 26
0001
0000
0100
0000
,  // measure 27
0001
0000
0000
0000
,  // measure 28
0001
0000
0010
0000
,  // measure 29
0000
0000
0000
0000
,  // measure 30
1000
0000
0010
0000
,  // measure 31
1000
0000
0000
0000
,  // measure 32
2000
0000
0000
3000
,  // measure 33
1000
1000
1000
0000
,  // measure 34
0002
0000
0000
0003
,  // measure 35
0001
0001
0001
0000
,  // measure 36
0200
0000
0000
0300
,  // measure 37
0020
0000
0000
0030
,  // measure 38
2000
0000
0000
3000
,  // measure 39
0002
0000
0000
0003
,  // measure 40
2000
0000
0000
3000
,  // measure 41
1000
0100
1000
0100
,  // measure 42
2000
0000
0000
3000
,  // measure 43
0001
1000
0001
1000
,  // measure 44
0002
0000
0000
0003
,  // measure 45
0001
0010
0001
0010
,  // measure 46
0002
0000
0000
0003
,  // measure 47
1000
0001
1000
0001
,  // measure 48
1000
0000
1000
0000
,  // measure 49
1000
0000
0001
0000
,  // measure 50
0100
0000
0100
0000
,  // measure 51
0100
0000
0010
0000
,  // measure 52
1000
0000
1000
0000
,  // measure 53
1000
0000
0100
0000
,  // measure 54
0010
0000
0010
0000
,  // measure 55
0010
0000
0001
0000
,  // measure 56
2000
0000
0000
3000
,  // measure 57
0001
0001
0001
0000
,  // measure 58
0002
0000
0000
0003
,  // measure 59
1000
0001
1000
0000
,  // measure 60
2000
0000
0000
3000
,  // measure 61
1000
1000
1000
0000
,  // measure 62
0002
0000
0000
0003
,  // measure 63
0001
0000
1000
0000
,  // measure 64
0002
0000
0000
0000
,  // measure 65
0000
0000
0000
0003
,  // measure 66
0200
0000
0000
0000
,  // measure 67
0000
0000
0000
0300
,  // measure 68
0020
0000
0000
0000
,  // measure 69
0000
0000
0000
0030
,  // measure 70
2000
0000
0000
0000
,  // measure 71
0000
0000
0000
3000
;

//---------------dance-single - ----------------
#NOTES:
     dance-single:
     :
     Medium:
     6:
     0.205893,0.262881,0.058827,0.183833,0.000000,163.000000,8.000000,25.000000,0.000000,0.000000,0.000000,0.205893,0.262881,0.058827,0.183833,0.000000,163.000000,8.000000,25.000000,0.000000,0.000000,0.000000:
// measure 0
0000
0000
0000
0000
,  // measure 1
0000
0000
0000
0000
,  // measure 2
0000
0000
0000
0000
,  // measure 3
0000
0000
0000
0000
,  // measure 4
1000
0000
0000
0000
,  // measure 5
0001
0000
0000
0000
,  // measure 6
0100
0000
0000
0000
,  // measure 7
0010
0000
0000
0000
,  // measure 8
0200
0000
0000
0000
,  // measure 9
0000
0000
0000
0000
,  // measure 10
0320
0000
0000
0000
,  // measure 11
0000
0000
0000
0000
,  // measure 12
2030
0000
0000
0000
,  // measure 13
0000
0000
0000
0000
,  // measure 14
3002
0000
0000
0000
,  // measure 15
2000
0000
0000
3003
,  // measure 16
1000
0000
0001
0000
,  // measure 17
1000
0100
0010
0001
,  // measure 18
1000
0000
0001
0000
,  // measure 19
1000
0010
0100
0001
,  // measure 20
0100
0000
0001
0000
,  // measure 21
0100
0001
1000
0010
,  // measure 22
1000
0000
0010
0000
,  // measure 23
1000
0001
1000
0100
,  // measure 24
1100
0000
0100
0000
,  // measure 25
0100
0010
0001
0010
,  // measure 26
0011
0000
0010
0000
,  // measure 27
0001
0010
0100
1000
,  // measure 28
1001
0000
1000
0000
,  // measure 29
0001
1000
0100
0010
,  // measure 30
0110
0000
0010
0000
,  // measure 31
0100
0010
0100
0010
,  // measure 32
0020
0000
0000
0000
,  // measure 33
0002
0000
0000
0030
,  // measure 34
0200
0000
0000
0003
,  // measure 35
0020
0000
0000
0300
,  // measure 36
2000
0000
0000
0030
,  // measure 37
0002
0000
0000
3000
,  // measure 38
0020
0000
0000
0003
,  // measure 39
0200
0000
0000
0330
,  // measure 40
0010
0100
1000
0010
,  // measure 41
0001
0100
1000
0010
,  // measure 42
0001
0100
1000
0100
,  // measure 43
0001
0100
1000
0001
,  // measure 44
0100
0010
1000
0100
,  // measure 45
0001
0010
1000
0100
,  // measure 46
0001
0100
1000
0001
,  // measure 47
0100
1000
0010
0001
,  // measure 48
0200
0000
0320
0000
,  // measure 49
0130
0010
1000
0001
,  // measure 50
2000
0000
3002
0000
,  // measure 51
1003
0100
0010
0001
,  // measure 52
0020
0000
0032
0000
,  // measure 53
0013
0001
0010
0100
,  // measure 54
2000
0000
3200
0000
,  // measure 55
1300
0001
1000
0100
,  // measure 56
1001
0000
1000
0000
,  // measure 57
0001
1000
0010
0100
,  // measure 58
0110
0000
0100
0000
,  // measure 59
0100
0010
1000
0001
,  // measure 60
1100
0000
1000
0000
,  // measure 61
1000
0100
0001
0100
,  // measure 62
0101
0000
0100
0000
,  // measure 63
0001
0100
1000
0100
,  // measure 64
0200
0000
0000
0000
,  // measure 65
0320
0000
0000
0000
,  // measure 66
0032
0000
1000
0000
,  // measure 67
2003
0000
0001
0000
,  // measure 68
3001
0001
0100
0000
,  // measure 69
1000
1000
0010
0000
,  // measure 70
0001
0001
0010
0000
,  // measure 71
1000
1000
0100
0000
;

//---------------dance-single - ----------------
#NOTES:
     dance-single:
     :
     Hard:
     11:
     0.451704,0.527601,0.147066,0.147066,0.128683,390.000000,20.000000,20.000000,0.000000,0.000000,0.000000,0.451704,0.527601,0.147066,0.147066,0.128683,390.000000,20.000000,20.000000,0.000000,0.000000,0.000000:
// measure 0
0000
0000
0000
0000
,  // measure 1
0000
0000
0000
0000
,  // measure 2
0000
0000
0000
0000
,  // measure 3
0000
0000
0000
0000
,  // measure 4
0000
0001
0000
1000
,  // measure 5
0000
0001
0000
1000
,  // measure 6
0000
0010
0000
0100
,  // measure 7
0000
0000
0010
0000
0000
0010
0100
0010
,  // measure 8
0200
0000
0320
0000
,  // measure 9
0030
1000
0100
0010
0001
1000
0100
1000
,  // measure 10
0200
0000
2300
0000
,  // measure 11
3001
0000
0000
0000
0000
0001
0100
0001
,  // measure 12
0200
0000
0320
0000
,  // measure 13
0030
1000
0001
0010
0100
0010
0001
0010
,  // measure 14
0002
0000
2003
0000
,  // measure 15
3100
0000
0000
0100
0000
0000
0100
0000
0010
0000
0001
0000
1000
0000
0100
0000
,  // measure 16
1000
0000
0000
1000
0100
0000
0000
0000
0001
0000
0000
0001
0100
0000
0000
0000
,  // measure 17
1000
1000
0100
0100
0010
0010
0001
0001
,  // measure 18
1000
0000
0000
1000
0100
0000
0000
0000
0001
0000
0000
0001
0010
0000
0000
0000
,  // measure 19
1001
0000
0100
0000
1001
0100
0100
0100
,  // measure 20
0010
0000
0000
0010
1000
0000
0000
0000
1000
0000
0000
1000
0010
0000
0000
0000
,  // measure 21
0100
0100
0001
0001
1000
1000
0100
0100
,  // measure 22
0010
0000
0000
0010
0001
0000
0000
0000
0010
0000
0000
0010
1000
0000
0000
0000
,  // measure 23
0110
0000
1000
0000
0110
0001
0001
0001
,  // measure 24
0001
0000
0000
0001
0010
0000
0000
0000
1000
0000
0000
1000
0010
0000
0000
0000
,  // measure 25
0001
0001
0010
0010
0100
0100
1000
1000
,  // measure 26
0001
0000
0000
0001
0010
0000
0000
0000
1000
0000
0000
1000
0100
0000
0000
0000
,  // measure 27
1001
0000
0010
0000
1001
0010
0010
0010
,  // measure 28
0100
0000
0000
0100
0001
0000
0000
0000
0001
0000
0000
0001
0100
0000
0000
0000
,  // measure 29
0010
0010
1000
1000
0001
0001
0010
0010
,  // measure 30
2200
3300
0202
0303
,  // measure 31
2002
0000
0000
3003
,  // measure 32
0010
0001
0010
0001
1000
0100
0010
0001
,  // measure 33
0100
0001
0100
0001
1000
0010
0100
0001
,  // measure 34
1000
0100
1000
0100
0010
0100
1000
0010
,  // measure 35
0100
0001
0100
0010
1000
0001
1000
0000
,  // measure 36
0001
0010
0001
0010
0100
0010
0001
0100
,  // measure 37
0010
1000
0010
0100
0001
1000
0001
0010
,  // measure 38
0001
0100
0001
0000
1000
0100
1000
0000
,  // measure 39
1001
0000
0000
0100
0100
0000
0000
0000
,  // measure 40
0010
1000
0010
1000
0001
0100
0010
1000
,  // measure 41
0100
1000
0100
1000
0001
0010
0100
1000
,  // measure 42
0001
0100
0001
0100
0001
0010
1000
0010
,  // measure 43
0001
1000
0001
1000
0010
0100
0001
0010
,  // measure 44
0100
1000
0100
0000
0100
0001
0100
0000
,  // measure 45
1000
0010
0001
0010
0100
0001
0010
0100
,  // measure 46
1000
0001
0100
0000
0001
1000
0100
0000
,  // measure 47
0010
0001
0100
0010
1000
0100
0010
0000
,  // measure 48
0001
0000
0000
0001
0010
0000
0000
0000
1000
0000
0000
1000
0010
0000
0000
0000
,  // measure 49
0010
0010
0100
0100
0001
0001
1000
1000
,  // measure 50
0010
0000
0000
0010
0100
0000
0000
0000
0100
0000
0000
0100
0010
0000
0000
0000
,  // measure 51
0110
0000
1000
0000
0110
0001
0001
0001
,  // measure 52
1000
0000
0000
1000
0010
0000
0000
0000
0001
0000
0000
0001
0010
0000
0000
0000
,  // measure 53
1000
1000
0100
0100
0010
0010
1000
1000
,  // measure 54
0010
0000
0000
0010
0100
0000
0000
0000
1000
0000
0000
1000
0001
0000
0000
0000
,  // measure 55
1001
0000
0010
0000
1001
0100
0100
0100
,  // measure 56
0100
0000
0000
0100
0001
0000
0000
0000
1000
0000
0000
1000
0010
0000
0000
0000
,  // measure 57
0100
0100
0001
0001
1000
1000
0010
0010
,  // measure 58
0100
0000
0000
0100
0001
0000
0000
0000
0100
0000
0000
0100
1000
0000
0000
0000
,  // measure 59
0110
0000
0001
0000
0110
1000
1000
1000
,  // measure 60
1000
0000
0000
1000
0100
0000
0000
0000
0100
0000
0000
0100
1000
0000
0000
0000
,  // measure 61
0001
0001
0010
0010
0100
0100
0001
0001
,  // measure 62
0100
0000
0000
0100
1000
0000
0000
0000
0100
0000
0000
0100
0001
0000
0000
0000
,  // measure 63
0101
1100
1010
0011
,  // measure 64
0200
0000
0320
0000
,  // measure 65
0030
0001
0010
0100
1000
0001
0100
0001
,  // measure 66
0200
0000
0320
0000
,  // measure 67
0130
0000
0000
0000
0000
0001
0100
0001
,  // measure 68
0100
0000
0000
0100
0001
0000
0000
0000
1000
0000
0000
1000
0010
0000
0000
0000
,  // measure 69
2000
0001
0100
3001
,  // measure 70
1000
0000
0000
1000
0001
0000
0000
0000
0010
0000
0000
0010
0100
0000
0000
0000
,  // measure 71
0020
0001
0100
0031
;
